<svg xmlns="http://www.w3.org/2000/svg" version="1.1"><defs><font id="Font" horiz-adv-x="594"><font-face font-family="Font" font-weight="700" font-style="italic" font-stretch="normal" units-per-em="1000" panose-1="2 11 8 0 3 0 0 0 0 0" ascent="800" descent="-200" x-height="500" cap-height="710" bbox="-129 -268 1141 999" underline-thickness="100" underline-position="-190" slope="-12" unicode-range="U+000D-FB02"/><glyph glyph-name=".notdef" horiz-adv-x="496"/><glyph glyph-name="glyph1" horiz-adv-x="0"/><glyph glyph-name="uni000D" horiz-adv-x="220"/><glyph glyph-name="space" horiz-adv-x="220"/><glyph glyph-name="exclam" unicode="!" horiz-adv-x="300" d="M113 439l58 271h152l-58-271-69-184h-92zm113-329q-1-56-34-87T107-8Q87-8 69-1T37 18.5t-22.5 29T6 83q0 30 15.5 57T63 184h136q11-11 19-31.5t8-42.5z"/><glyph glyph-name="quotedbl" unicode="&quot;" horiz-adv-x="448" d="M120 710h127V412H120v298zm202 0h127V412H322v298z"/><glyph glyph-name="numbersign" unicode="#" horiz-adv-x="698" d="M383 181H252L196 0H68l56 181H41v114h119l37 120h-83v114h119l56 181h128l-56-181h131l56 181h128l-56-181h82V415H584l-37-120h83V181H511L455 0H327zm-95 114h131l37 120H325z"/><glyph glyph-name="dollar" unicode="$" horiz-adv-x="542" d="M169 4q-58 18-99.5 60T11 167l142 63q18-56 43-77t67-21q35 0 54 17t19 42q0 11-2.5 21t-9.5 20.5-20 23-34 29.5l-35 28q-29 23-51 46t-38 47-24 51.5-8 59.5q0 46 15.5 82t43.5 61.5 65.5 40T320 717l18 81h127l-22-102q32-15 59.5-42.5T550 584l-141-63q-17 33-36.5 45.5T329 579q-23 0-41.5-12T269 525q0-24 15.5-47t59.5-58l34-27q23-18 44-38t36.5-43 25-50 9.5-60q0-84-49.5-140T294-5l-18-83H149z"/><glyph glyph-name="percent" unicode="%" horiz-adv-x="1051" d="M284 435q34 0 57 24.5t23 57.5-23 57.5-57 24.5-57-24.5-23-57.5 23-57.5 57-24.5zm0-115q-41 0-77 15.5T144.5 378t-42 62.5T87 517q0 40 15.5 76t42 63 62.5 42.5 77 15.5q40 0 76-15.5t63-42.5 42.5-63 15.5-76q0-41-15.5-76.5T423 378t-63-42.5-76-15.5zm445 390h147L366 0H219zm82-599q34 0 57 24.5t23 57.5-23 57.5-57 24.5-57-24.5-23-57.5 23-57.5 57-24.5zm0-115q-41 0-77 15.5T671.5 54t-42 62.5T614 193q0 40 15.5 76t42 63 62.5 42.5 77 15.5q40 0 76-15.5t63-42.5 42.5-63 15.5-76q0-41-15.5-76.5T950 54t-63-42.5T811-4z"/><glyph glyph-name="ampersand" unicode="&amp;" horiz-adv-x="757" d="M260-8q-39 0-76 12.5T118.5 40 73 95.5 56 168q0 37 8.5 67t28 56 51.5 50 78 49q-14 24-23 52.5t-9 63.5q0 46 16.5 85t46.5 67 72 44 93 16q37 0 69-13t55.5-34.5T579 620t13-60q0-60-38-106t-124-92l63-90 125 107 91-108-133-114L688 0H496l-42 58q-49-34-93.5-50T260-8zm17 134q25 0 48.5 12.5T374 171l-82 116q-48-27-66.5-50T208 187q1-29 20.5-45t48.5-16zm57 399q0-21 7-35.5t20-32.5l6 3q42 21 62 39t20 42q0 25-13.5 37.5T399 591q-28 0-46.5-21T334 525z"/><glyph glyph-name="quotesingle" unicode="'" horiz-adv-x="246" d="M120 710h127V412H120v298z"/><glyph glyph-name="parenleft" unicode="(" horiz-adv-x="306" d="M69-164q-9 28-16 66T41.5-19 35 62t-2 72q0 169 59.5 323.5T267 764l119-59q-50-69-91-135.5T225.5 436t-44-136.5T166 154q0-29 1.5-64t5-71 8-71 10.5-63L69-164z"/><glyph glyph-name="parenright" unicode=")" horiz-adv-x="307" d="M259 764q9-28 15.5-66t11-79 7-81 2.5-72q0-169-59.5-323.5T61-164l-119 59Q-8-36 33 30.5T102.5 164t44 136.5T162 446q0 29-1.5 64t-5 71-8 71-10.5 63l122 49z"/><glyph glyph-name="asterisk" unicode="*" horiz-adv-x="515" d="M139 343l88 120-142 46 32 98 142-46v149h103V561l141 47 32-98-141-47 88-120-83-60-88 119-89-119z"/><glyph glyph-name="plus" unicode="+" horiz-adv-x="590" d="M84 339h161v161h114V339h161V225H359V64H245v161H84v114z"/><glyph glyph-name="comma" unicode="," horiz-adv-x="287" d="M77 0H10l37 174h174L184 0 87-154H0z"/><glyph glyph-name="hyphen" unicode="-" horiz-adv-x="396" d="M78 354h284l-31-144H47z"/><glyph glyph-name="period" unicode="." horiz-adv-x="289" d="M229 100q0-23-8.5-42.5t-23-34T163 .5 121-8Q98-8 78.5.5t-34 23-23 34T13 100q0 22 8.5 42t23 34.5 34 23T121 208q22 0 42-8.5t34.5-23 23-34.5 8.5-42z"/><glyph glyph-name="slash" unicode="/" horiz-adv-x="379" d="M310 710h136L115 0H-21z"/><glyph glyph-name="zero" unicode="0" horiz-adv-x="590" d="M279 141q25 0 46 16t37.5 42.5T391 260t20 69.5 12 69.5 4 61q0 53-17.5 81T356 569q-38 0-66-35t-46-85-27-104.5-9-94.5q0-110 71-109zM268-8q-53 0-94 20t-69 55.5T62.5 151 48 253q0 84 20 167t60 149 99.5 107.5T367 718q53 0 94-20.5t69-56.5 42.5-83.5T587 456q0-56-9-112t-26.5-108-44.5-96.5T444.5 62 365 10.5 268-8z"/><glyph glyph-name="one" unicode="1" horiz-adv-x="590" d="M322 467l-181-77 36 172 349 148L375 0H223z"/><glyph glyph-name="two" unicode="2" horiz-adv-x="590" d="M248 271q40 40 73 71.5t56.5 58.5 36 50 12.5 46q0 15-5 29t-14.5 25.5T382 570t-34 7q-43 0-68.5-25.5T250 490H103q4 45 24 86t53.5 72.5T260 699t103 19q51 0 90.5-18t66-47.5 40.5-68 14-80.5q0-37-10.5-68t-28-58-39.5-51-45-46L309 141h216L495 0H-28z"/><glyph glyph-name="three" unicode="3" horiz-adv-x="590" d="M512 251q0-49-15.5-95.5t-48.5-83T364 14 243-8q-78 0-129 36t-74 93l128 74q9-27 31.5-44.5T257 133q51 0 80.5 31t29.5 74q0 18-6 34.5T341.5 302t-35 20.5T254 330h-76l164 239H135l30 141h429L407 437q54-27 79.5-77.5T512 251z"/><glyph glyph-name="four" unicode="4" horiz-adv-x="590" d="M314 150H-32l619 568-93-436h86l-28-132h-86L434 0H282zm28 132l21 97-106-97h85z"/><glyph glyph-name="five" unicode="5" horiz-adv-x="590" d="M521 251q0-49-15.5-95.5t-48.5-83T373 14 252-8q-74 0-126 32.5T44 109l120 87q12-27 39.5-45t62.5-18q51 0 80.5 31t29.5 74q0 36-22.5 64T289 330q-32 0-55-12.5T197 284l-99 43 93 383h376l-30-141H305l-24-99q8 1 12 1h10q52 0 93-18.5t68.5-49 42-70T521 251z"/><glyph glyph-name="six" unicode="6" horiz-adv-x="590" d="M536 251q0-49-15.5-95.5t-48.5-83T388 14 267-8q-53 0-93.5 18t-68 48.5-42 70.5T49 212q0 40 11.5 83.5T110 388l249 322h176L348 469q46-5 81-25t59-50 36-67 12-76zm-342-27q0-36 22.5-63.5T281 133q51 0 80.5 31t29.5 74q0 36-22.5 64T304 330q-52 0-81-31.5T194 224z"/><glyph glyph-name="seven" unicode="7" horiz-adv-x="590" d="M393 569H135l30 141h492L184 0H14z"/><glyph glyph-name="eight" unicode="8" horiz-adv-x="590" d="M536 540q0-44-15-80t-43-62q27-26 42-60.5t15-75.5q0-53-16.5-101.5t-48.5-86-80-60T278-8q-49 0-90.5 16.5t-72 45T68 120t-17 81q0 72 29.5 130.5T168 424q-25 39-25 87 0 36 12.5 73t38 66.5 65 48.5 93.5 19q43 0 77-14.5t58-39.5 36.5-57 12.5-67zM195 219q0-36 24.5-61t66.5-25q25 0 45 9t33 24.5 20 35.5 7 42q0 37-23 61.5T304 330q-51 0-80-32t-29-79zm91 299q0-20 13.5-34.5T337 469q28 0 42.5 19t14.5 42q0 20-13.5 34T343 578q-28 0-42.5-18.5T286 518z"/><glyph glyph-name="nine" unicode="9" horiz-adv-x="590" d="M99 459q0 49 15.5 95.5t48.5 83 84 58.5 121 22q52 0 93-18t68.5-48.5 42-70.5 14.5-83q0-40-11.5-83.5T525 322L276 0H100l187 241q-46 5-81 25t-59 50-36 67-12 76zm342 27q0 36-22.5 63.5T354 577q-51 0-80.5-31T244 472q0-36 22.5-64t64.5-28q52 0 81 31.5t29 74.5z"/><glyph glyph-name="colon" unicode=":" horiz-adv-x="310" d="M295 400q0-23-8.5-42.5t-23-34-34.5-23-42-8.5q-23 0-42.5 8.5t-34 23-23 34T79 400q0 22 8.5 42t23 34.5 34 23T187 508q22 0 42-8.5t34.5-23 23-34.5 8.5-42zm-64-300q0-23-8.5-42.5t-23-34T165 .5 123-8Q100-8 80.5.5t-34 23-23 34T15 100q0 22 8.5 42t23 34.5 34 23T123 208q22 0 42-8.5t34.5-23 23-34.5 8.5-42z"/><glyph glyph-name="semicolon" unicode=";" horiz-adv-x="308" d="M295 400q0-23-8.5-42.5t-23-34-34.5-23-42-8.5q-23 0-42.5 8.5t-34 23-23 34T79 400q0 22 8.5 42t23 34.5 34 23T187 508q22 0 42-8.5t34.5-23 23-34.5 8.5-42zM81 0H14l37 174h174L188 0 91-154H4z"/><glyph glyph-name="equal" unicode="=" horiz-adv-x="590" d="M81 236h436V122H81v114zm0 206h436V328H81v114z"/><glyph glyph-name="question" unicode="?" horiz-adv-x="545" d="M229 420h53q58 0 90.5 23t32.5 59q0 33-20.5 54T326 577q-46 0-70.5-27T229 486H81q3 46 21.5 88t52 74 80.5 51 106 19q51 0 90.5-18t66.5-47 41-66.5 14-76.5q0-92-54.5-152.5T336 283l-8-38H192zM216-8q-40 0-66 26.5T124 83q0 30 17 57t43 44h136q11-11 17.5-31.5T344 110q0-28-10.5-50t-28-37-41-23T216-8z"/><glyph glyph-name="at" unicode="@" horiz-adv-x="805" d="M415-8q-81 0-145.5 27t-110 73.5T90 202 66 337q0 85 31.5 155.5T182 613t123.5 77.5T453 718q74 0 137-22t109-62.5 72-98T797 406q0-65-16-111.5T739.5 219t-59-42.5T613 163t-60 14-38 37q-23-23-56-36t-67-13q-41 0-72 13.5t-52 37-31.5 55T226 337q0 45 16 85t44.5 70 68.5 47 88 17q28 0 50.5-7t39.5-20l4 17h95l-47-220q-7-33 2.5-56t41.5-23q40 0 62 36.5T713 408q0 58-21.5 101.5T634 581t-83 42-99 14q-58 0-112-19.5t-95-58-66-94.5-25-128q0-59 18.5-107.5t52-82.5 82-52.5T415 76q45 0 90 10t86 31l33-81Q577 15 520.5 3.5T415-8zm-7 267q20 0 38.5 6t34.5 22l32 148q-14 14-32 21t-37 7q-50 0-82-33.5T330 345q0-39 19-62.5t59-23.5z"/><glyph glyph-name="A" unicode="A" horiz-adv-x="669" d="M434 718L631 0H471l-28 110H184L109 0H-69zM272 240h137l-37 146z"/><glyph glyph-name="B" unicode="B" horiz-adv-x="643" d="M174 710h221q52 0 92-15t68-40.5 42.5-58T612 529q0-46-20.5-89.5T531 366q32-21 51-54t19-84q0-47-17.5-88.5T531 67t-87.5-49T320 0H23zm161-563q53 0 80.5 23t27.5 56q0 25-17.5 43.5T376 288H242l-30-141h123zm19 276q49 0 74 24t25 57q0 25-17.5 42.5T384 564h-83l-30-141h83z"/><glyph glyph-name="C" unicode="C" horiz-adv-x="731" d="M705 123q-53-63-132-97T395-8q-77 0-138.5 27.5T152 93.5 85.5 201 62 329q0 75 26.5 145t78 124T294 685t176 33 174.5-43.5T760 563l-133-91q-24 39-69 65.5T455 564q-53 0-96-18t-73-48-46.5-70-16.5-85q0-39 11-75t34-63 58-43 82-16q61 0 108.5 24t77.5 63l111-110z"/><glyph glyph-name="D" unicode="D" horiz-adv-x="732" d="M297 146q51 0 97.5 16t82 47 56 75T553 385q0 37-11 70t-32.5 57-52.5 38-71 14h-83l-89-418h83zM174 710h230q72 0 130-25t98.5-66 62-94.5T716 413q0-108-33-186T592 98.5 455 24 284 0H23z"/><glyph glyph-name="E" unicode="E" horiz-adv-x="564" d="M174 710h440l-34-158H300l-25-120h220l-33-154H242l-25-120h280L463 0H23z"/><glyph glyph-name="F" unicode="F" horiz-adv-x="530" d="M174 710h420l-34-158H300l-25-120h200l-33-154H242L183 0H23z"/><glyph glyph-name="G" unicode="G" horiz-adv-x="762" d="M676 79q-48-38-117.5-62.5T393-8q-75 0-136.5 27T152 91 85.5 194.5 62 317q0 79 25 151.5t76 128T290.5 685 470 718q99 0 173.5-43T760 563l-133-91q-26 39-70.5 65.5T455 564q-56 0-99.5-18t-73-49.5T238 423t-15-90q0-38 11.5-71.5t35-59.5 58-41 80.5-15q44 0 76 8t59 25l22 101H394l99 150h257L676 79z"/><glyph glyph-name="H" unicode="H" horiz-adv-x="756" d="M174 710h160l-59-278h284l59 278h160L627 0H467l59 278H242L183 0H23z"/><glyph glyph-name="I" unicode="I" horiz-adv-x="313" d="M174 710h161L184 0H23z"/><glyph glyph-name="J" unicode="J" horiz-adv-x="527" d="M445 202q-12-56-30.5-95.5t-47-65T298 4 200-8q-40 0-76 14T61 45.5 18.5 106 3 182q0 23 4 43h160q-3-15-3-28 0-29 14.5-44.5T216 137q29 0 45 14.5t26 60.5l106 498h160L445 202z"/><glyph glyph-name="K" unicode="K" horiz-adv-x="674" d="M253 333L183 0H23l151 710h160l-76-355 322 355h191L430 334 625 0H449z"/><glyph glyph-name="L" unicode="L" horiz-adv-x="531" d="M174 710h161L218 159h275L459 0H23z"/><glyph glyph-name="M" unicode="M" horiz-adv-x="860" d="M176 718l260-360 447 360L731 0H571l72 341-233-187-150 208L183 0H23z"/><glyph glyph-name="N" unicode="N" horiz-adv-x="760" d="M266 391L183 0H23l153 718 363-399 83 391h160L629-8z"/><glyph glyph-name="O" unicode="O" horiz-adv-x="817" d="M222 339q0-38 11.5-72.5t35-61.5 58-43 80.5-16q53 0 96 18t73 49 46.5 72 16.5 86q0 37-12 72t-35 62-57.5 43-80.5 16q-53 0-96-18t-73-49-46.5-72-16.5-86zm578 46q0-75-26-146t-77.5-125.5-127.5-88T394-8q-76 0-137.5 27.5t-105 74-67 106.5T61 325q0 75 26.5 146T165 596.5t127 88T467 718q76 0 137.5-27.5t105-74 67-106.5T800 385z"/><glyph glyph-name="P" unicode="P" horiz-adv-x="587" d="M174 710h189q55 0 100-17t76.5-45.5 49-66.5 17.5-80q0-56-16.5-105.5t-53-86.5-93.5-59-138-22h-74L183 0H23zm157-333q49 0 82.5 28.5T447 478q0 16-5 30.5t-15.5 26T399 553t-40 7h-57l-39-183h68z"/><glyph glyph-name="Q" unicode="Q" horiz-adv-x="839" d="M800 385q0-60-17-117.5T733 160l96-93L728-36l-97 94Q583 27 524.5 9.5T394-8q-76 0-137.5 27.5t-105 74-67 106.5T61 325q0 75 26.5 146T165 596.5t127 88T467 718q76 0 137.5-27.5t105-74 67-106.5T800 385zm-578-46q0-38 11.5-72.5t35-61.5 58-43 80.5-16q62 0 109 24l-101 99 101 103 101-99q22 47 22 98 0 37-12 72t-35 62-57.5 43-80.5 16q-53 0-96-18t-73-49-46.5-72-16.5-86z"/><glyph glyph-name="R" unicode="R" horiz-adv-x="637" d="M246 288h-3L182 0H23l151 710h226q50 0 89.5-16t67-42.5 42-60.5 14.5-69q0-48-15-87t-42-67.5-64-47-81-26.5L574 0H405zm117 135q37 0 64 21.5t27 57.5q0 25-16.5 43.5T393 564h-91l-30-141h91z"/><glyph glyph-name="S" unicode="S" horiz-adv-x="547" d="M506 212q0-48-16.5-88.5t-47.5-70T366.5 8 265-8q-94 0-155.5 45.5T19 155l138 79q20-50 46-71.5t68-21.5q28 0 49 14.5t21 40.5q0 21-14 37.5T274 278l-36 26q-29 22-54 45t-43 47.5-28.5 52.5-10.5 60q0 50 17.5 89t47.5 65.5 70 40.5 84 14q32 0 63-5t60-19 55-38.5 49-62.5l-138-79q-20 36-42 45.5t-45 9.5q-24 0-41.5-12.5T264 522q0-23 19-43.5t57-48.5l35-26q24-17 47-37.5t42-44.5 30.5-51.5T506 212z"/><glyph glyph-name="T" unicode="T" horiz-adv-x="542" d="M253 552H84l34 158h501l-34-158H416L299 0H136z"/><glyph glyph-name="U" unicode="U" horiz-adv-x="717" d="M656 288q-17-78-43.5-134T546 62 452 9 326-8q-53 0-99 17.5T146.5 60 92 139 72 242q0 32 8 72l84 396h160l-88-413q-2-12-3.5-23t-1.5-21q0-55 32-81t82-26q59 0 97 34t53 106l90 424h161l-90-422z"/><glyph glyph-name="V" unicode="V" horiz-adv-x="648" d="M87 710h162l84-362 237 362h187L269-8z"/><glyph glyph-name="W" unicode="W" horiz-adv-x="858" d="M93 710h159l38-328 234 336 82-350 186 342h167L560-8l-94 411L186-8z"/><glyph glyph-name="X" unicode="X" horiz-adv-x="661" d="M270 381L119 710h165l94-206 180 206h195L445 358 611 0H446L337 235 132 0H-63z"/><glyph glyph-name="Y" unicode="Y" horiz-adv-x="680" d="M270 298L95 710h168l105-257 215 257h198L430 298 367 0H207z"/><glyph glyph-name="Z" unicode="Z" horiz-adv-x="629" d="M394 552H115l34 158h560L271 158h300L537 0H-44z"/><glyph glyph-name="bracketleft" unicode="[" horiz-adv-x="334" d="M180 759h231l-23-108H284L134-51h104l-23-108H-16z"/><glyph glyph-name="bracketright" unicode="]" horiz-adv-x="334" d="M176-159H-55l23 108H72l150 702H118l23 108h231z"/><glyph glyph-name="underscore" unicode="_" horiz-adv-x="543" d="M2 0h436l-24-114H-22z"/><glyph glyph-name="grave" unicode="`" horiz-adv-x="418" d="M231 710h160l45-155h-97z"/><glyph glyph-name="a" unicode="a" horiz-adv-x="595" d="M351 30q-24-19-54.5-28.5T234-8q-43 0-80 18T89.5 59t-43 70.5T31 213q0 62 20.5 116t58 93.5T199 485t115 23q35 0 65.5-9t53.5-29l7 30h149L483 0H347zm-75 100q24 0 48 8.5t43 24.5l36 172q-17 19-40 27t-47 8q-27 0-51.5-10t-43-28-29-43-10.5-56q0-50 26-76.5t68-26.5z"/><glyph glyph-name="b" unicode="b" horiz-adv-x="597" d="M157 710h151l-49-230q45 28 100 28 45 0 83-18t65.5-49 42.5-71 15-83q0-62-19-116t-55-93.5T402 15 282-8Q247-8 216.5.5T163 29l-6-29H6zm163-340q-24 0-48.5-8.5T228 336l-36-171q17-20 40-27.5t48-7.5q27 0 51.5 10t43 28 29 43 10.5 56q0 50-26 76.5T320 370z"/><glyph glyph-name="c" unicode="c" horiz-adv-x="534" d="M496 99q-39-49-97-78T270-8q-57 0-101 19.5t-74.5 52-46 75T33 227q0 60 21 111t58.5 89 90 59.5T318 508q40 0 73.5-11t60.5-29 46.5-42 31.5-50l-125-74q-14 30-41 47.5T305 367q-53 0-86.5-36T185 240q0-51 28-79t70-28q34 0 60.5 15t45.5 40l107-89z"/><glyph glyph-name="d" unicode="d" horiz-adv-x="595" d="M351 30q-24-19-54.5-28.5T234-8q-43 0-80 18T89.5 59t-43 70.5T31 213q0 62 20.5 116t58 93.5T199 485t115 23q35 0 65-8.5t53-28.5l51 239h151L483 0H347zm-75 100q24 0 48 8.5t43 24.5l36 172q-17 20-40 27.5t-47 7.5q-27 0-51.5-10t-43-28-29-43-10.5-56q0-50 26-76.5t68-26.5z"/><glyph glyph-name="e" unicode="e" horiz-adv-x="567" d="M496 100q-39-51-97-79.5T270-8q-57 0-101 19.5t-74.5 52-46 75T33 227q0 58 20.5 109.5T111 426t89.5 60T318 508q49 0 89.5-14.5t70-43T523 380t16-96q0-14-1.5-29t-3.5-32H178q5-43 32-66.5t65-23.5 64 14.5 46 38.5zM304 387q-38 0-70-19.5T189 311h208v5q0 37-28.5 54T304 387z"/><glyph glyph-name="f" unicode="f" horiz-adv-x="382" d="M123 368H58l28 132h80q-11 17-17.5 35t-6.5 47q0 18 8 40t27 41.5 50.5 33T306 710h156l-28-132H327q-30 0-39.5-12.5T278 538q0-14 10-26t31-12h99l-28-132H274L196 0H45z"/><glyph glyph-name="g" unicode="g" horiz-adv-x="597" d="M507 47q0-51-19.5-95T430-124.5t-93-51T211-194q-57 0-115 13.5T-8-133L69-4q27-23 62.5-37.5T211-56q25 0 50 5t45 16.5 32.5 30T351 42q0 4-.5 8.5T349 60q-25-16-57-23.5T225 29q-45 0-80 17.5t-59 47-36.5 68T37 242q0 53 19.5 101.5t55 85 86.5 58T312 508q34 0 64.5-8.5T430 472l6 28h151L502 97q5-28 5-50zM274 167q26 0 54 10.5t47 30.5l26 127q-17 19-40 27t-47 8q-55 0-90.5-30.5T188 255q0-45 22-66.5t64-21.5z"/><glyph glyph-name="h" unicode="h" d="M157 710h151l-53-249q26 23 57.5 35t74.5 12q40 0 71-15t52.5-40 32.5-58 11-69q0-27-6-52L490 0H339l56 261q4 17 4 37 0 32-16.5 52T325 370q-25 0-51-12t-49-39L157 0H6z"/><glyph glyph-name="i" unicode="i" horiz-adv-x="270" d="M134 571q-5 8-8.5 21t-3.5 26q0 46 28 73t75 27q32 0 56.5-19.5T306 643q0-24-8.5-41T275 571H134zm-22-71h152L158 0H6z"/><glyph glyph-name="j" unicode="j" horiz-adv-x="278" d="M-98-41h31q22 0 36.5 3T-6-27 10-4.5 21 33l100 467h152L166 0q-14-64-35-100.5t-52-55T7-179t-95-5h-41zm241 612q-5 8-8.5 21t-3.5 26q0 46 28 73t75 27q32 0 56.5-19.5T315 643q0-24-8.5-41T284 571H143z"/><glyph glyph-name="k" unicode="k" horiz-adv-x="553" d="M210 250L157 0H6l151 710h151l-93-438 205 228h180L370 245 505 0H347z"/><glyph glyph-name="l" unicode="l" horiz-adv-x="270" d="M157 710h152L158 0H6z"/><glyph glyph-name="m" unicode="m" horiz-adv-x="887" d="M686 252q2 12 3.5 23t1.5 21q0 33-15 53.5T628 370q-9 0-21.5-4t-26-11.5-26.5-19-22-27.5q-1-12-2.5-24.5T525 259L470 0H319l54 252q2 12 3.5 23t1.5 21q0 33-15 53.5T315 370q-18 0-45-13.5T225 317L157 0H6l106 500h149l-7-37q15 16 45 30.5t68 14.5q44 0 76.5-17.5T498 443q10 9 25 20.5t35.5 21.5 46 16.5T660 508q45 0 80-13.5t58-38 35-58 12-73.5q0-34-7-66L783 0H632z"/><glyph glyph-name="n" unicode="n" d="M112 500h149l-7-40q26 23 58 35.5t75 12.5q40 0 71-15t52.5-40 32.5-58 11-69q0-27-6-52L490 0H339l55 261q4 17 4 37 0 32-16 52t-57 20q-25 0-51-12t-49-38L157 0H6z"/><glyph glyph-name="o" unicode="o" horiz-adv-x="588" d="M185 240q0-50 28-78.5t70-28.5q26 0 48 9.5t38 27 25 41 9 50.5q0 50-28 78t-70 28q-53 0-86.5-36T185 240zm370 34q0-60-21-111.5T475.5 73t-90-59.5T270-8q-57 0-101 19.5t-74.5 52-46 75T33 227q0 60 21 111t58.5 89 90 59.5T318 508q57 0 101-19.5t74.5-52 46-74.5 15.5-88z"/><glyph glyph-name="p" unicode="p" horiz-adv-x="597" d="M112 500h138l-5-30q47 38 114 38 45 0 83-18t65.5-49 42.5-71 15-83q0-62-19-116t-55-93.5T402 15 282-8Q247-8 216.5.5T163 29l-45-213H-33zm208-130q-24 0-48-8.5T229 336l-37-171q17-20 40-27.5t48-7.5q27 0 51.5 10t43 28 29 43 10.5 56q0 50-26 76.5T320 370z"/><glyph glyph-name="q" unicode="q" horiz-adv-x="595" d="M293-184l43 204Q292-8 234-8q-43 0-80 18T89.5 59t-43 70.5T31 213q0 62 20.5 116t58 93.5T199 485t115 23q35 0 65-9t53-28l6 29h151L444-184H293zm-17 314q23 0 47.5 8t42.5 24l37 173q-17 19-40 27t-47 8q-27 0-51.5-10t-43-28-29-43-10.5-56q0-50 26-76.5t68-26.5z"/><glyph glyph-name="r" unicode="r" horiz-adv-x="397" d="M112 500h151l-9-43q23 26 55.5 38.5T379 508q12 0 25.5-1.5T431 500l-33-157q-16 9-34.5 13t-38.5 4q-23 0-50.5-8.5T226 327L157 0H6z"/><glyph glyph-name="s" unicode="s" horiz-adv-x="434" d="M382 155q0-78-48.5-120.5T198-8Q121-8 71.5 25T2 104l107 74q7-13 15-24.5t18.5-20.5 24.5-14.5 33-5.5 30 7.5 11 21.5q0 15-11 24.5T199 190l-34 23q-22 15-41 29.5T91.5 274t-21 37.5T63 358q0 30 11 57.5t33 48 54.5 32.5 76.5 12q63 0 109-25t67-63l-103-76q-14 24-33.5 35T239 390q-18 0-26.5-8.5T204 362q0-12 7.5-21t30.5-23l26-17q55-35 84.5-68.5T382 155z"/><glyph glyph-name="t" unicode="t" horiz-adv-x="428" d="M53 500h106l17 75 166 75-32-150h142l-30-132H282l-36-171q-3-12-3-22 0-37 48-37h82L344 0H231q-69 0-106.5 35T87 137q0 29 7 60l37 171H53v132z"/><glyph glyph-name="u" unicode="u" d="M340 40q-26-23-59-35.5T205-8q-34 0-63.5 12.5T90 40 55 97t-13 78q0 32 7 66l55 259h151l-53-252q-2-12-3.5-23t-1.5-22q0-34 16.5-53.5T269 130q29 0 55.5 13t46.5 45l66 312h151L482 0H333z"/><glyph glyph-name="v" unicode="v" horiz-adv-x="522" d="M36 500h156l65-224 154 224h177L209-8z"/><glyph glyph-name="w" unicode="w" horiz-adv-x="729" d="M52 500h154l23-279 184 287 60-295 145 287h164L517 0H402l-44 206L220 0H105z"/><glyph glyph-name="x" unicode="x" horiz-adv-x="554" d="M194 265L69 500h161l67-127 121 127h186L364 248 498 0H337l-76 140L128 0H-58z"/><glyph glyph-name="y" unicode="y" horiz-adv-x="524" d="M131 0L52 500h155l39-316 169 316h165L182-184H24z"/><glyph glyph-name="z" unicode="z" horiz-adv-x="518" d="M269 370H69l27 130h454L243 131h214L429 0H-40z"/><glyph glyph-name="braceleft" unicode="{" horiz-adv-x="350" d="M158-159q-58 0-91 29T34-38q0 31 7 63l36 168q2 10 2 15 0 17-10 27.5T35 246h-8l23 108h8q29 0 44 15.5t20 37.5l45 210q9 42 25 69.5t38 43.5 49.5 22.5T339 759h89l-23-108h-47q-31 0-46.5-13T289 594l-42-196q-9-44-31.5-67.5T165 300q20-5 32.5-21t12.5-45q0-7-1-15t-3-17L164 6q-3-12-3-22 0-35 48-35h47l-23-108h-75z"/><glyph glyph-name="bar" unicode="|" horiz-adv-x="349" d="M114 710h127v-894H114v894z"/><glyph glyph-name="braceright" unicode="}" horiz-adv-x="350" d="M214 759q58 0 91-29t33-92q0-31-7-63l-36-168q-2-10-2-15 0-17 10-27.5t34-10.5h8l-23-108h-8q-29 0-44-15.5T250 193L205-17q-9-42-25-69.5T142-130t-49.5-22.5T33-159h-89l23 108h47q31 0 46.5 13T83 6l42 196q9 44 31.5 67.5T207 300q-20 5-32.5 21T162 366q0 7 1 15t3 17l42 196q3 12 3 22 0 35-48 35h-47l23 108h75z"/><glyph glyph-name="uni00A0" horiz-adv-x="220"/><glyph glyph-name="exclamdown" unicode="¡" horiz-adv-x="288" d="M31 87l69 184h92l-9-184-58-271H-27zm63 229q-11 11-17.5 31.5T70 390q0 28 10.5 50t28 37 40.5 23 49 8q40 0 66-26.5t26-64.5q0-30-17-57t-43-44H94z"/><glyph glyph-name="sterling" unicode="£" horiz-adv-x="597" d="M83 413h83q-6 18-9.5 37t-3.5 36q0 48 17.5 90t50 73.5 78.5 50T403 718q44 0 82.5-14.5t67-39.5 45-60 16.5-75q0-16-3-34H463q1 4 1 12 0 31-22.5 50.5T386 577q-43 0-67-25t-24-63q0-29 19-52.5t61-23.5h67l-25-117H286l-33-155h283L506 0H-5l30 141h76l33 155H58z"/><glyph glyph-name="yen" unicode="¥" horiz-adv-x="726" d="M144 412h103L121 710h171l104-258 216 258h187L545 412h105l-25-114H448l-17-77h178l-24-114H407L385 0H233l22 107H79l24 114h176l17 77H119z"/><glyph glyph-name="dieresis" unicode="¨" horiz-adv-x="582" d="M389 647q0-33-23.5-56.5T309 567t-56.5 23.5T229 647t23.5 56.5T309 727t56.5-23.5T389 647zm238 0q0-33-23.5-56.5T547 567t-56.5 23.5T467 647t23.5 56.5T547 727t56.5-23.5T627 647z"/><glyph glyph-name="copyright" unicode="©" horiz-adv-x="813" d="M429-8q-75 0-141 28.5t-115.5 78-78 115.5T66 355t28.5 141 78 115.5 115.5 78T429 718t141-28.5 115.5-78 78-115.5T792 355t-28.5-141-78-115.5-115.5-78T429-8zm0 105q53 0 100 20.5t82 55.5 55.5 82T687 355t-20.5 100-55.5 82-82 55.5T429 613t-100-20.5-82-55.5-55.5-82T171 355t20.5-100 55.5-82 82-55.5T429 97zm153 167q-23-36-61-58t-83-22q-35 0-66.5 13.5T317 234t-36.5 54.5T267 355t13.5 66 36.5 54.5 54.5 37T438 526q45 0 83-22t61-58l-75-53q-9 19-27 32t-42 13q-34 0-55.5-24.5T361 355t21.5-58.5T438 272q24 0 42 12.5t28 31.5z"/><glyph glyph-name="guillemotleft" unicode="«" horiz-adv-x="566" d="M262 250l215 241 88-81-157-171 81-173L375 9zm-235 0l215 241 88-81-157-171 81-173L140 9z"/><glyph glyph-name="uni00AD" unicode="­" horiz-adv-x="396" d="M78 354h284l-31-144H47z"/><glyph glyph-name="macron" unicode="¯" horiz-adv-x="494" d="M225 675h330l-20-96H205z"/><glyph glyph-name="degree" unicode="°" horiz-adv-x="307" d="M223 470q-25 0-47.5 9.5t-39 26-26 39T101 592t9.5 47.5 26 39 39 26T223 714t47.5-9.5 39-26 26-39T345 592t-9.5-47.5-26-39-39-26T223 470zm0 77q19 0 32 13t13 32-13 32-32 13-32-13-13-32 13-32 32-13z"/><glyph glyph-name="acute" unicode="´" horiz-adv-x="440" d="M333 710h178L333 555H218z"/><glyph glyph-name="periodcentered" unicode="·" horiz-adv-x="298" d="M263 282q0-23-8.5-42.5t-23-34-34.5-23-42-8.5q-23 0-42.5 8.5t-34 23-23 34T47 282q0 22 8.5 42t23 34.5 34 23T155 390q22 0 42-8.5t34.5-23 23-34.5 8.5-42z"/><glyph glyph-name="cedilla" unicode="¸" horiz-adv-x="352" d="M142 0h102l-62-134H55z"/><glyph glyph-name="guillemotright" unicode="»" horiz-adv-x="566" d="M539 250L324 9l-88 81 157 171-81 173 114 57zm-235 0L89 9 1 90l157 171-81 173 114 57z"/><glyph glyph-name="questiondown" unicode="¿" horiz-adv-x="538" d="M226 316q-11 11-17.5 31.5T202 390q0 28 10.5 50t28 37 40.5 23 49 8q40 0 66-26.5t26-64.5q0-30-17-57t-43-44H226zm-21-509q-51 0-90.5 18T48-128 7-61.5-7 15q0 92 54.5 152.5T210 242l6 28h136l-35-165h-53q-58 0-90.5-23T141 23q0-33 20.5-54T220-52q46 0 70.5 27T317 39h148q-3-46-21.5-88t-52-74-80.5-51-106-19z"/><glyph glyph-name="Agrave" unicode="À" horiz-adv-x="669" d="M434 718L631 0H471l-28 110H184L109 0H-69zM272 240h137l-37 146zm30 683h158l39-145H397z"/><glyph glyph-name="Aacute" unicode="Á" horiz-adv-x="669" d="M434 718L631 0H471l-28 110H184L109 0H-69zM272 240h137l-37 146zm216 683h172L503 778H387z"/><glyph glyph-name="Acircumflex" unicode="Â" horiz-adv-x="669" d="M434 718L631 0H471l-28 110H184L109 0H-69zM272 240h137l-37 146zm-4 611l195 80 156-83-46-89-117 62-150-62z"/><glyph glyph-name="Atilde" unicode="Ã" horiz-adv-x="669" d="M434 718L631 0H471l-28 110H184L109 0H-69zM272 240h137l-37 146zm-8 566q20 56 53.5 86t79.5 30q22 0 39-6.5t32-14 28-13.5 27-6q17 0 26.5 9.5T570 924h101l-10-29q-20-56-53-86t-79-30q-22 0-39.5 6T457 798.5t-28.5 14T402 819q-17 0-26.5-9.5T355 777H254z"/><glyph glyph-name="Adieresis" unicode="Ä" horiz-adv-x="669" d="M434 718L631 0H471l-28 110H184L109 0H-69zM272 240h137l-37 146zm152 610q0-33-23.5-56.5T344 770t-56.5 23.5T264 850t23.5 56.5T344 930t56.5-23.5T424 850zm238 0q0-33-23.5-56.5T582 770t-56.5 23.5T502 850t23.5 56.5T582 930t56.5-23.5T662 850z"/><glyph glyph-name="Aring" unicode="Å" horiz-adv-x="669" d="M434 718L631 0H471l-28 110H184L109 0H-69zM272 240h137l-37 146zm150 639q0-20 13.5-33.5T469 832t33.5 13.5T516 879t-13.5 33.5T469 926t-33.5-13.5T422 879zm167 0q0-25-9.5-46.5t-26-38-38-26T469 759t-46.5 9.5-38 26-26 38T349 879t9.5 46.5 26 38 38 26T469 999t46.5-9.5 38-26 26-38T589 879z"/><glyph glyph-name="AE" unicode="Æ" horiz-adv-x="918" d="M487 0l-28 110H200L125 0H-53l381 545-46 165h401l44-158H494l33-120h172l43-154H570l33-120h232L879 0H487zm-62 240l-37 146-99-146h136z"/><glyph glyph-name="Ccedilla" unicode="Ç" horiz-adv-x="731" d="M341-4q-65 9-116.5 39.5T137 111 81.5 212 62 329q0 75 26.5 145t78 124T294 685t176 33 174.5-43.5T760 563l-133-91q-24 39-69 65.5T455 564q-53 0-96-18t-73-48-46.5-70-16.5-85q0-39 11-75t34-63 58-43 82-16q61 0 108.5 24t77.5 63l111-110q-45-53-108.5-86T454-5l-60-129H257z"/><glyph glyph-name="Egrave" unicode="È" horiz-adv-x="564" d="M174 710h440l-34-158H300l-25-120h220l-33-154H242l-25-120h280L463 0H23zm103 213h158l39-145H372z"/><glyph glyph-name="Eacute" unicode="É" horiz-adv-x="564" d="M174 710h440l-34-158H300l-25-120h220l-33-154H242l-25-120h280L463 0H23zm244 213h172L433 778H317z"/><glyph glyph-name="Ecircumflex" unicode="Ê" horiz-adv-x="564" d="M174 710h440l-34-158H300l-25-120h220l-33-154H242l-25-120h280L463 0H23zm57 141l195 80 156-83-46-89-117 62-150-62z"/><glyph glyph-name="Edieresis" unicode="Ë" horiz-adv-x="564" d="M387 850q0-33-23.5-56.5T307 770t-56.5 23.5T227 850t23.5 56.5T307 930t56.5-23.5T387 850zm238 0q0-33-23.5-56.5T545 770t-56.5 23.5T465 850t23.5 56.5T545 930t56.5-23.5T625 850zM174 710h440l-34-158H300l-25-120h220l-33-154H242l-25-120h280L463 0H23z"/><glyph glyph-name="Igrave" unicode="Ì" horiz-adv-x="313" d="M174 710h161L184 0H23zm-35 213h158l39-145H234z"/><glyph glyph-name="Iacute" unicode="Í" horiz-adv-x="313" d="M174 710h161L184 0H23zm106 213h172L295 778H179z"/><glyph glyph-name="Icircumflex" unicode="Î" horiz-adv-x="313" d="M174 710h161L184 0H23zM92 851l195 80 156-83-46-89-117 62-150-62z"/><glyph glyph-name="Idieresis" unicode="Ï" horiz-adv-x="313" d="M268 840q0-33-23.5-56.5T188 760t-56.5 23.5T108 840t23.5 56.5T188 920t56.5-23.5T268 840zm188 0q0-33-23.5-56.5T376 760t-56.5 23.5T296 840t23.5 56.5T376 920t56.5-23.5T456 840zM174 710h161L184 0H23z"/><glyph glyph-name="Eth" unicode="Ð" horiz-adv-x="764" d="M56 425h89l61 285h230q72 0 130-25t98.5-66 62-94.5T748 413q0-108-33-186T624 98.5 487 24 316 0H55l60 285H27zm273-279q51 0 97.5 16t82 47 56 75T585 385q0 37-11 70t-32.5 57-52.5 38-71 14h-83l-30-139h89l-29-140h-90l-29-139h83z"/><glyph glyph-name="Ntilde" unicode="Ñ" horiz-adv-x="760" d="M266 391L183 0H23l153 718 363-399 83 391h160L629-8zm44 415q20 56 53.5 86t79.5 30q22 0 39-6.5t32-14 28-13.5 27-6q17 0 26.5 9.5T616 924h101l-10-29q-20-56-53-86t-79-30q-22 0-39.5 6T503 798.5t-28.5 14T448 819q-17 0-26.5-9.5T401 777H300z"/><glyph glyph-name="Ograve" unicode="Ò" horiz-adv-x="817" d="M222 339q0-38 11.5-72.5t35-61.5 58-43 80.5-16q53 0 96 18t73 49 46.5 72 16.5 86q0 37-12 72t-35 62-57.5 43-80.5 16q-53 0-96-18t-73-49-46.5-72-16.5-86zm578 46q0-75-26-146t-77.5-125.5-127.5-88T394-8q-76 0-137.5 27.5t-105 74-67 106.5T61 325q0 75 26.5 146T165 596.5t127 88T467 718q76 0 137.5-27.5t105-74 67-106.5T800 385zM348 923h158l39-145H443z"/><glyph glyph-name="Oacute" unicode="Ó" horiz-adv-x="817" d="M222 339q0-38 11.5-72.5t35-61.5 58-43 80.5-16q53 0 96 18t73 49 46.5 72 16.5 86q0 37-12 72t-35 62-57.5 43-80.5 16q-53 0-96-18t-73-49-46.5-72-16.5-86zm578 46q0-75-26-146t-77.5-125.5-127.5-88T394-8q-76 0-137.5 27.5t-105 74-67 106.5T61 325q0 75 26.5 146T165 596.5t127 88T467 718q76 0 137.5-27.5t105-74 67-106.5T800 385zM489 923h172L504 778H388z"/><glyph glyph-name="Ocircumflex" unicode="Ô" horiz-adv-x="817" d="M222 339q0-38 11.5-72.5t35-61.5 58-43 80.5-16q53 0 96 18t73 49 46.5 72 16.5 86q0 37-12 72t-35 62-57.5 43-80.5 16q-53 0-96-18t-73-49-46.5-72-16.5-86zm578 46q0-75-26-146t-77.5-125.5-127.5-88T394-8q-76 0-137.5 27.5t-105 74-67 106.5T61 325q0 75 26.5 146T165 596.5t127 88T467 718q76 0 137.5-27.5t105-74 67-106.5T800 385zM302 851l195 80 156-83-46-89-117 62-150-62z"/><glyph glyph-name="Otilde" unicode="Õ" horiz-adv-x="817" d="M222 339q0-38 11.5-72.5t35-61.5 58-43 80.5-16q53 0 96 18t73 49 46.5 72 16.5 86q0 37-12 72t-35 62-57.5 43-80.5 16q-53 0-96-18t-73-49-46.5-72-16.5-86zm578 46q0-75-26-146t-77.5-125.5-127.5-88T394-8q-76 0-137.5 27.5t-105 74-67 106.5T61 325q0 75 26.5 146T165 596.5t127 88T467 718q76 0 137.5-27.5t105-74 67-106.5T800 385zM317 806q20 56 53.5 86t79.5 30q22 0 39-6.5t32-14 28-13.5 27-6q17 0 26.5 9.5T623 924h101l-10-29q-20-56-53-86t-79-30q-22 0-39.5 6T510 798.5t-28.5 14T455 819q-17 0-26.5-9.5T408 777H307z"/><glyph glyph-name="Odieresis" unicode="Ö" horiz-adv-x="817" d="M222 339q0-38 11.5-72.5t35-61.5 58-43 80.5-16q53 0 96 18t73 49 46.5 72 16.5 86q0 37-12 72t-35 62-57.5 43-80.5 16q-53 0-96-18t-73-49-46.5-72-16.5-86zm578 46q0-75-26-146t-77.5-125.5-127.5-88T394-8q-76 0-137.5 27.5t-105 74-67 106.5T61 325q0 75 26.5 146T165 596.5t127 88T467 718q76 0 137.5-27.5t105-74 67-106.5T800 385zM477 850q0-33-23.5-56.5T397 770t-56.5 23.5T317 850t23.5 56.5T397 930t56.5-23.5T477 850zm238 0q0-33-23.5-56.5T635 770t-56.5 23.5T555 850t23.5 56.5T635 930t56.5-23.5T715 850z"/><glyph glyph-name="multiply" unicode="×" horiz-adv-x="590" d="M89 134l128 128L89 390l81 81 127-129 129 129 80-81-128-128 128-128-80-80-129 127L170 54z"/><glyph glyph-name="Oslash" unicode="Ø" horiz-adv-x="817" d="M58 72l61 61q-29 42-43.5 91T61 325q0 75 26.5 146T165 596.5t127 88T467 718q54 0 100-14t84-39l63 63 89-90-62-62q29-42 44-90.5T800 385q0-75-26-146t-77.5-125.5-127.5-88T394-8Q340-8 293.5 6T209 45l-63-63zm581 299q0 44-17 86L326 162q33-16 81-16 53 0 96 18t73 49 46.5 72 16.5 86zm-417-32q0-46 17-86l295 295q-37 16-80 16-53 0-96-18t-73-49-46.5-72-16.5-86z"/><glyph glyph-name="Ugrave" unicode="Ù" horiz-adv-x="717" d="M656 288q-17-78-43.5-134T546 62 452 9 326-8q-53 0-99 17.5T146.5 60 92 139 72 242q0 32 8 72l84 396h160l-88-413q-2-12-3.5-23t-1.5-21q0-55 32-81t82-26q59 0 97 34t53 106l90 424h161l-90-422zM338 923h158l39-145H433z"/><glyph glyph-name="Uacute" unicode="Ú" horiz-adv-x="717" d="M656 288q-17-78-43.5-134T546 62 452 9 326-8q-53 0-99 17.5T146.5 60 92 139 72 242q0 32 8 72l84 396h160l-88-413q-2-12-3.5-23t-1.5-21q0-55 32-81t82-26q59 0 97 34t53 106l90 424h161l-90-422zM479 923h172L494 778H378z"/><glyph glyph-name="Ucircumflex" unicode="Û" horiz-adv-x="717" d="M656 288q-17-78-43.5-134T546 62 452 9 326-8q-53 0-99 17.5T146.5 60 92 139 72 242q0 32 8 72l84 396h160l-88-413q-2-12-3.5-23t-1.5-21q0-55 32-81t82-26q59 0 97 34t53 106l90 424h161l-90-422zM290 851l195 80 156-83-46-89-117 62-150-62z"/><glyph glyph-name="Udieresis" unicode="Ü" horiz-adv-x="717" d="M656 288q-17-78-43.5-134T546 62 452 9 326-8q-53 0-99 17.5T146.5 60 92 139 72 242q0 32 8 72l84 396h160l-88-413q-2-12-3.5-23t-1.5-21q0-55 32-81t82-26q59 0 97 34t53 106l90 424h161l-90-422zM444 850q0-33-23.5-56.5T364 770t-56.5 23.5T284 850t23.5 56.5T364 930t56.5-23.5T444 850zm238 0q0-33-23.5-56.5T602 770t-56.5 23.5T522 850t23.5 56.5T602 930t56.5-23.5T682 850z"/><glyph glyph-name="Yacute" unicode="Ý" horiz-adv-x="680" d="M270 298L95 710h168l105-257 215 257h198L430 298 367 0H207zm177 625h172L462 778H346z"/><glyph glyph-name="Thorn" unicode="Þ" horiz-adv-x="591" d="M174 710h160l-24-114h48q55 0 97-17t70-45.5 42.5-66.5 14.5-80q0-54-19.5-103T505 197t-94.5-60.5T281 114h-74L183 0H23zm133-447q49 0 82.5 28.5T423 364q0 16-5 30.5t-15.5 26T375 439t-40 7h-57l-39-183h68z"/><glyph glyph-name="germandbls" unicode="ß" horiz-adv-x="573" d="M108 482q26 120 94.5 178T375 718q42 0 78.5-14t62.5-37.5 41-55 15-67.5q0-123-116-178 37-18 57.5-51.5T534 244q0-51-20.5-95.5t-58-77.5T364 19 243 0h-35l29 138h35q24 0 44.5 8t35 21 23 30 8.5 35q0 30-21 49t-56 19h-34l28 132h6q25 0 46 8t36.5 21 24 29 8.5 33q0 28-15.5 43.5T361 582q-39 0-65.5-27T260 483L157 0H6z"/><glyph glyph-name="agrave" unicode="à" horiz-adv-x="595" d="M351 30q-24-19-54.5-28.5T234-8q-43 0-80 18T89.5 59t-43 70.5T31 213q0 62 20.5 116t58 93.5T199 485t115 23q35 0 65.5-9t53.5-29l7 30h149L483 0H347zm-75 100q24 0 48 8.5t43 24.5l36 172q-17 19-40 27t-47 8q-27 0-51.5-10t-43-28-29-43-10.5-56q0-50 26-76.5t68-26.5zm-68 580h160l45-155h-97z"/><glyph glyph-name="aacute" unicode="á" horiz-adv-x="595" d="M351 30q-24-19-54.5-28.5T234-8q-43 0-80 18T89.5 59t-43 70.5T31 213q0 62 20.5 116t58 93.5T199 485t115 23q35 0 65.5-9t53.5-29l7 30h149L483 0H347zm-75 100q24 0 48 8.5t43 24.5l36 172q-17 19-40 27t-47 8q-27 0-51.5-10t-43-28-29-43-10.5-56q0-50 26-76.5t68-26.5zm106 580h178L382 555H267z"/><glyph glyph-name="acircumflex" unicode="â" horiz-adv-x="595" d="M351 30q-24-19-54.5-28.5T234-8q-43 0-80 18T89.5 59t-43 70.5T31 213q0 62 20.5 116t58 93.5T199 485t115 23q35 0 65.5-9t53.5-29l7 30h149L483 0H347zm-75 100q24 0 48 8.5t43 24.5l36 172q-17 19-40 27t-47 8q-27 0-51.5-10t-43-28-29-43-10.5-56q0-50 26-76.5t68-26.5zm-89 508l197 90 152-99-54-83-104 68-149-68z"/><glyph glyph-name="atilde" unicode="ã" horiz-adv-x="595" d="M351 30q-24-19-54.5-28.5T234-8q-43 0-80 18T89.5 59t-43 70.5T31 213q0 62 20.5 116t58 93.5T199 485t115 23q35 0 65.5-9t53.5-29l7 30h149L483 0H347zm-75 100q24 0 48 8.5t43 24.5l36 172q-17 19-40 27t-47 8q-27 0-51.5-10t-43-28-29-43-10.5-56q0-50 26-76.5t68-26.5zm-94 453q20 56 53.5 86t79.5 30q22 0 39-6.5t32-14 28-13.5 27-6q17 0 26.5 9.5T488 701h101l-10-29q-20-56-53-86t-79-30q-22 0-39.5 6T375 575.5t-28.5 14T320 596q-17 0-26.5-9.5T273 554H172z"/><glyph glyph-name="adieresis" unicode="ä" horiz-adv-x="595" d="M351 30q-24-19-54.5-28.5T234-8q-43 0-80 18T89.5 59t-43 70.5T31 213q0 62 20.5 116t58 93.5T199 485t115 23q35 0 65.5-9t53.5-29l7 30h149L483 0H347zm-75 100q24 0 48 8.5t43 24.5l36 172q-17 19-40 27t-47 8q-27 0-51.5-10t-43-28-29-43-10.5-56q0-50 26-76.5t68-26.5zm70 517q0-33-23.5-56.5T266 567t-56.5 23.5T186 647t23.5 56.5T266 727t56.5-23.5T346 647zm238 0q0-33-23.5-56.5T504 567t-56.5 23.5T424 647t23.5 56.5T504 727t56.5-23.5T584 647z"/><glyph glyph-name="aring" unicode="å" horiz-adv-x="595" d="M351 30q-24-19-54.5-28.5T234-8q-43 0-80 18T89.5 59t-43 70.5T31 213q0 62 20.5 116t58 93.5T199 485t115 23q35 0 65.5-9t53.5-29l7 30h149L483 0H347zm-75 100q24 0 48 8.5t43 24.5l36 172q-17 19-40 27t-47 8q-27 0-51.5-10t-43-28-29-43-10.5-56q0-50 26-76.5t68-26.5zm65 536q0-20 13.5-33.5T388 619t33.5 13.5T435 666t-13.5 33.5T388 713t-33.5-13.5T341 666zm167 0q0-25-9.5-46.5t-26-38-38-26T388 546t-46.5 9.5-38 26-26 38T268 666t9.5 46.5 26 38 38 26T388 786t46.5-9.5 38-26 26-38T508 666z"/><glyph glyph-name="ae" unicode="æ" horiz-adv-x="869" d="M798 100q-39-51-97-79.5T572-8q-54 0-96 17t-72 46q-44-31-96-47T189-8q-37 0-70 9T61.5 28 23 73.5 9 137q0 80 56.5 125T228 307q62 0 111-26 2 5 2.5 10.5t.5 8.5q0 38-30 53.5T241 369q-35 0-71-8.5T110 339l9 141q79 28 157 28 52 0 89.5-17t64.5-49q36 31 84 48.5T620 508q49 0 89.5-14.5t70-43T825 380t16-96q0-14-1.5-29t-3.5-32H480q5-43 32-66.5t65-23.5 64 14.5 46 38.5zM606 387q-38 0-70-19.5T491 311h208v5q0 37-28.5 54T606 387zM208 118q31 0 58.5 9t44.5 26l6 28q-32 23-90 23-33 0-55.5-12.5T149 156q0-22 19-30t40-8z"/><glyph glyph-name="ccedilla" unicode="ç" horiz-adv-x="534" d="M221-4q-45 8-80 29.5t-59 53T45.5 148 33 227q0 60 21 111t58.5 89 90 59.5T318 508q40 0 73.5-11t60.5-29 46.5-42 31.5-50l-125-74q-14 30-41 47.5T305 367q-53 0-86.5-36T185 240q0-51 28-79t70-28q34 0 60.5 15t45.5 40l107-89q-32-39-75-65.5T324-3l-60-131H137z"/><glyph glyph-name="egrave" unicode="è" horiz-adv-x="567" d="M496 100q-39-51-97-79.5T270-8q-57 0-101 19.5t-74.5 52-46 75T33 227q0 58 20.5 109.5T111 426t89.5 60T318 508q49 0 89.5-14.5t70-43T523 380t16-96q0-14-1.5-29t-3.5-32H178q5-43 32-66.5t65-23.5 64 14.5 46 38.5zM304 387q-38 0-70-19.5T189 311h208v5q0 37-28.5 54T304 387zM193 710h160l45-155h-97z"/><glyph glyph-name="eacute" unicode="é" horiz-adv-x="567" d="M496 100q-39-51-97-79.5T270-8q-57 0-101 19.5t-74.5 52-46 75T33 227q0 58 20.5 109.5T111 426t89.5 60T318 508q49 0 89.5-14.5t70-43T523 380t16-96q0-14-1.5-29t-3.5-32H178q5-43 32-66.5t65-23.5 64 14.5 46 38.5zM304 387q-38 0-70-19.5T189 311h208v5q0 37-28.5 54T304 387zm52 323h178L356 555H241z"/><glyph glyph-name="ecircumflex" unicode="ê" horiz-adv-x="567" d="M496 100q-39-51-97-79.5T270-8q-57 0-101 19.5t-74.5 52-46 75T33 227q0 58 20.5 109.5T111 426t89.5 60T318 508q49 0 89.5-14.5t70-43T523 380t16-96q0-14-1.5-29t-3.5-32H178q5-43 32-66.5t65-23.5 64 14.5 46 38.5zM304 387q-38 0-70-19.5T189 311h208v5q0 37-28.5 54T304 387zM152 638l197 90 152-99-54-83-104 68-149-68z"/><glyph glyph-name="edieresis" unicode="ë" horiz-adv-x="567" d="M496 100q-39-51-97-79.5T270-8q-57 0-101 19.5t-74.5 52-46 75T33 227q0 58 20.5 109.5T111 426t89.5 60T318 508q49 0 89.5-14.5t70-43T523 380t16-96q0-14-1.5-29t-3.5-32H178q5-43 32-66.5t65-23.5 64 14.5 46 38.5zM304 387q-38 0-70-19.5T189 311h208v5q0 37-28.5 54T304 387zm5 260q0-33-23.5-56.5T229 567t-56.5 23.5T149 647t23.5 56.5T229 727t56.5-23.5T309 647zm238 0q0-33-23.5-56.5T467 567t-56.5 23.5T387 647t23.5 56.5T467 727t56.5-23.5T547 647z"/><glyph glyph-name="igrave" unicode="ì" horiz-adv-x="270" d="M112 500h152L158 0H6zM66 710h160l45-155h-97z"/><glyph glyph-name="iacute" unicode="í" horiz-adv-x="270" d="M112 500h152L158 0H6zm107 210h178L219 555H104z"/><glyph glyph-name="icircumflex" unicode="î" horiz-adv-x="270" d="M112 500h152L158 0H6zM32 638l197 90 152-99-54-83-104 68-149-68z"/><glyph glyph-name="idieresis" unicode="ï" horiz-adv-x="270" d="M202 627q0-33-23.5-56.5T122 547t-56.5 23.5T42 627t23.5 56.5T122 707t56.5-23.5T202 627zm188 0q0-33-23.5-56.5T310 547t-56.5 23.5T230 627t23.5 56.5T310 707t56.5-23.5T390 627zM112 500h152L158 0H6z"/><glyph glyph-name="eth" unicode="ð" horiz-adv-x="587" d="M196 633h76l-32 77h149l33-77h123l-20-96h-62l60-139q13-30 22.5-60.5T555 274q0-59-22-110.5T473 74t-90-60T270-8q-57 0-101 19.5t-74.5 52-46 75T33 227q0 58 21.5 109.5t60 89.5 90.5 60 113 22h7l-12 29H176zm-11-393q0-51 28-79t70-28q53 0 86.5 36t33.5 92q0 50-28 78t-70 28q-53 0-86.5-36T185 240z"/><glyph glyph-name="ntilde" unicode="ñ" d="M112 500h149l-7-40q26 23 58 35.5t75 12.5q40 0 71-15t52.5-40 32.5-58 11-69q0-27-6-52L490 0H339l55 261q4 17 4 37 0 32-16 52t-57 20q-25 0-51-12t-49-38L157 0H6zm72 83q20 56 53.5 86t79.5 30q22 0 39-6.5t32-14 28-13.5 27-6q17 0 26.5 9.5T490 701h101l-10-29q-20-56-53-86t-79-30q-22 0-39.5 6T377 575.5t-28.5 14T322 596q-17 0-26.5-9.5T275 554H174z"/><glyph glyph-name="ograve" unicode="ò" horiz-adv-x="588" d="M185 240q0-50 28-78.5t70-28.5q26 0 48 9.5t38 27 25 41 9 50.5q0 50-28 78t-70 28q-53 0-86.5-36T185 240zm370 34q0-60-21-111.5T475.5 73t-90-59.5T270-8q-57 0-101 19.5t-74.5 52-46 75T33 227q0 60 21 111t58.5 89 90 59.5T318 508q57 0 101-19.5t74.5-52 46-74.5 15.5-88zM193 710h160l45-155h-97z"/><glyph glyph-name="oacute" unicode="ó" horiz-adv-x="588" d="M185 240q0-50 28-78.5t70-28.5q26 0 48 9.5t38 27 25 41 9 50.5q0 50-28 78t-70 28q-53 0-86.5-36T185 240zm370 34q0-60-21-111.5T475.5 73t-90-59.5T270-8q-57 0-101 19.5t-74.5 52-46 75T33 227q0 60 21 111t58.5 89 90 59.5T318 508q57 0 101-19.5t74.5-52 46-74.5 15.5-88zM365 710h178L365 555H250z"/><glyph glyph-name="ocircumflex" unicode="ô" horiz-adv-x="588" d="M185 240q0-50 28-78.5t70-28.5q26 0 48 9.5t38 27 25 41 9 50.5q0 50-28 78t-70 28q-53 0-86.5-36T185 240zm370 34q0-60-21-111.5T475.5 73t-90-59.5T270-8q-57 0-101 19.5t-74.5 52-46 75T33 227q0 60 21 111t58.5 89 90 59.5T318 508q57 0 101-19.5t74.5-52 46-74.5 15.5-88zM160 638l197 90 152-99-54-83-104 68-149-68z"/><glyph glyph-name="otilde" unicode="õ" horiz-adv-x="588" d="M146 583q20 56 53.5 86t79.5 30q22 0 39-6.5t32-14 28-13.5 27-6q17 0 26.5 9.5T452 701h101l-10-29q-20-56-53-86t-79-30q-22 0-39.5 6T339 575.5t-28.5 14T284 596q-17 0-26.5-9.5T237 554H136zm39-343q0-50 28-78.5t70-28.5q26 0 48 9.5t38 27 25 41 9 50.5q0 50-28 78t-70 28q-53 0-86.5-36T185 240zm370 34q0-60-21-111.5T475.5 73t-90-59.5T270-8q-57 0-101 19.5t-74.5 52-46 75T33 227q0 60 21 111t58.5 89 90 59.5T318 508q57 0 101-19.5t74.5-52 46-74.5 15.5-88z"/><glyph glyph-name="odieresis" unicode="ö" horiz-adv-x="588" d="M185 240q0-50 28-78.5t70-28.5q26 0 48 9.5t38 27 25 41 9 50.5q0 50-28 78t-70 28q-53 0-86.5-36T185 240zm370 34q0-60-21-111.5T475.5 73t-90-59.5T270-8q-57 0-101 19.5t-74.5 52-46 75T33 227q0 60 21 111t58.5 89 90 59.5T318 508q57 0 101-19.5t74.5-52 46-74.5 15.5-88zM310 647q0-33-23.5-56.5T230 567t-56.5 23.5T150 647t23.5 56.5T230 727t56.5-23.5T310 647zm238 0q0-33-23.5-56.5T468 567t-56.5 23.5T388 647t23.5 56.5T468 727t56.5-23.5T548 647z"/><glyph glyph-name="divide" unicode="÷" horiz-adv-x="590" d="M382 115q0-33-23.5-56.5T302 35t-56.5 23.5T222 115t23.5 56.5T302 195t56.5-23.5T382 115zm0 334q0-33-23.5-56.5T302 369t-56.5 23.5T222 449t23.5 56.5T302 529t56.5-23.5T382 449zM84 339h436V225H84v114z"/><glyph glyph-name="oslash" unicode="ø" horiz-adv-x="589" d="M-3 39l72 60q-35 58-35 128 0 60 21 111t58.5 89 90 59.5T319 508q52 0 93-16t71-44l64 54 39-47-65-54q35-58 35-127 0-60-21-111.5T476.5 73t-90-59.5T271-8q-53 0-94 16t-71 44L36-7zm407 222q0 19-5 37L225 152q23-19 59-19 26 0 48 9.5t38 27 25 41 9 50.5zm-218-21q0-11 1.5-20t3.5-18l173 146q-25 19-58 19-53 0-86.5-36T186 240z"/><glyph glyph-name="ugrave" unicode="ù" d="M340 40q-26-23-59-35.5T205-8q-34 0-63.5 12.5T90 40 55 97t-13 78q0 32 7 66l55 259h151l-53-252q-2-12-3.5-23t-1.5-22q0-34 16.5-53.5T269 130q29 0 55.5 13t46.5 45l66 312h151L482 0H333zM223 710h160l45-155h-97z"/><glyph glyph-name="uacute" unicode="ú" d="M340 40q-26-23-59-35.5T205-8q-34 0-63.5 12.5T90 40 55 97t-13 78q0 32 7 66l55 259h151l-53-252q-2-12-3.5-23t-1.5-22q0-34 16.5-53.5T269 130q29 0 55.5 13t46.5 45l66 312h151L482 0H333zm36 670h178L376 555H261z"/><glyph glyph-name="ucircumflex" unicode="û" d="M340 40q-26-23-59-35.5T205-8q-34 0-63.5 12.5T90 40 55 97t-13 78q0 32 7 66l55 259h151l-53-252q-2-12-3.5-23t-1.5-22q0-34 16.5-53.5T269 130q29 0 55.5 13t46.5 45l66 312h151L482 0H333zM190 638l197 90 152-99-54-83-104 68-149-68z"/><glyph glyph-name="udieresis" unicode="ü" d="M340 40q-26-23-59-35.5T205-8q-34 0-63.5 12.5T90 40 55 97t-13 78q0 32 7 66l55 259h151l-53-252q-2-12-3.5-23t-1.5-22q0-34 16.5-53.5T269 130q29 0 55.5 13t46.5 45l66 312h151L482 0H333zm0 607q0-33-23.5-56.5T260 567t-56.5 23.5T180 647t23.5 56.5T260 727t56.5-23.5T340 647zm238 0q0-33-23.5-56.5T498 567t-56.5 23.5T418 647t23.5 56.5T498 727t56.5-23.5T578 647z"/><glyph glyph-name="yacute" unicode="ý" horiz-adv-x="524" d="M131 0L52 500h155l39-316 169 316h165L182-184H24zm211 710h178L342 555H227z"/><glyph glyph-name="thorn" unicode="þ" horiz-adv-x="597" d="M112 500l45 210h152l-55-233q46 31 105 31 45 0 83-18t65.5-49 42.5-71 15-83q0-62-19-116t-55-93.5T402 15 282-8Q247-8 216.5.5T163 29l-45-213H-33zm208-130q-24 0-48-8.5T229 336l-37-171q17-20 40-27.5t48-7.5q27 0 51.5 10t43 28 29 43 10.5 56q0 50-26 76.5T320 370z"/><glyph glyph-name="ydieresis" unicode="ÿ" horiz-adv-x="524" d="M131 0L52 500h155l39-316 169 316h165L182-184H24zm175 647q0-33-23.5-56.5T226 567t-56.5 23.5T146 647t23.5 56.5T226 727t56.5-23.5T306 647zm238 0q0-33-23.5-56.5T464 567t-56.5 23.5T384 647t23.5 56.5T464 727t56.5-23.5T544 647z"/><glyph glyph-name="Amacron" unicode="Ā" horiz-adv-x="669" d="M434 718L631 0H471l-28 110H184L109 0H-69zM272 240h137l-37 146zm34 656h330l-21-96H285z"/><glyph glyph-name="amacron" unicode="ā" horiz-adv-x="595" d="M351 30q-24-19-54.5-28.5T234-8q-43 0-80 18T89.5 59t-43 70.5T31 213q0 62 20.5 116t58 93.5T199 485t115 23q35 0 65.5-9t53.5-29l7 30h149L483 0H347zm-75 100q24 0 48 8.5t43 24.5l36 172q-17 19-40 27t-47 8q-27 0-51.5-10t-43-28-29-43-10.5-56q0-50 26-76.5t68-26.5zm-51 545h330l-20-96H205z"/><glyph glyph-name="Abreve" unicode="Ă" horiz-adv-x="669" d="M434 718L631 0H471l-28 110H184L109 0H-69zM272 240h137l-37 146zm87 693q2-41 28-60t62-19q43 0 71.5 20.5T556 933h86q-3-36-17.5-66T585 815t-60.5-34-80.5-12q-41 0-72.5 13T318 817.5t-33.5 52T273 933h86z"/><glyph glyph-name="abreve" unicode="ă" horiz-adv-x="595" d="M351 30q-24-19-54.5-28.5T234-8q-43 0-80 18T89.5 59t-43 70.5T31 213q0 62 20.5 116t58 93.5T199 485t115 23q35 0 65.5-9t53.5-29l7 30h149L483 0H347zm-75 100q24 0 48 8.5t43 24.5l36 172q-17 19-40 27t-47 8q-27 0-51.5-10t-43-28-29-43-10.5-56q0-50 26-76.5t68-26.5zm2 580q2-41 28-60t62-19q43 0 71.5 20.5T475 710h86q-3-36-17.5-66T504 592t-60.5-34-80.5-12q-41 0-72.5 13T237 594.5t-33.5 52T192 710h86z"/><glyph glyph-name="Aogonek" unicode="Ą" horiz-adv-x="669" d="M434 718L631 0q-40-18-57-34.5T557-64q0-12 8-17.5t19-5.5q7 0 16 3t15 6l-18-87q-14-9-36.5-16.5T508-189q-45 0-70 23.5T413-105q0 29 16 57t42 48l-28 110H184L109 0H-69zM272 240h137l-37 146z"/><glyph glyph-name="aogonek" unicode="ą" horiz-adv-x="595" d="M449-161q-19-16-37.5-21.5T369-188q-38 0-61.5 23T284-105q0 29 17.5 57T347 0l4 30q-24-19-54.5-28.5T234-8q-43 0-80 18T89.5 59t-43 70.5T31 213q0 62 20.5 116t58 93.5T199 485t115 23q35 0 65.5-9t53.5-29l7 30h149L483 0q-40-19-56-36t-16-27q0-11 6.5-17.5T435-87q10 0 18.5 4.5T467-74zM276 130q24 0 48 8.5t43 24.5l36 172q-17 19-40 27t-47 8q-27 0-51.5-10t-43-28-29-43-10.5-56q0-50 26-76.5t68-26.5z"/><glyph glyph-name="Cacute" unicode="Ć" horiz-adv-x="731" d="M705 123q-53-63-132-97T395-8q-77 0-138.5 27.5T152 93.5 85.5 201 62 329q0 75 26.5 145t78 124T294 685t176 33 174.5-43.5T760 563l-133-91q-24 39-69 65.5T455 564q-53 0-96-18t-73-48-46.5-70-16.5-85q0-39 11-75t34-63 58-43 82-16q61 0 108.5 24t77.5 63l111-110zM492 923h172L507 778H391z"/><glyph glyph-name="cacute" unicode="ć" horiz-adv-x="534" d="M353 710h178L353 555H238zM496 99q-39-49-97-78T270-8q-57 0-101 19.5t-74.5 52-46 75T33 227q0 60 21 111t58.5 89 90 59.5T318 508q40 0 73.5-11t60.5-29 46.5-42 31.5-50l-125-74q-14 30-41 47.5T305 367q-53 0-86.5-36T185 240q0-51 28-79t70-28q34 0 60.5 15t45.5 40l107-89z"/><glyph glyph-name="Ccircumflex" unicode="Ĉ" horiz-adv-x="731" d="M705 123q-53-63-132-97T395-8q-77 0-138.5 27.5T152 93.5 85.5 201 62 329q0 75 26.5 145t78 124T294 685t176 33 174.5-43.5T760 563l-133-91q-24 39-69 65.5T455 564q-53 0-96-18t-73-48-46.5-70-16.5-85q0-39 11-75t34-63 58-43 82-16q61 0 108.5 24t77.5 63l111-110zM304 851l195 80 156-83-46-89-117 62-150-62z"/><glyph glyph-name="ccircumflex" unicode="ĉ" horiz-adv-x="534" d="M149 638l197 90 152-99-54-83-104 68-149-68zM496 99q-39-49-97-78T270-8q-57 0-101 19.5t-74.5 52-46 75T33 227q0 60 21 111t58.5 89 90 59.5T318 508q40 0 73.5-11t60.5-29 46.5-42 31.5-50l-125-74q-14 30-41 47.5T305 367q-53 0-86.5-36T185 240q0-51 28-79t70-28q34 0 60.5 15t45.5 40l107-89z"/><glyph glyph-name="Cdotaccent" unicode="Ċ" horiz-adv-x="731" d="M586 850q0-36-25.5-61.5T499 763t-61.5 25.5T412 850t25.5 61.5T499 937t61.5-25.5T586 850zm119-727q-53-63-132-97T395-8q-77 0-138.5 27.5T152 93.5 85.5 201 62 329q0 75 26.5 145t78 124T294 685t176 33 174.5-43.5T760 563l-133-91q-24 39-69 65.5T455 564q-53 0-96-18t-73-48-46.5-70-16.5-85q0-39 11-75t34-63 58-43 82-16q61 0 108.5 24t77.5 63l111-110z"/><glyph glyph-name="cdotaccent" unicode="ċ" horiz-adv-x="534" d="M496 99q-39-49-97-78T270-8q-57 0-101 19.5t-74.5 52-46 75T33 227q0 60 21 111t58.5 89 90 59.5T318 508q40 0 73.5-11t60.5-29 46.5-42 31.5-50l-125-74q-14 30-41 47.5T305 367q-53 0-86.5-36T185 240q0-51 28-79t70-28q34 0 60.5 15t45.5 40l107-89zm-63 548q0-36-25.5-61.5T346 560t-61.5 25.5T259 647t25.5 61.5T346 734t61.5-25.5T433 647z"/><glyph glyph-name="Ccaron" unicode="Č" horiz-adv-x="731" d="M705 123q-53-63-132-97T395-8q-77 0-138.5 27.5T152 93.5 85.5 201 62 329q0 75 26.5 145t78 124T294 685t176 33 174.5-43.5T760 563l-133-91q-24 39-69 65.5T455 564q-53 0-96-18t-73-48-46.5-70-16.5-85q0-39 11-75t34-63 58-43 82-16q61 0 108.5 24t77.5 63l111-110zm-33 716l-195-80-156 83 46 89 117-62 150 62z"/><glyph glyph-name="ccaron" unicode="č" horiz-adv-x="534" d="M523 636l-197-90-152 99 54 83 104-68 149 68zM496 99q-39-49-97-78T270-8q-57 0-101 19.5t-74.5 52-46 75T33 227q0 60 21 111t58.5 89 90 59.5T318 508q40 0 73.5-11t60.5-29 46.5-42 31.5-50l-125-74q-14 30-41 47.5T305 367q-53 0-86.5-36T185 240q0-51 28-79t70-28q34 0 60.5 15t45.5 40l107-89z"/><glyph glyph-name="Dcaron" unicode="Ď" horiz-adv-x="732" d="M297 146q51 0 97.5 16t82 47 56 75T553 385q0 37-11 70t-32.5 57-52.5 38-71 14h-83l-89-418h83zM174 710h230q72 0 130-25t98.5-66 62-94.5T716 413q0-108-33-186T592 98.5 455 24 284 0H23zm444 129l-195-80-156 83 46 89 117-62 150 62z"/><glyph glyph-name="dcaron" unicode="ď" horiz-adv-x="619" d="M351 30q-24-19-54.5-28.5T234-8q-43 0-80 18T89.5 59t-43 70.5T31 213q0 62 20.5 116t58 93.5T199 485t115 23q35 0 65-8.5t53-28.5l51 239h151L483 0H347zm-75 100q24 0 48 8.5t43 24.5l36 172q-17 20-40 27.5t-47 7.5q-27 0-51.5-10t-43-28-29-43-10.5-56q0-50 26-76.5t68-26.5zm556 580L731 550H631l53 160h148z"/><glyph glyph-name="Dcroat" unicode="Đ" horiz-adv-x="764" d="M56 425h89l61 285h230q72 0 130-25t98.5-66 62-94.5T748 413q0-108-33-186T624 98.5 487 24 316 0H55l60 285H27zm273-279q51 0 97.5 16t82 47 56 75T585 385q0 37-11 70t-32.5 57-52.5 38-71 14h-83l-30-139h89l-29-140h-90l-29-139h83z"/><glyph glyph-name="dcroat" unicode="đ" horiz-adv-x="595" d="M343 660h129l11 50h151l-11-50h69l-21-98h-69L483 0H347l4 30q-24-19-54.5-28.5T234-8q-43 0-80 18T89.5 59t-43 70.5T31 213q0 62 20.5 116t58 93.5T199 485t115 23q35 0 65-8.5t53-28.5l19 91H322zm-67-530q24 0 48 8.5t43 24.5l36 172q-17 20-40 27.5t-47 7.5q-27 0-51.5-10t-43-28-29-43-10.5-56q0-50 26-76.5t68-26.5z"/><glyph glyph-name="Emacron" unicode="Ē" horiz-adv-x="564" d="M174 710h440l-34-158H300l-25-120h220l-33-154H242l-25-120h280L463 0H23zm97 188h330l-21-96H250z"/><glyph glyph-name="emacron" unicode="ē" horiz-adv-x="567" d="M496 100q-39-51-97-79.5T270-8q-57 0-101 19.5t-74.5 52-46 75T33 227q0 58 20.5 109.5T111 426t89.5 60T318 508q49 0 89.5-14.5t70-43T523 380t16-96q0-14-1.5-29t-3.5-32H178q5-43 32-66.5t65-23.5 64 14.5 46 38.5zM304 387q-38 0-70-19.5T189 311h208v5q0 37-28.5 54T304 387zM190 675h330l-20-96H170z"/><glyph glyph-name="Ebreve" unicode="Ĕ" horiz-adv-x="564" d="M174 710h440l-34-158H300l-25-120h220l-33-154H242l-25-120h280L463 0H23zm147 223q2-41 28-60t62-19q43 0 71.5 20.5T518 933h86q-3-36-17.5-66T547 815t-60.5-34-80.5-12q-41 0-72.5 13T280 817.5t-33.5 52T235 933h86z"/><glyph glyph-name="ebreve" unicode="ĕ" horiz-adv-x="567" d="M496 100q-39-51-97-79.5T270-8q-57 0-101 19.5t-74.5 52-46 75T33 227q0 58 20.5 109.5T111 426t89.5 60T318 508q49 0 89.5-14.5t70-43T523 380t16-96q0-14-1.5-29t-3.5-32H178q5-43 32-66.5t65-23.5 64 14.5 46 38.5zM304 387q-38 0-70-19.5T189 311h208v5q0 37-28.5 54T304 387zm-62 323q2-41 28-60t62-19q43 0 71.5 20.5T439 710h86q-3-36-17.5-66T468 592t-60.5-34-80.5-12q-41 0-72.5 13T201 594.5t-33.5 52T156 710h86z"/><glyph glyph-name="Edotaccent" unicode="Ė" horiz-adv-x="564" d="M174 710h440l-34-158H300l-25-120h220l-33-154H242l-25-120h280L463 0H23zm338 140q0-36-25.5-61.5T425 763t-61.5 25.5T338 850t25.5 61.5T425 937t61.5-25.5T512 850z"/><glyph glyph-name="edotaccent" unicode="ė" horiz-adv-x="567" d="M496 100q-39-51-97-79.5T270-8q-57 0-101 19.5t-74.5 52-46 75T33 227q0 58 20.5 109.5T111 426t89.5 60T318 508q49 0 89.5-14.5t70-43T523 380t16-96q0-14-1.5-29t-3.5-32H178q5-43 32-66.5t65-23.5 64 14.5 46 38.5zM304 387q-38 0-70-19.5T189 311h208v5q0 37-28.5 54T304 387zm132 260q0-36-25.5-61.5T349 560t-61.5 25.5T262 647t25.5 61.5T349 734t61.5-25.5T436 647z"/><glyph glyph-name="Eogonek" unicode="Ę" horiz-adv-x="564" d="M174 710h440l-34-158H300l-25-120h220l-33-154H242l-25-120h280L463 0q-40-18-57.5-34.5T388-64q0-12 8-17.5t19-5.5q7 0 16 3t15 6l-18-87q-14-9-36.5-16.5T339-189q-45 0-70 23.5T244-105q0 29 16 57t42 48H23z"/><glyph glyph-name="eogonek" unicode="ę" horiz-adv-x="567" d="M496 100Q436 23 339 0h1q-40-19-56-36t-16-27q0-11 6.5-17.5T292-87q10 0 18.5 4.5T324-74l-18-87q-19-16-42.5-21.5T216-188q-38 0-61.5 23T131-105q0 18 6.5 33.5t16.5 29T177-18t26 18q-41 10-73 32T76.5 84.5t-32.5 67T33 227q0 58 20.5 109.5T111 426t89.5 60T318 508q49 0 89.5-14.5t70-43T523 380t16-96q0-14-1.5-29t-3.5-32H178q5-43 32-66.5t65-23.5 64 14.5 46 38.5zM304 387q-38 0-70-19.5T189 311h208v5q0 37-28.5 54T304 387z"/><glyph glyph-name="Ecaron" unicode="Ě" horiz-adv-x="564" d="M174 710h440l-34-158H300l-25-120h220l-33-154H242l-25-120h280L463 0H23zm427 129l-195-80-156 83 46 89 117-62 150 62z"/><glyph glyph-name="ecaron" unicode="ě" horiz-adv-x="567" d="M525 636l-197-90-152 99 54 83 104-68 149 68zm-29-536q-39-51-97-79.5T270-8q-57 0-101 19.5t-74.5 52-46 75T33 227q0 58 20.5 109.5T111 426t89.5 60T318 508q49 0 89.5-14.5t70-43T523 380t16-96q0-14-1.5-29t-3.5-32H178q5-43 32-66.5t65-23.5 64 14.5 46 38.5zM304 387q-38 0-70-19.5T189 311h208v5q0 37-28.5 54T304 387z"/><glyph glyph-name="Gcircumflex" unicode="Ĝ" horiz-adv-x="762" d="M303 851l195 80 156-83-46-89-117 62-150-62zM676 79q-48-38-117.5-62.5T393-8q-75 0-136.5 27T152 91 85.5 194.5 62 317q0 79 25 151.5t76 128T290.5 685 470 718q99 0 173.5-43T760 563l-133-91q-26 39-70.5 65.5T455 564q-56 0-99.5-18t-73-49.5T238 423t-15-90q0-38 11.5-71.5t35-59.5 58-41 80.5-15q44 0 76 8t59 25l22 101H394l99 150h257L676 79z"/><glyph glyph-name="gcircumflex" unicode="ĝ" horiz-adv-x="597" d="M170 638l197 90 152-99-54-83-104 68-149-68zM507 47q0-51-19.5-95T430-124.5t-93-51T211-194q-57 0-115 13.5T-8-133L69-4q27-23 62.5-37.5T211-56q25 0 50 5t45 16.5 32.5 30T351 42q0 4-.5 8.5T349 60q-25-16-57-23.5T225 29q-45 0-80 17.5t-59 47-36.5 68T37 242q0 53 19.5 101.5t55 85 86.5 58T312 508q34 0 64.5-8.5T430 472l6 28h151L502 97q5-28 5-50zM274 167q26 0 54 10.5t47 30.5l26 127q-17 19-40 27t-47 8q-55 0-90.5-30.5T188 255q0-45 22-66.5t64-21.5z"/><glyph glyph-name="Gbreve" unicode="Ğ" horiz-adv-x="762" d="M676 79q-48-38-117.5-62.5T393-8q-75 0-136.5 27T152 91 85.5 194.5 62 317q0 79 25 151.5t76 128T290.5 685 470 718q99 0 173.5-43T760 563l-133-91q-26 39-70.5 65.5T455 564q-56 0-99.5-18t-73-49.5T238 423t-15-90q0-38 11.5-71.5t35-59.5 58-41 80.5-15q44 0 76 8t59 25l22 101H394l99 150h257L676 79zM395 933q2-41 28-60t62-19q43 0 71.5 20.5T592 933h86q-3-36-17.5-66T621 815t-60.5-34-80.5-12q-41 0-72.5 13T354 817.5t-33.5 52T309 933h86z"/><glyph glyph-name="gbreve" unicode="ğ" horiz-adv-x="597" d="M507 47q0-51-19.5-95T430-124.5t-93-51T211-194q-57 0-115 13.5T-8-133L69-4q27-23 62.5-37.5T211-56q25 0 50 5t45 16.5 32.5 30T351 42q0 4-.5 8.5T349 60q-25-16-57-23.5T225 29q-45 0-80 17.5t-59 47-36.5 68T37 242q0 53 19.5 101.5t55 85 86.5 58T312 508q34 0 64.5-8.5T430 472l6 28h151L502 97q5-28 5-50zM274 167q26 0 54 10.5t47 30.5l26 127q-17 19-40 27t-47 8q-55 0-90.5-30.5T188 255q0-45 22-66.5t64-21.5zm-15 543q2-41 28-60t62-19q43 0 71.5 20.5T456 710h86q-3-36-17.5-66T485 592t-60.5-34-80.5-12q-41 0-72.5 13T218 594.5t-33.5 52T173 710h86z"/><glyph glyph-name="Gdotaccent" unicode="Ġ" horiz-adv-x="762" d="M588 850q0-36-25.5-61.5T501 763t-61.5 25.5T414 850t25.5 61.5T501 937t61.5-25.5T588 850zm88-771q-48-38-117.5-62.5T393-8q-75 0-136.5 27T152 91 85.5 194.5 62 317q0 79 25 151.5t76 128T290.5 685 470 718q99 0 173.5-43T760 563l-133-91q-26 39-70.5 65.5T455 564q-56 0-99.5-18t-73-49.5T238 423t-15-90q0-38 11.5-71.5t35-59.5 58-41 80.5-15q44 0 76 8t59 25l22 101H394l99 150h257L676 79z"/><glyph glyph-name="gdotaccent" unicode="ġ" horiz-adv-x="597" d="M507 47q0-51-19.5-95T430-124.5t-93-51T211-194q-57 0-115 13.5T-8-133L69-4q27-23 62.5-37.5T211-56q25 0 50 5t45 16.5 32.5 30T351 42q0 4-.5 8.5T349 60q-25-16-57-23.5T225 29q-45 0-80 17.5t-59 47-36.5 68T37 242q0 53 19.5 101.5t55 85 86.5 58T312 508q34 0 64.5-8.5T430 472l6 28h151L502 97q5-28 5-50zM274 167q26 0 54 10.5t47 30.5l26 127q-17 19-40 27t-47 8q-55 0-90.5-30.5T188 255q0-45 22-66.5t64-21.5zm178 480q0-36-25.5-61.5T365 560t-61.5 25.5T278 647t25.5 61.5T365 734t61.5-25.5T452 647z"/><glyph glyph-name="uni0122" unicode="Ģ" horiz-adv-x="762" d="M312-50h148L329-268h-97zM676 79q-48-38-117.5-62.5T393-8q-75 0-136.5 27T152 91 85.5 194.5 62 317q0 79 25 151.5t76 128T290.5 685 470 718q99 0 173.5-43T760 563l-133-91q-26 39-70.5 65.5T455 564q-56 0-99.5-18t-73-49.5T238 423t-15-90q0-38 11.5-71.5t35-59.5 58-41 80.5-15q44 0 76 8t59 25l22 101H394l99 150h257L676 79z"/><glyph glyph-name="uni0123" unicode="ģ" horiz-adv-x="597" d="M507 47q0-51-19.5-95T430-124.5t-93-51T211-194q-57 0-115 13.5T-8-133L69-4q27-23 62.5-37.5T211-56q25 0 50 5t45 16.5 32.5 30T351 42q0 4-.5 8.5T349 60q-25-16-57-23.5T225 29q-45 0-80 17.5t-59 47-36.5 68T37 242q0 53 19.5 101.5t55 85 86.5 58T312 508q34 0 64.5-8.5T430 472l6 28h151L502 97q5-28 5-50zM274 167q26 0 54 10.5t47 30.5l26 127q-17 19-40 27t-47 8q-55 0-90.5-30.5T188 255q0-45 22-66.5t64-21.5zm142.007 374.997h-147.99l130.991 217.986h96.994z"/><glyph glyph-name="Hcircumflex" unicode="Ĥ" horiz-adv-x="756" d="M174 710h160l-59-278h284l59 278h160L627 0H467l59 278H242L183 0H23zm137 141l195 80 156-83-46-89-117 62-150-62z"/><glyph glyph-name="hcircumflex" unicode="ĥ" d="M157 710h151l-53-249q26 23 57.5 35t74.5 12q40 0 71-15t52.5-40 32.5-58 11-69q0-27-6-52L490 0H339l56 261q4 17 4 37 0 32-16.5 52T325 370q-25 0-51-12t-49-39L157 0H6zm98 141l195 80 156-83-46-89-117 62-150-62z"/><glyph glyph-name="Hbar" unicode="Ħ" horiz-adv-x="781" d="M101 625h67l18 85h160l-18-85h284l18 85h160l-18-85h67l-23-108h-67L639 0H479l59 278H254L195 0H35l110 517H78zm470-193l18 85H305l-18-85h284z"/><glyph glyph-name="hbar" unicode="ħ" d="M125 562H57l21 98h68l11 50h151l-11-50h130l-21-98H276l-21-101q26 23 57.5 35t74.5 12q40 0 71-15t52.5-40 32.5-58 11-69q0-27-6-52L490 0H339l56 261q4 17 4 37 0 32-16.5 52T325 370q-25 0-51-12t-49-39L157 0H6z"/><glyph glyph-name="Itilde" unicode="Ĩ" horiz-adv-x="313" d="M174 710h161L184 0H23zm-87 96q20 56 53.5 86t79.5 30q22 0 39-6.5t32-14 28-13.5 27-6q17 0 26.5 9.5T393 924h101l-10-29q-20-56-53-86t-79-30q-22 0-39.5 6T280 798.5t-28.5 14T225 819q-17 0-26.5-9.5T178 777H77z"/><glyph glyph-name="itilde" unicode="ĩ" horiz-adv-x="270" d="M112 500h152L158 0H6zm-93 83q20 56 53.5 86t79.5 30q22 0 39-6.5t32-14 28-13.5 27-6q17 0 26.5 9.5T325 701h101l-10-29q-20-56-53-86t-79-30q-22 0-39.5 6T212 575.5t-28.5 14T157 596q-17 0-26.5-9.5T110 554H9z"/><glyph glyph-name="Imacron" unicode="Ī" horiz-adv-x="313" d="M174 710h161L184 0H23zm-44 188h330l-21-96H109z"/><glyph glyph-name="imacron" unicode="ī" horiz-adv-x="270" d="M112 500h152L158 0H6zM61 675h330l-20-96H41z"/><glyph glyph-name="Ibreve" unicode="Ĭ" horiz-adv-x="313" d="M174 710h161L184 0H23zm9 223q2-41 28-60t62-19q43 0 71.5 20.5T380 933h86q-3-36-17.5-66T409 815t-60.5-34-80.5-12q-41 0-72.5 13T142 817.5t-33.5 52T97 933h86z"/><glyph glyph-name="ibreve" unicode="ĭ" horiz-adv-x="270" d="M112 500h152L158 0H6zm3 210q2-41 28-60t62-19q43 0 71.5 20.5T312 710h86q-3-36-17.5-66T341 592t-60.5-34-80.5-12q-41 0-72.5 13T74 594.5t-33.5 52T29 710h86z"/><glyph glyph-name="Iogonek" unicode="Į" horiz-adv-x="313" d="M149-165q-14-9-36.5-16.5T60-189q-45 0-70 23.5T-35-105q0 29 16 57T23 0l151 710h161L184 0q-40-18-57.5-34.5T109-64q0-12 8-17.5t19-5.5q7 0 16 3t15 6z"/><glyph glyph-name="iogonek" unicode="į" horiz-adv-x="270" d="M124-161q-19-16-42.5-21.5T34-188q-38 0-61.5 23T-51-105q0 29 16 57T6 0l106 500h152L158 0q-40-19-56-36T86-63q0-11 6.5-17.5T110-87q10 0 18.5 4.5T142-74zm10 732q-5 8-8.5 21t-3.5 26q0 46 28 73t75 27q32 0 56.5-19.5T306 643q0-24-8.5-41T275 571H134z"/><glyph glyph-name="Idotaccent" unicode="İ" horiz-adv-x="313" d="M174 710h161L184 0H23zm198 140q0-36-25.5-61.5T285 763t-61.5 25.5T198 850t25.5 61.5T285 937t61.5-25.5T372 850z"/><glyph glyph-name="dotlessi" unicode="ı" horiz-adv-x="270" d="M112 500h152L158 0H6z"/><glyph glyph-name="Jcircumflex" unicode="Ĵ" horiz-adv-x="527" d="M308 851l195 80 156-83-46-89-117 62-150-62zm137-649q-12-56-30.5-95.5t-47-65T298 4 200-8q-40 0-76 14T61 45.5 18.5 106 3 182q0 23 4 43h160q-3-15-3-28 0-29 14.5-44.5T216 137q29 0 45 14.5t26 60.5l106 498h160L445 202z"/><glyph glyph-name="jcircumflex" unicode="ĵ" horiz-adv-x="278" d="M-98-41h31q22 0 36.5 3T-6-27 10-4.5 21 33l100 467h152L166 0q-14-64-35-100.5t-52-55T7-179t-95-5h-41zM40 638l197 90 152-99-54-83-104 68-149-68z"/><glyph glyph-name="uni0136" unicode="Ķ" horiz-adv-x="674" d="M253 333L183 0H23l151 710h160l-76-355 322 355h191L430 334 625 0H449zM220-50h148L237-268h-97z"/><glyph glyph-name="uni0137" unicode="ķ" horiz-adv-x="553" d="M168-50h148L185-268H88zm42 300L157 0H6l151 710h151l-93-438 205 228h180L370 245 505 0H347z"/><glyph glyph-name="Lacute" unicode="Ĺ" horiz-adv-x="531" d="M312 923h172L327 778H211zM174 710h161L218 159h275L459 0H23z"/><glyph glyph-name="lacute" unicode="ĺ" horiz-adv-x="270" d="M252 923h172L267 778H151zm-95-213h152L158 0H6z"/><glyph glyph-name="uni013B" unicode="Ļ" horiz-adv-x="531" d="M158-50h148L175-268H78zm16 760h161L218 159h275L459 0H23z"/><glyph glyph-name="uni013C" unicode="ļ" horiz-adv-x="270" d="M2-50h148L19-268h-97zm155 760h152L158 0H6z"/><glyph glyph-name="Lcaron" unicode="Ľ" horiz-adv-x="535" d="M174 710h161L218 159h275L459 0H23zm379 0L452 550H352l53 160h148z"/><glyph glyph-name="lcaron" unicode="ľ" horiz-adv-x="294" d="M157 710h152L158 0H6zm350 0L406 550H306l53 160h148z"/><glyph glyph-name="Ldot" unicode="Ŀ" horiz-adv-x="544" d="M174 710h161L218 159h275L459 0H23zm371-264q0-36-25.5-61.5T458 359t-61.5 25.5T371 446t25.5 61.5T458 533t61.5-25.5T545 446z"/><glyph glyph-name="ldot" unicode="ŀ" horiz-adv-x="415" d="M456 376q0-36-25.5-61.5T369 289t-61.5 25.5T282 376t25.5 61.5T369 463t61.5-25.5T456 376zM157 710h152L158 0H6z"/><glyph glyph-name="Lslash" unicode="Ł" horiz-adv-x="603" d="M22 296l152 77 72 337h161l-52-245 112 57 55-107-199-102-33-154h275L531 0H95l47 221-65-33z"/><glyph glyph-name="lslash" unicode="ł" horiz-adv-x="406" d="M8 302l146 73 71 335h152l-53-249 72 37 47-92-147-75L226 0H74l52 245-71-36z"/><glyph glyph-name="Nacute" unicode="Ń" horiz-adv-x="760" d="M501 923h172L516 778H400zM266 391L183 0H23l153 718 363-399 83 391h160L629-8z"/><glyph glyph-name="nacute" unicode="ń" d="M383 710h178L383 555H268zM112 500h149l-7-40q26 23 58 35.5t75 12.5q40 0 71-15t52.5-40 32.5-58 11-69q0-27-6-52L490 0H339l55 261q4 17 4 37 0 32-16 52t-57 20q-25 0-51-12t-49-38L157 0H6z"/><glyph glyph-name="uni0145" unicode="Ņ" horiz-adv-x="760" d="M309-50h148L326-268h-97zm-43 441L183 0H23l153 718 363-399 83 391h160L629-8z"/><glyph glyph-name="uni0146" unicode="ņ" d="M163-50h148L180-268H83zm-51 550h149l-7-40q26 23 58 35.5t75 12.5q40 0 71-15t52.5-40 32.5-58 11-69q0-27-6-52L490 0H339l55 261q4 17 4 37 0 32-16 52t-57 20q-25 0-51-12t-49-38L157 0H6z"/><glyph glyph-name="Ncaron" unicode="Ň" horiz-adv-x="760" d="M266 391L183 0H23l153 718 363-399 83 391h160L629-8zm418 448l-195-80-156 83 46 89 117-62 150 62z"/><glyph glyph-name="ncaron" unicode="ň" d="M562 636l-197-90-152 99 54 83 104-68 149 68zM112 500h149l-7-40q26 23 58 35.5t75 12.5q40 0 71-15t52.5-40 32.5-58 11-69q0-27-6-52L490 0H339l55 261q4 17 4 37 0 32-16 52t-57 20q-25 0-51-12t-49-38L157 0H6z"/><glyph glyph-name="Omacron" unicode="Ō" horiz-adv-x="817" d="M222 339q0-38 11.5-72.5t35-61.5 58-43 80.5-16q53 0 96 18t73 49 46.5 72 16.5 86q0 37-12 72t-35 62-57.5 43-80.5 16q-53 0-96-18t-73-49-46.5-72-16.5-86zm578 46q0-75-26-146t-77.5-125.5-127.5-88T394-8q-76 0-137.5 27.5t-105 74-67 106.5T61 325q0 75 26.5 146T165 596.5t127 88T467 718q76 0 137.5-27.5t105-74 67-106.5T800 385zM360 898h330l-21-96H339z"/><glyph glyph-name="omacron" unicode="ō" horiz-adv-x="588" d="M189 675h330l-20-96H169zm-4-435q0-50 28-78.5t70-28.5q26 0 48 9.5t38 27 25 41 9 50.5q0 50-28 78t-70 28q-53 0-86.5-36T185 240zm370 34q0-60-21-111.5T475.5 73t-90-59.5T270-8q-57 0-101 19.5t-74.5 52-46 75T33 227q0 60 21 111t58.5 89 90 59.5T318 508q57 0 101-19.5t74.5-52 46-74.5 15.5-88z"/><glyph glyph-name="Obreve" unicode="Ŏ" horiz-adv-x="817" d="M222 339q0-38 11.5-72.5t35-61.5 58-43 80.5-16q53 0 96 18t73 49 46.5 72 16.5 86q0 37-12 72t-35 62-57.5 43-80.5 16q-53 0-96-18t-73-49-46.5-72-16.5-86zm578 46q0-75-26-146t-77.5-125.5-127.5-88T394-8q-76 0-137.5 27.5t-105 74-67 106.5T61 325q0 75 26.5 146T165 596.5t127 88T467 718q76 0 137.5-27.5t105-74 67-106.5T800 385zM393 933q2-41 28-60t62-19q43 0 71.5 20.5T590 933h86q-3-36-17.5-66T619 815t-60.5-34-80.5-12q-41 0-72.5 13T352 817.5t-33.5 52T307 933h86z"/><glyph glyph-name="obreve" unicode="ŏ" horiz-adv-x="588" d="M185 240q0-50 28-78.5t70-28.5q26 0 48 9.5t38 27 25 41 9 50.5q0 50-28 78t-70 28q-53 0-86.5-36T185 240zm370 34q0-60-21-111.5T475.5 73t-90-59.5T270-8q-57 0-101 19.5t-74.5 52-46 75T33 227q0 60 21 111t58.5 89 90 59.5T318 508q57 0 101-19.5t74.5-52 46-74.5 15.5-88zM260 710q2-41 28-60t62-19q43 0 71.5 20.5T457 710h86q-3-36-17.5-66T486 592t-60.5-34-80.5-12q-41 0-72.5 13T219 594.5t-33.5 52T174 710h86z"/><glyph glyph-name="Ohungarumlaut" unicode="Ő" horiz-adv-x="817" d="M632 923h152L627 778h-96zm-205 0h152L422 778h-96zM222 339q0-38 11.5-72.5t35-61.5 58-43 80.5-16q53 0 96 18t73 49 46.5 72 16.5 86q0 37-12 72t-35 62-57.5 43-80.5 16q-53 0-96-18t-73-49-46.5-72-16.5-86zm578 46q0-75-26-146t-77.5-125.5-127.5-88T394-8q-76 0-137.5 27.5t-105 74-67 106.5T61 325q0 75 26.5 146T165 596.5t127 88T467 718q76 0 137.5-27.5t105-74 67-106.5T800 385z"/><glyph glyph-name="ohungarumlaut" unicode="ő" horiz-adv-x="588" d="M488 710h148L458 555h-85zm-197 0h148L261 555h-85zM185 240q0-50 28-78.5t70-28.5q26 0 48 9.5t38 27 25 41 9 50.5q0 50-28 78t-70 28q-53 0-86.5-36T185 240zm370 34q0-60-21-111.5T475.5 73t-90-59.5T270-8q-57 0-101 19.5t-74.5 52-46 75T33 227q0 60 21 111t58.5 89 90 59.5T318 508q57 0 101-19.5t74.5-52 46-74.5 15.5-88z"/><glyph glyph-name="OE" unicode="Œ" horiz-adv-x="1091" d="M555 19Q520 6 479.5-1T394-8q-76 0-137.5 27.5t-105 74-67 106.5T61 325q0 75 26.5 146T165 596.5t127 88T467 718q66 0 121.5-21.5T686 638l16 72h439l-34-158H756q16-28 25.5-58t14.5-62h226l-33-154H786q-9-32-22-62.5T732 158h291L989 0H551zM222 339q0-38 11.5-72.5t35-61.5 58-43 80.5-16q53 0 96 18t73 49 46.5 72 16.5 86q0 37-12 72t-35 62-57.5 43-80.5 16q-53 0-96-18t-73-49-46.5-72-16.5-86z"/><glyph glyph-name="oe" unicode="œ" horiz-adv-x="937" d="M866 100q-39-51-97-79.5T640-8q-60 0-104.5 20T460 67q-34-35-81.5-55T270-8q-57 0-101 19.5t-74.5 52-46 75T33 227q0 60 21 111t58.5 89 90 59.5T318 508q60 0 101.5-20.5T487 432q37 35 87.5 55.5T688 508q49 0 89.5-14.5t70-43T893 380t16-96q0-14-1.5-29t-3.5-32H548q5-43 32-66.5t65-23.5 64 14.5 46 38.5zM185 240q0-50 28-78.5t70-28.5q26 0 48 9.5t38 27 25 41 9 50.5q0 50-28 78t-70 28q-53 0-86.5-36T185 240zm489 147q-38 0-70-19.5T559 311h208v5q0 37-28.5 54T674 387z"/><glyph glyph-name="Racute" unicode="Ŕ" horiz-adv-x="637" d="M246 288h-3L182 0H23l151 710h226q50 0 89.5-16t67-42.5 42-60.5 14.5-69q0-48-15-87t-42-67.5-64-47-81-26.5L574 0H405zm117 135q37 0 64 21.5t27 57.5q0 25-16.5 43.5T393 564h-91l-30-141h91zm79 500h172L457 778H341z"/><glyph glyph-name="racute" unicode="ŕ" horiz-adv-x="397" d="M302 710h178L302 555H187zM112 500h151l-9-43q23 26 55.5 38.5T379 508q12 0 25.5-1.5T431 500l-33-157q-16 9-34.5 13t-38.5 4q-23 0-50.5-8.5T226 327L157 0H6z"/><glyph glyph-name="uni0156" unicode="Ŗ" horiz-adv-x="637" d="M202-50h148L219-268h-97zm44 338h-3L182 0H23l151 710h226q50 0 89.5-16t67-42.5 42-60.5 14.5-69q0-48-15-87t-42-67.5-64-47-81-26.5L574 0H405zm117 135q37 0 64 21.5t27 57.5q0 25-16.5 43.5T393 564h-91l-30-141h91z"/><glyph glyph-name="uni0157" unicode="ŗ" horiz-adv-x="397" d="M-1-50h148L16-268h-97zm113 550h151l-9-43q23 26 55.5 38.5T379 508q12 0 25.5-1.5T431 500l-33-157q-16 9-34.5 13t-38.5 4q-23 0-50.5-8.5T226 327L157 0H6z"/><glyph glyph-name="Rcaron" unicode="Ř" horiz-adv-x="637" d="M593 839l-195-80-156 83 46 89 117-62 150 62zM246 288h-3L182 0H23l151 710h226q50 0 89.5-16t67-42.5 42-60.5 14.5-69q0-48-15-87t-42-67.5-64-47-81-26.5L574 0H405zm117 135q37 0 64 21.5t27 57.5q0 25-16.5 43.5T393 564h-91l-30-141h91z"/><glyph glyph-name="rcaron" unicode="ř" horiz-adv-x="397" d="M480 636l-197-90-152 99 54 83 104-68 149 68zM112 500h151l-9-43q23 26 55.5 38.5T379 508q12 0 25.5-1.5T431 500l-33-157q-16 9-34.5 13t-38.5 4q-23 0-50.5-8.5T226 327L157 0H6z"/><glyph glyph-name="Sacute" unicode="Ś" horiz-adv-x="547" d="M506 212q0-48-16.5-88.5t-47.5-70T366.5 8 265-8q-94 0-155.5 45.5T19 155l138 79q20-50 46-71.5t68-21.5q28 0 49 14.5t21 40.5q0 21-14 37.5T274 278l-36 26q-29 22-54 45t-43 47.5-28.5 52.5-10.5 60q0 50 17.5 89t47.5 65.5 70 40.5 84 14q32 0 63-5t60-19 55-38.5 49-62.5l-138-79q-20 36-42 45.5t-45 9.5q-24 0-41.5-12.5T264 522q0-23 19-43.5t57-48.5l35-26q24-17 47-37.5t42-44.5 30.5-51.5T506 212zM377 923h172L392 778H276z"/><glyph glyph-name="sacute" unicode="ś" horiz-adv-x="434" d="M298 710h178L298 555H183zm84-555q0-78-48.5-120.5T198-8Q121-8 71.5 25T2 104l107 74q7-13 15-24.5t18.5-20.5 24.5-14.5 33-5.5 30 7.5 11 21.5q0 15-11 24.5T199 190l-34 23q-22 15-41 29.5T91.5 274t-21 37.5T63 358q0 30 11 57.5t33 48 54.5 32.5 76.5 12q63 0 109-25t67-63l-103-76q-14 24-33.5 35T239 390q-18 0-26.5-8.5T204 362q0-12 7.5-21t30.5-23l26-17q55-35 84.5-68.5T382 155z"/><glyph glyph-name="Scircumflex" unicode="Ŝ" horiz-adv-x="547" d="M506 212q0-48-16.5-88.5t-47.5-70T366.5 8 265-8q-94 0-155.5 45.5T19 155l138 79q20-50 46-71.5t68-21.5q28 0 49 14.5t21 40.5q0 21-14 37.5T274 278l-36 26q-29 22-54 45t-43 47.5-28.5 52.5-10.5 60q0 50 17.5 89t47.5 65.5 70 40.5 84 14q32 0 63-5t60-19 55-38.5 49-62.5l-138-79q-20 36-42 45.5t-45 9.5q-24 0-41.5-12.5T264 522q0-23 19-43.5t57-48.5l35-26q24-17 47-37.5t42-44.5 30.5-51.5T506 212zM157 851l195 80 156-83-46-89-117 62-150-62z"/><glyph glyph-name="scircumflex" unicode="ŝ" horiz-adv-x="434" d="M80 638l197 90 152-99-54-83-104 68-149-68zm302-483q0-78-48.5-120.5T198-8Q121-8 71.5 25T2 104l107 74q7-13 15-24.5t18.5-20.5 24.5-14.5 33-5.5 30 7.5 11 21.5q0 15-11 24.5T199 190l-34 23q-22 15-41 29.5T91.5 274t-21 37.5T63 358q0 30 11 57.5t33 48 54.5 32.5 76.5 12q63 0 109-25t67-63l-103-76q-14 24-33.5 35T239 390q-18 0-26.5-8.5T204 362q0-12 7.5-21t30.5-23l26-17q55-35 84.5-68.5T382 155z"/><glyph glyph-name="Scedilla" unicode="Ş" horiz-adv-x="547" d="M506 212q0-85-48-142.5T322-3l-60-131H125L210-3Q139 10 91.5 52T19 155l138 79q20-50 46-71.5t68-21.5q28 0 49 14.5t21 40.5q0 21-14 37.5T274 278l-36 26q-29 22-54 45t-43 47.5-28.5 52.5-10.5 60q0 50 17.5 89t47.5 65.5 70 40.5 84 14q32 0 63-5t60-19 55-38.5 49-62.5l-138-79q-20 36-42 45.5t-45 9.5q-24 0-41.5-12.5T264 522q0-23 19-43.5t57-48.5l35-26q24-17 47-37.5t42-44.5 30.5-51.5T506 212z"/><glyph glyph-name="scedilla" unicode="ş" horiz-adv-x="434" d="M147-3Q91 7 55 36.5T2 104l107 74q7-13 15-24.5t18.5-20.5 24.5-14.5 33-5.5 30 7.5 11 21.5q0 15-11 24.5T199 190l-34 23q-22 15-41 29.5T91.5 274t-21 37.5T63 358q0 30 11 57.5t33 48 54.5 32.5 76.5 12q63 0 109-25t67-63l-103-76q-14 24-33.5 35T239 390q-18 0-26.5-8.5T204 362q0-12 7.5-21t30.5-23l26-17q55-35 84.5-68.5T382 155q0-65-34.5-105.5T250-3l-60-131H63z"/><glyph glyph-name="Scaron" unicode="Š" horiz-adv-x="547" d="M526 839l-195-80-156 83 46 89 117-62 150 62zm-20-627q0-48-16.5-88.5t-47.5-70T366.5 8 265-8q-94 0-155.5 45.5T19 155l138 79q20-50 46-71.5t68-21.5q28 0 49 14.5t21 40.5q0 21-14 37.5T274 278l-36 26q-29 22-54 45t-43 47.5-28.5 52.5-10.5 60q0 50 17.5 89t47.5 65.5 70 40.5 84 14q32 0 63-5t60-19 55-38.5 49-62.5l-138-79q-20 36-42 45.5t-45 9.5q-24 0-41.5-12.5T264 522q0-23 19-43.5t57-48.5l35-26q24-17 47-37.5t42-44.5 30.5-51.5T506 212z"/><glyph glyph-name="scaron" unicode="š" horiz-adv-x="434" d="M445 636l-197-90-152 99 54 83 104-68 149 68zm-63-481q0-78-48.5-120.5T198-8Q121-8 71.5 25T2 104l107 74q7-13 15-24.5t18.5-20.5 24.5-14.5 33-5.5 30 7.5 11 21.5q0 15-11 24.5T199 190l-34 23q-22 15-41 29.5T91.5 274t-21 37.5T63 358q0 30 11 57.5t33 48 54.5 32.5 76.5 12q63 0 109-25t67-63l-103-76q-14 24-33.5 35T239 390q-18 0-26.5-8.5T204 362q0-12 7.5-21t30.5-23l26-17q55-35 84.5-68.5T382 155z"/><glyph glyph-name="uni0162" unicode="Ţ" horiz-adv-x="542" d="M132-50h148L149-268H52zm121 602H84l34 158h501l-34-158H416L299 0H136z"/><glyph glyph-name="uni0163" unicode="ţ" horiz-adv-x="428" d="M115-50h148L132-268H35zM53 500h106l17 75 166 75-32-150h142l-30-132H282l-36-171q-3-12-3-22 0-37 48-37h82L344 0H231q-69 0-106.5 35T87 137q0 29 7 60l37 171H53v132z"/><glyph glyph-name="Tcaron" unicode="Ť" horiz-adv-x="542" d="M253 552H84l34 158h501l-34-158H416L299 0H136zm321 287l-195-80-156 83 46 89 117-62 150 62z"/><glyph glyph-name="tcaron" unicode="ť" horiz-adv-x="428" d="M53 500h106l17 75 166 75-32-150h142l-30-132H282l-36-171q-3-12-3-22 0-37 48-37h82L344 0H231q-69 0-106.5 35T87 137q0 29 7 60l37 171H53v132zm520 210L472 550H372l53 160h148z"/><glyph glyph-name="Utilde" unicode="Ũ" horiz-adv-x="717" d="M656 288q-17-78-43.5-134T546 62 452 9 326-8q-53 0-99 17.5T146.5 60 92 139 72 242q0 32 8 72l84 396h160l-88-413q-2-12-3.5-23t-1.5-21q0-55 32-81t82-26q59 0 97 34t53 106l90 424h161l-90-422zM286 806q20 56 53.5 86t79.5 30q22 0 39-6.5t32-14 28-13.5 27-6q17 0 26.5 9.5T592 924h101l-10-29q-20-56-53-86t-79-30q-22 0-39.5 6T479 798.5t-28.5 14T424 819q-17 0-26.5-9.5T377 777H276z"/><glyph glyph-name="utilde" unicode="ũ" d="M340 40q-26-23-59-35.5T205-8q-34 0-63.5 12.5T90 40 55 97t-13 78q0 32 7 66l55 259h151l-53-252q-2-12-3.5-23t-1.5-22q0-34 16.5-53.5T269 130q29 0 55.5 13t46.5 45l66 312h151L482 0H333zM176 583q20 56 53.5 86t79.5 30q22 0 39-6.5t32-14 28-13.5 27-6q17 0 26.5 9.5T482 701h101l-10-29q-20-56-53-86t-79-30q-22 0-39.5 6T369 575.5t-28.5 14T314 596q-17 0-26.5-9.5T267 554H166z"/><glyph glyph-name="Umacron" unicode="Ū" horiz-adv-x="717" d="M656 288q-17-78-43.5-134T546 62 452 9 326-8q-53 0-99 17.5T146.5 60 92 139 72 242q0 32 8 72l84 396h160l-88-413q-2-12-3.5-23t-1.5-21q0-55 32-81t82-26q59 0 97 34t53 106l90 424h161l-90-422zM329 898h330l-21-96H308z"/><glyph glyph-name="umacron" unicode="ū" d="M340 40q-26-23-59-35.5T205-8q-34 0-63.5 12.5T90 40 55 97t-13 78q0 32 7 66l55 259h151l-53-252q-2-12-3.5-23t-1.5-22q0-34 16.5-53.5T269 130q29 0 55.5 13t46.5 45l66 312h151L482 0H333zM218 675h330l-20-96H198z"/><glyph glyph-name="Ubreve" unicode="Ŭ" horiz-adv-x="717" d="M656 288q-17-78-43.5-134T546 62 452 9 326-8q-53 0-99 17.5T146.5 60 92 139 72 242q0 32 8 72l84 396h160l-88-413q-2-12-3.5-23t-1.5-21q0-55 32-81t82-26q59 0 97 34t53 106l90 424h161l-90-422zM382 933q2-41 28-60t62-19q43 0 71.5 20.5T579 933h86q-3-36-17.5-66T608 815t-60.5-34-80.5-12q-41 0-72.5 13T341 817.5t-33.5 52T296 933h86z"/><glyph glyph-name="ubreve" unicode="ŭ" d="M340 40q-26-23-59-35.5T205-8q-34 0-63.5 12.5T90 40 55 97t-13 78q0 32 7 66l55 259h151l-53-252q-2-12-3.5-23t-1.5-22q0-34 16.5-53.5T269 130q29 0 55.5 13t46.5 45l66 312h151L482 0H333zm-68 670q2-41 28-60t62-19q43 0 71.5 20.5T469 710h86q-3-36-17.5-66T498 592t-60.5-34-80.5-12q-41 0-72.5 13T231 594.5t-33.5 52T186 710h86z"/><glyph glyph-name="Uring" unicode="Ů" horiz-adv-x="717" d="M443 879q0-20 13.5-33.5T490 832t33.5 13.5T537 879t-13.5 33.5T490 926t-33.5-13.5T443 879zm167 0q0-25-9.5-46.5t-26-38-38-26T490 759t-46.5 9.5-38 26-26 38T370 879t9.5 46.5 26 38 38 26T490 999t46.5-9.5 38-26 26-38T610 879zm46-591q-17-78-43.5-134T546 62 452 9 326-8q-53 0-99 17.5T146.5 60 92 139 72 242q0 32 8 72l84 396h160l-88-413q-2-12-3.5-23t-1.5-21q0-55 32-81t82-26q59 0 97 34t53 106l90 424h161l-90-422z"/><glyph glyph-name="uring" unicode="ů" d="M334 666q0-20 13.5-33.5T381 619t33.5 13.5T428 666t-13.5 33.5T381 713t-33.5-13.5T334 666zm167 0q0-25-9.5-46.5t-26-38-38-26T381 546t-46.5 9.5-38 26-26 38T261 666t9.5 46.5 26 38 38 26T381 786t46.5-9.5 38-26 26-38T501 666zM340 40q-26-23-59-35.5T205-8q-34 0-63.5 12.5T90 40 55 97t-13 78q0 32 7 66l55 259h151l-53-252q-2-12-3.5-23t-1.5-22q0-34 16.5-53.5T269 130q29 0 55.5 13t46.5 45l66 312h151L482 0H333z"/><glyph glyph-name="Uhungarumlaut" unicode="Ű" horiz-adv-x="717" d="M622 923h152L617 778h-96zm-205 0h152L412 778h-96zm239-635q-17-78-43.5-134T546 62 452 9 326-8q-53 0-99 17.5T146.5 60 92 139 72 242q0 32 8 72l84 396h160l-88-413q-2-12-3.5-23t-1.5-21q0-55 32-81t82-26q59 0 97 34t53 106l90 424h161l-90-422z"/><glyph glyph-name="uhungarumlaut" unicode="ű" d="M340 40q-26-23-59-35.5T205-8q-34 0-63.5 12.5T90 40 55 97t-13 78q0 32 7 66l55 259h151l-53-252q-2-12-3.5-23t-1.5-22q0-34 16.5-53.5T269 130q29 0 55.5 13t46.5 45l66 312h151L482 0H333zm178 670h148L488 555h-85zm-197 0h148L291 555h-85z"/><glyph glyph-name="Uogonek" unicode="Ų" horiz-adv-x="717" d="M293-189q-45 0-70 23.5T198-105q0 29 17 58t41 47q-40 10-74 31.5T123.5 84t-38 71T72 242q0 32 8 72l84 396h160l-88-413q-2-12-3.5-23t-1.5-21q0-55 32-81t82-26q59 0 97 34t53 106l90 424h161l-90-422q-14-65-34.5-114.5T572 89t-67.5-57T417 0q-40-18-57.5-34.5T342-64q0-12 8-17.5t19-5.5q7 0 16 3t15 6l-18-87q-14-9-36.5-16.5T293-189z"/><glyph glyph-name="uogonek" unicode="ų" d="M448-161q-19-16-42.5-21.5T358-188q-38 0-61.5 23T273-105q0 29 17 58t43 47l7 40q-26-23-59-35.5T205-8q-34 0-63.5 12.5T90 40 55 97t-13 78q0 32 7 66l55 259h151l-53-252q-2-12-3.5-23t-1.5-22q0-34 16.5-53.5T269 130q29 0 55.5 13t46.5 45l66 312h151L482 0q-40-19-56-36t-16-27q0-11 6.5-17.5T434-87q10 0 18.5 4.5T466-74l-18-87z"/><glyph glyph-name="Wcircumflex" unicode="Ŵ" horiz-adv-x="858" d="M359 851l195 80 156-83-46-89-117 62-150-62zM93 710h159l38-328 234 336 82-350 186 342h167L560-8l-94 411L186-8z"/><glyph glyph-name="wcircumflex" unicode="ŵ" horiz-adv-x="729" d="M245 638l197 90 152-99-54-83-104 68-149-68zM52 500h154l23-279 184 287 60-295 145 287h164L517 0H402l-44 206L220 0H105z"/><glyph glyph-name="Ycircumflex" unicode="Ŷ" horiz-adv-x="680" d="M270 298L95 710h168l105-257 215 257h198L430 298 367 0H207zm-11 553l195 80 156-83-46-89-117 62-150-62z"/><glyph glyph-name="ycircumflex" unicode="ŷ" horiz-adv-x="524" d="M131 0L52 500h155l39-316 169 316h165L182-184H24zm17 638l197 90 152-99-54-83-104 68-149-68z"/><glyph glyph-name="Ydieresis" unicode="Ÿ" horiz-adv-x="680" d="M270 298L95 710h168l105-257 215 257h198L430 298 367 0H207zm144 552q0-33-23.5-56.5T334 770t-56.5 23.5T254 850t23.5 56.5T334 930t56.5-23.5T414 850zm238 0q0-33-23.5-56.5T572 770t-56.5 23.5T492 850t23.5 56.5T572 930t56.5-23.5T652 850z"/><glyph glyph-name="Zacute" unicode="Ź" horiz-adv-x="629" d="M394 552H115l34 158h560L271 158h300L537 0H-44zm58 371h172L467 778H351z"/><glyph glyph-name="zacute" unicode="ź" horiz-adv-x="518" d="M351 710h178L351 555H236zm-82-340H69l27 130h454L243 131h214L429 0H-40z"/><glyph glyph-name="Zdotaccent" unicode="Ż" horiz-adv-x="629" d="M546 850q0-36-25.5-61.5T459 763t-61.5 25.5T372 850t25.5 61.5T459 937t61.5-25.5T546 850zM394 552H115l34 158h560L271 158h300L537 0H-44z"/><glyph glyph-name="zdotaccent" unicode="ż" horiz-adv-x="518" d="M269 370H69l27 130h454L243 131h214L429 0H-40zm171 277q0-36-25.5-61.5T353 560t-61.5 25.5T266 647t25.5 61.5T353 734t61.5-25.5T440 647z"/><glyph glyph-name="Zcaron" unicode="Ž" horiz-adv-x="629" d="M394 552H115l34 158h560L271 158h300L537 0H-44zm240 287l-195-80-156 83 46 89 117-62 150 62z"/><glyph glyph-name="zcaron" unicode="ž" horiz-adv-x="518" d="M269 370H69l27 130h454L243 131h214L429 0H-40zm261 266l-197-90-152 99 54 83 104-68 149 68z"/><glyph glyph-name="uni0218" unicode="Ș" horiz-adv-x="547" d="M183-50h148L200-268h-97zm323 262q0-48-16.5-88.5t-47.5-70T366.5 8 265-8q-94 0-155.5 45.5T19 155l138 79q20-50 46-71.5t68-21.5q28 0 49 14.5t21 40.5q0 21-14 37.5T274 278l-36 26q-29 22-54 45t-43 47.5-28.5 52.5-10.5 60q0 50 17.5 89t47.5 65.5 70 40.5 84 14q32 0 63-5t60-19 55-38.5 49-62.5l-138-79q-20 36-42 45.5t-45 9.5q-24 0-41.5-12.5T264 522q0-23 19-43.5t57-48.5l35-26q24-17 47-37.5t42-44.5 30.5-51.5T506 212z"/><glyph glyph-name="uni0219" unicode="ș" horiz-adv-x="434" d="M118-50h148L135-268H38zm264 205q0-78-48.5-120.5T198-8Q121-8 71.5 25T2 104l107 74q7-13 15-24.5t18.5-20.5 24.5-14.5 33-5.5 30 7.5 11 21.5q0 15-11 24.5T199 190l-34 23q-22 15-41 29.5T91.5 274t-21 37.5T63 358q0 30 11 57.5t33 48 54.5 32.5 76.5 12q63 0 109-25t67-63l-103-76q-14 24-33.5 35T239 390q-18 0-26.5-8.5T204 362q0-12 7.5-21t30.5-23l26-17q55-35 84.5-68.5T382 155z"/><glyph glyph-name="uni021A" unicode="Ț" horiz-adv-x="542" d="M132-50h148L149-268H52zm121 602H84l34 158h501l-34-158H416L299 0H136z"/><glyph glyph-name="uni021B" unicode="ț" horiz-adv-x="428" d="M115-50h148L132-268H35zM53 500h106l17 75 166 75-32-150h142l-30-132H282l-36-171q-3-12-3-22 0-37 48-37h82L344 0H231q-69 0-106.5 35T87 137q0 29 7 60l37 171H53v132z"/><glyph glyph-name="uni0232" unicode="Ȳ" horiz-adv-x="680" d="M270 298L95 710h168l105-257 215 257h198L430 298 367 0H207zm27 600h330l-21-96H276z"/><glyph glyph-name="uni0233" unicode="ȳ" horiz-adv-x="524" d="M131 0L52 500h155l39-316 169 316h165L182-184H24zm55 675h330l-20-96H166z"/><glyph glyph-name="circumflex" unicode="ˆ" horiz-adv-x="507" d="M214 638l197 90 152-99-54-83-104 68-149-68z"/><glyph glyph-name="caron" unicode="ˇ" horiz-adv-x="511" d="M566 636l-197-90-152 99 54 83 104-68 149 68z"/><glyph glyph-name="breve" unicode="˘" horiz-adv-x="497" d="M300 710q2-41 28-60t62-19q43 0 71.5 20.5T497 710h86q-3-36-17.5-66T526 592t-60.5-34-80.5-12q-41 0-72.5 13T259 594.5t-33.5 52T214 710h86z"/><glyph glyph-name="dotaccent" unicode="˙" horiz-adv-x="328" d="M388 647q0-36-25.5-61.5T301 560t-61.5 25.5T214 647t25.5 61.5T301 734t61.5-25.5T388 647z"/><glyph glyph-name="ring" unicode="˚" horiz-adv-x="385" d="M287 666q0-20 13.5-33.5T334 619t33.5 13.5T381 666t-13.5 33.5T334 713t-33.5-13.5T287 666zm167 0q0-25-9.5-46.5t-26-38-38-26T334 546t-46.5 9.5-38 26-26 38T214 666t9.5 46.5 26 38 38 26T334 786t46.5-9.5 38-26 26-38T454 666z"/><glyph glyph-name="ogonek" unicode="˛" horiz-adv-x="349" d="M234-161q-19-16-42.5-21.5T144-188q-38 0-61.5 23T59-105q0 29 16 57t41 48h152q-40-19-56-36t-16-27q0-11 6.5-17.5T220-87q10 0 18.5 4.5T252-74l-18-87z"/><glyph glyph-name="tilde" unicode="˜" horiz-adv-x="550" d="M210 583q20 56 53.5 86t79.5 30q22 0 39-6.5t32-14 28-13.5 27-6q17 0 26.5 9.5T516 701h101l-10-29q-20-56-53-86t-79-30q-22 0-39.5 6T403 575.5t-28.5 14T348 596q-17 0-26.5-9.5T301 554H200z"/><glyph glyph-name="hungarumlaut" unicode="˝" horiz-adv-x="607" d="M530 710h148L500 555h-85zm-197 0h148L303 555h-85z"/><glyph glyph-name="Wgrave" unicode="Ẁ" horiz-adv-x="858" d="M391 923h158l39-145H486zM93 710h159l38-328 234 336 82-350 186 342h167L560-8l-94 411L186-8z"/><glyph glyph-name="wgrave" unicode="ẁ" horiz-adv-x="729" d="M52 500h154l23-279 184 287 60-295 145 287h164L517 0H402l-44 206L220 0H105zm216 210h160l45-155h-97z"/><glyph glyph-name="Wacute" unicode="Ẃ" horiz-adv-x="858" d="M578 923h172L593 778H477zM93 710h159l38-328 234 336 82-350 186 342h167L560-8l-94 411L186-8z"/><glyph glyph-name="wacute" unicode="ẃ" horiz-adv-x="729" d="M481 710h178L481 555H366zM52 500h154l23-279 184 287 60-295 145 287h164L517 0H402l-44 206L220 0H105z"/><glyph glyph-name="Wdieresis" unicode="Ẅ" horiz-adv-x="858" d="M93 710h159l38-328 234 336 82-350 186 342h167L560-8l-94 411L186-8zm419 140q0-33-23.5-56.5T432 770t-56.5 23.5T352 850t23.5 56.5T432 930t56.5-23.5T512 850zm238 0q0-33-23.5-56.5T670 770t-56.5 23.5T590 850t23.5 56.5T670 930t56.5-23.5T750 850z"/><glyph glyph-name="wdieresis" unicode="ẅ" horiz-adv-x="729" d="M405 647q0-33-23.5-56.5T325 567t-56.5 23.5T245 647t23.5 56.5T325 727t56.5-23.5T405 647zm238 0q0-33-23.5-56.5T563 567t-56.5 23.5T483 647t23.5 56.5T563 727t56.5-23.5T643 647zM52 500h154l23-279 184 287 60-295 145 287h164L517 0H402l-44 206L220 0H105z"/><glyph glyph-name="uni1ECA" unicode="Ị" horiz-adv-x="313" d="M174 710h161L184 0H23zM78-214q-36 0-61.5 25.5T-9-127t25.5 61.5T78-40t61.5-25.5T165-127t-25.5-61.5T78-214z"/><glyph glyph-name="uni1ECB" unicode="ị" horiz-adv-x="270" d="M134 571q-5 8-8.5 21t-3.5 26q0 46 28 73t75 27q32 0 56.5-19.5T306 643q0-24-8.5-41T275 571H134zm-22-71h152L158 0H6zM57-214q-36 0-61.5 25.5T-30-127t25.5 61.5T57-40t61.5-25.5T144-127t-25.5-61.5T57-214z"/><glyph glyph-name="uni1ECC" unicode="Ọ" horiz-adv-x="817" d="M222 339q0-38 11.5-72.5t35-61.5 58-43 80.5-16q53 0 96 18t73 49 46.5 72 16.5 86q0 37-12 72t-35 62-57.5 43-80.5 16q-53 0-96-18t-73-49-46.5-72-16.5-86zm578 46q0-75-26-146t-77.5-125.5-127.5-88T394-8q-76 0-137.5 27.5t-105 74-67 106.5T61 325q0 75 26.5 146T165 596.5t127 88T467 718q76 0 137.5-27.5t105-74 67-106.5T800 385zM372-214q-36 0-61.5 25.5T285-127t25.5 61.5T372-40t61.5-25.5T459-127t-25.5-61.5T372-214z"/><glyph glyph-name="uni1ECD" unicode="ọ" horiz-adv-x="588" d="M185 240q0-50 28-78.5t70-28.5q26 0 48 9.5t38 27 25 41 9 50.5q0 50-28 78t-70 28q-53 0-86.5-36T185 240zm370 34q0-60-21-111.5T475.5 73t-90-59.5T270-8q-57 0-101 19.5t-74.5 52-46 75T33 227q0 60 21 111t58.5 89 90 59.5T318 508q57 0 101-19.5t74.5-52 46-74.5 15.5-88zM245-214q-36 0-61.5 25.5T158-127t25.5 61.5T245-40t61.5-25.5T332-127t-25.5-61.5T245-214z"/><glyph glyph-name="uni1EE4" unicode="Ụ" horiz-adv-x="717" d="M656 288q-17-78-43.5-134T546 62 452 9 326-8q-53 0-99 17.5T146.5 60 92 139 72 242q0 32 8 72l84 396h160l-88-413q-2-12-3.5-23t-1.5-21q0-55 32-81t82-26q59 0 97 34t53 106l90 424h161l-90-422zM303-214q-36 0-61.5 25.5T216-127t25.5 61.5T303-40t61.5-25.5T390-127t-25.5-61.5T303-214z"/><glyph glyph-name="uni1EE5" unicode="ụ" d="M340 40q-26-23-59-35.5T205-8q-34 0-63.5 12.5T90 40 55 97t-13 78q0 32 7 66l55 259h151l-53-252q-2-12-3.5-23t-1.5-22q0-34 16.5-53.5T269 130q29 0 55.5 13t46.5 45l66 312h151L482 0H333zM213-214q-36 0-61.5 25.5T126-127t25.5 61.5T213-40t61.5-25.5T300-127t-25.5-61.5T213-214z"/><glyph glyph-name="Ygrave" unicode="Ỳ" horiz-adv-x="680" d="M270 298L95 710h168l105-257 215 257h198L430 298 367 0H207zm36 625h158l39-145H401z"/><glyph glyph-name="ygrave" unicode="ỳ" horiz-adv-x="524" d="M131 0L52 500h155l39-316 169 316h165L182-184H24zm58 710h160l45-155h-97z"/><glyph glyph-name="endash" unicode="–" horiz-adv-x="598" d="M79 354h484l-32-144H47z"/><glyph glyph-name="emdash" unicode="—" horiz-adv-x="891" d="M79 354h777l-32-144H47z"/><glyph glyph-name="quoteleft" unicode="‘" horiz-adv-x="274" d="M222 556h67l-37-174H78l37 174 97 154h87z"/><glyph glyph-name="quoteright" unicode="’" horiz-adv-x="263" d="M173 536h-67l37 174h174l-37-174-97-154H96z"/><glyph glyph-name="quotesinglbase" unicode="‚" horiz-adv-x="287" d="M77 0H10l37 174h174L184 0 87-154H0z"/><glyph glyph-name="quotedblleft" unicode="“" horiz-adv-x="498" d="M222 556h67l-37-174H78l37 174 97 154h87zm224 0h67l-37-174H302l37 174 97 154h87z"/><glyph glyph-name="quotedblright" unicode="”" horiz-adv-x="487" d="M173 536h-67l37 174h174l-37-174-97-154H96zm224 0h-67l37 174h174l-37-174-97-154h-87z"/><glyph glyph-name="quotedblbase" unicode="„" horiz-adv-x="511" d="M77 0H10l37 174h174L184 0 87-154H0zm224 0h-67l37 174h174L408 0l-97-154h-87z"/><glyph glyph-name="bullet" unicode="•" horiz-adv-x="397" d="M208 166q-28 0-53 10.5t-43.5 29-29 43.5T72 302t10.5 53 29 43.5 43.5 29 53 10.5 53-10.5 43.5-29 29-43.5 10.5-53-10.5-53-29-43.5-43.5-29-53-10.5z"/><glyph glyph-name="ellipsis" unicode="…" horiz-adv-x="861" d="M229 100q0-23-8.5-42.5t-23-34T163 .5 121-8Q98-8 78.5.5t-34 23-23 34T13 100q0 22 8.5 42t23 34.5 34 23T121 208q22 0 42-8.5t34.5-23 23-34.5 8.5-42zm286 0q0-23-8.5-42.5t-23-34T449 .5 407-8Q384-8 364.5.5t-34 23-23 34T299 100q0 22 8.5 42t23 34.5 34 23T407 208q22 0 42-8.5t34.5-23 23-34.5 8.5-42zm286 0q0-23-8.5-42.5t-23-34T735 .5 693-8Q670-8 650.5.5t-34 23-23 34T585 100q0 22 8.5 42t23 34.5 34 23T693 208q22 0 42-8.5t34.5-23 23-34.5 8.5-42z"/><glyph glyph-name="guilsinglleft" unicode="‹" horiz-adv-x="331" d="M27 250l215 241 88-81-157-171 81-173L140 9z"/><glyph glyph-name="guilsinglright" unicode="›" horiz-adv-x="331" d="M304 250L89 9 1 90l157 171-81 173 114 57z"/><glyph glyph-name="Euro" unicode="€" horiz-adv-x="721" d="M95 454h62q19 55 54 103t84 84 111.5 56.5T543 718q73 0 130.5-23.5T773 631l-77-135q-29 35-74.5 57.5T517 576q-78 0-132-34t-82-88h368l-37-66H280q-2-12-3-24.5t-1-25.5v-16h320l-38-66H288q22-62 71.5-92.5T470 133q37 0 72.5 8t73.5 25L581 16Q555 4 523-2t-65-6q-66 0-120 21t-94.5 57-66.5 84-36 102H30l37 66h68v3q0 16 1 31.5t4 31.5H58z"/><glyph glyph-name="minus" unicode="−" horiz-adv-x="590" d="M83 339h436V225H83v114z"/><glyph glyph-name="uniFB01" unicode="ﬁ" horiz-adv-x="649" d="M123 368H58l28 132h80q-11 17-17.5 35t-6.5 47q0 18 8 40t27 41.5 50.5 33T306 710h156l-28-132H327q-30 0-39.5-12.5T278 538q0-14 10-26t31-12h99l-28-132H274L196 0H45zm390 203q-5 8-8.5 21t-3.5 26q0 46 28 73t75 27q32 0 56.5-19.5T685 643q0-24-8.5-41T654 571H513zm-22-71h152L537 0H385z"/><glyph glyph-name="uniFB02" unicode="ﬂ" horiz-adv-x="649" d="M123 368H58l28 132h80q-11 17-17.5 35t-6.5 47q0 18 8 40t27 41.5 50.5 33T306 710h156l-28-132H327q-30 0-39.5-12.5T278 538q0-14 10-26t31-12h99l-28-132H274L196 0H45zm413 342h152L537 0H385z"/><glyph glyph-name="glyph268" horiz-adv-x="278" d="M-98-41h31q22 0 36.5 3T-6-27 10-4.5 21 33l100 467h152L166 0q-14-64-35-100.5t-52-55T7-179t-95-5h-41z"/><glyph glyph-name="glyph332" horiz-adv-x="328" d="M137-214q-36 0-61.5 25.5T50-127t25.5 61.5T137-40t61.5-25.5T224-127t-25.5-61.5T137-214z"/><glyph glyph-name="glyph334" horiz-adv-x="362" d="M119-50h148L136-268H39z"/><glyph glyph-name="glyph338" horiz-adv-x="500" d="M494 710L393 550H293l53 160h148z"/><glyph glyph-name="glyph339" horiz-adv-x="422" d="M366 923h172L381 778H265z"/><glyph glyph-name="glyph340" horiz-adv-x="497" d="M347 933q2-41 28-60t62-19q43 0 71.5 20.5T544 933h86q-3-36-17.5-66T573 815t-60.5-34-80.5-12q-41 0-72.5 13T306 817.5t-33.5 52T261 933h86z"/><glyph glyph-name="glyph341" horiz-adv-x="512" d="M610 839l-195-80-156 83 46 89 117-62 150 62z"/><glyph glyph-name="glyph342" horiz-adv-x="508" d="M259 851l195 80 156-83-46-89-117 62-150-62z"/><glyph glyph-name="glyph343" horiz-adv-x="582" d="M432 850q0-33-23.5-56.5T352 770t-56.5 23.5T272 850t23.5 56.5T352 930t56.5-23.5T432 850zm238 0q0-33-23.5-56.5T590 770t-56.5 23.5T510 850t23.5 56.5T590 930t56.5-23.5T670 850z"/><glyph glyph-name="glyph344" horiz-adv-x="328" d="M432 850q0-36-25.5-61.5T345 763t-61.5 25.5T258 850t25.5 61.5T345 937t61.5-25.5T432 850z"/><glyph glyph-name="glyph345" horiz-adv-x="408" d="M276 923h158l39-145H371z"/><glyph glyph-name="glyph346" horiz-adv-x="607" d="M571 923h152L566 778h-96zm-205 0h152L361 778h-96z"/><glyph glyph-name="glyph347" horiz-adv-x="495" d="M273 898h330l-21-96H252z"/><glyph glyph-name="glyph348" horiz-adv-x="385" d="M333 879q0-20 13.5-33.5T380 832t33.5 13.5T427 879t-13.5 33.5T380 926t-33.5-13.5T333 879zm167 0q0-25-9.5-46.5t-26-38-38-26T380 759t-46.5 9.5-38 26-26 38T260 879t9.5 46.5 26 38 38 26T380 999t46.5-9.5 38-26 26-38T500 879z"/><glyph glyph-name="glyph349" horiz-adv-x="550" d="M257 806q20 56 53.5 86t79.5 30q22 0 39-6.5t32-14 28-13.5 27-6q17 0 26.5 9.5T563 924h101l-10-29q-20-56-53-86t-79-30q-22 0-39.5 6T450 798.5t-28.5 14T395 819q-17 0-26.5-9.5T348 777H247z"/></font>
</defs>
</svg>
