<svg xmlns="http://www.w3.org/2000/svg" version="1.1"><defs><font id="Font" horiz-adv-x="608"><font-face font-family="Font" font-weight="500" font-style="italic" font-stretch="normal" units-per-em="1000" panose-1="2 11 6 0 3 0 0 0 0 0" ascent="800" descent="-200" x-height="500" cap-height="710" bbox="-120 -243 1117 958" underline-thickness="90" underline-position="-180" slope="-12" unicode-range="U+000D-FB02"/><glyph glyph-name=".notdef" horiz-adv-x="496"/><glyph glyph-name="glyph1" horiz-adv-x="0"/><glyph glyph-name="uni000D" horiz-adv-x="233"/><glyph glyph-name="space" horiz-adv-x="233"/><glyph glyph-name="exclam" unicode="!" horiz-adv-x="282" d="M121 425l60 285h111l-60-285-62-192h-68zm72-338q0-19-7.5-36.5t-21-30.5T133-.5 94-8Q62-8 39.5 14.5T17 68q0 26 15 46.5T67 149h101q11-10 18-27t7-35z"/><glyph glyph-name="quotedbl" unicode="&quot;" horiz-adv-x="428" d="M128 710h96V446h-96v264zm202 0h96V446h-96v264z"/><glyph glyph-name="numbersign" unicode="#" horiz-adv-x="702" d="M403 193H241L181 0H84l60 193H41v88h130l48 152H113v88h133l59 189h97l-59-189h163l59 189h97l-59-189h104v-88H575l-47-152h107v-88H500L440 0h-97zm-135 88h163l47 152H316z"/><glyph glyph-name="dollar" unicode="$" horiz-adv-x="544" d="M168 2q-54 15-95.5 48.5T7 132l97 61q10-19 23.5-36t30.5-30.5 39-21.5 49-8 52 5.5 44.5 17.5 31 30 11.5 42q0 21-8 37t-20.5 28.5T329 280t-29 19l-57 37q-60 45-91 90t-31 105q0 40 16 73t43 57 63 38.5 77 17.5l18 81h94l-19-88q45-11 81.5-37t62.5-68l-96-60q-20 33-48.5 50.5T343 613q-58 0-85.5-26T230 525q0-31 20-53t60-48l57-37q26-17 49-37t40.5-43.5T484 256t10-58q0-42-17-78.5t-47.5-64-74-44.5T260-8l-17-80h-94z"/><glyph glyph-name="percent" unicode="%" horiz-adv-x="1071" d="M287 405q23 0 43 9t35 24 23.5 35.5T397 517t-8.5 43.5T365 596t-35 24-43 9-43.5-9-35.5-24-23.5-35.5T176 517t8.5-43.5T208 438t35.5-24 43.5-9zm0-85q-41 0-77 15.5T147.5 378t-42 62.5T90 517q0 40 15.5 76t42 63 62.5 42.5 77 15.5q40 0 76-15.5t63-42.5 42.5-63 15.5-76q0-41-15.5-76.5T426 378t-63-42.5-76-15.5zm471 390h109L357 0H248zm70-629q23 0 43 9t35 24 23.5 35.5T938 193t-8.5 43.5T906 272t-35 24-43 9-43.5-9-35.5-24-23.5-35.5T717 193t8.5-43.5T749 114t35.5-24 43.5-9zm0-85q-41 0-77 15.5T688.5 54t-42 62.5T631 193q0 40 15.5 76t42 63 62.5 42.5 77 15.5q40 0 76-15.5t63-42.5 42.5-63 15.5-76q0-41-15.5-76.5T967 54t-63-42.5T828-4z"/><glyph glyph-name="ampersand" unicode="&amp;" horiz-adv-x="741" d="M247-8q-36 0-70.5 12t-61 34T73 91.5 57 162q0 41 11 73t34 58.5 58.5 50T244 392q-17 26-29 57.5T203 520q0 44 15.5 80.5T262 663t67 40.5 85 14.5q34 0 63.5-11.5t51.5-32 34-47 12-56.5q0-64-47.5-110T397 372l92-126 132 121 66-78-137-128L668 0H529l-63 86q-28-23-53.5-40.5t-52-29.5-54-18T247-8zm13 98q39 0 74.5 22.5T406 168L297 318q-33-17-57-33t-40-32.5-24-35.5-8-41q1-42 27.5-64T260 90zm49 444q0-27 9.5-47t26.5-45l13 7q52 26 82 50.5t30 57.5q0 32-19 50t-51 18q-18 0-34.5-7t-29-19.5-20-29T309 534z"/><glyph glyph-name="quotesingle" unicode="'" horiz-adv-x="226" d="M128 710h96V446h-96v264z"/><glyph glyph-name="parenleft" unicode="(" horiz-adv-x="276" d="M71-151q-9 30-15.5 64.5T45-16.5 39 54t-2 67q0 159 57 316.5T263 751l84-41Q244 560 189 416.5T134 123q0-57 6-118.5T160-115l-89-36z"/><glyph glyph-name="parenright" unicode=")" horiz-adv-x="276" d="M226 751q9-30 15.5-64.5t10.5-70 6-71 2-66.5q0-159-57-316.5T34-151l-84 41Q53 40 108 183.5T163 477q0 57-6 118.5T137 715l89 36z"/><glyph glyph-name="asterisk" unicode="*" horiz-adv-x="470" d="M293 452l-82-110-65 45 81 111-131 44 24 77 133-44v135h79V575l132 43 24-75-130-44 81-112-65-46z"/><glyph glyph-name="plus" unicode="+" horiz-adv-x="590" d="M82 321h174v170h89V321h174v-88H345V59h-89v174H82v88z"/><glyph glyph-name="comma" unicode="," horiz-adv-x="269" d="M76 0H18l30 141h141L159 0 69-146H1z"/><glyph glyph-name="hyphen" unicode="-" horiz-adv-x="382" d="M79 331h258l-23-109H56z"/><glyph glyph-name="period" unicode="." horiz-adv-x="263" d="M191 79q0-36-25-61.5T105-8 43.5 17.5 18 79q0 18 7 33.5t18.5 27T71 158t34 7 33.5-7 27.5-18.5 18.5-27T191 79z"/><glyph glyph-name="slash" unicode="/" horiz-adv-x="372" d="M328 710h101L90 0H-11z"/><glyph glyph-name="zero" unicode="0" horiz-adv-x="590" d="M271 100q32 0 58 17.5t47 46.5 37 67 26.5 78.5 15.5 81 5 75.5q0 74-26 108.5T364 609q-32 0-58.5-17.5T258 545t-36.5-67-26-78.5T180 318t-5-75q0-75 26-109t70-34zM263-8q-47 0-84.5 18t-64 51-41 80T59 245q0 83 19.5 167.5T137 565t98 110.5T372 718q47 0 84.5-18t64-51.5 41-80.5T576 464q0-84-19.5-168t-59-152-98-110T263-8z"/><glyph glyph-name="one" unicode="1" horiz-adv-x="590" d="M370 534l-226-97 26 125 349 148L368 0H257z"/><glyph glyph-name="two" unicode="2" horiz-adv-x="590" d="M292 288q39 36 69.5 66t52 56 33 50.5T458 511q0 44-28.5 74T354 615q-54 0-88-33.5T228 500H120q4 43 23 82.5t51 69.5 75 48 96 18q48 0 85.5-17t63-45 39-64.5T566 516q0-35-9.5-64.5t-26-56-38.5-50-47-47.5L235 103h267L480 0H-13z"/><glyph glyph-name="three" unicode="3" horiz-adv-x="590" d="M501 245q0-48-15-94t-46.5-81-81-56.5T241-8q-72 0-123 30.5T42 101l100 55q14-29 40.5-46T251 93q33 0 58.5 11t43 30.5 26.5 45 9 54.5q0 25-7.5 47t-24 39-43 27-63.5 10h-55l184 250H153l22 103h402L374 434q63-25 95-75.5T501 245z"/><glyph glyph-name="four" unicode="4" horiz-adv-x="590" d="M337 168H-25l590 550-97-453h107l-20-97H448L412 0H301zm21 97l43 202-213-202h170z"/><glyph glyph-name="five" unicode="5" horiz-adv-x="590" d="M519 244q0-54-17-100t-51-80-83.5-53T254-8q-71 0-123.5 32.5T54 107l101 54q12-29 41-48.5T264 93q34 0 60.5 11t44.5 30.5 27.5 45T406 234q0 25-7 47t-21 39-35 27-49 10q-37 0-65-13.5T183 307l-72 33 79 370h369l-22-103H278l-33-156q28 6 59 6 51 0 91-18t67.5-47.5 42-68T519 244z"/><glyph glyph-name="six" unicode="6" horiz-adv-x="590" d="M533 244q0-52-17.5-98T464 66t-83-54T268-8q-51 0-91 18t-67.5 47.5-42 68T53 205q0 27 5.5 51.5t17 49.5 29 51 41.5 56l235 297h131L310 457h8q51 0 91-18t67.5-47.5 42-68T533 244zm-367-29q0-24 7-46.5t21-39 35-26.5 49-10q35 0 61.5 11t44.5 30.5 27 45 9 54.5q0 25-7 47t-21 39-35 27-49 10q-33 0-59.5-11.5t-45-31-28-45T166 215z"/><glyph glyph-name="seven" unicode="7" horiz-adv-x="590" d="M451 607H148l22 103h474L160 0H37z"/><glyph glyph-name="eight" unicode="8" horiz-adv-x="590" d="M525 558q0-47-16.5-87T460 403q35-30 53.5-71.5T532 245q0-51-17-97t-50-80.5-80.5-55T276-8q-53 0-94.5 17t-70 46-44 67T52 201q0 72 33.5 133.5T182 428q-28 40-28 89 0 41 13 77.5t38 64 61.5 43.5 83.5 16q40 0 72-13.5t55-35.5 35.5-51 12.5-60zM165 213q0-24 7.5-46t22-38.5 36.5-26 51-9.5q33 0 59 12t43 31.5 26 45.5 9 54q0 24-7.5 46T389 320.5 352 347t-51 10q-33 0-58.5-12t-43-32-26-46-8.5-54zm96 316q0-29 15.5-49.5T324 456h10q20 0 36 8t26.5 20.5 16 29T418 547q0 32-18 52.5T345 620q-20 0-36-8t-26.5-20.5-16-29T261 529z"/><glyph glyph-name="nine" unicode="9" horiz-adv-x="590" d="M469 495q0 24-7 46.5t-21 39-35 26.5-49 10q-35 0-61.5-11T251 575.5t-27-45-9-54.5q0-25 7-47t21-39 35-27 49-10q33 0 59.5 11.5t45 31 28 45T469 495zm-367-29q0 52 17.5 98t51 80 83 54T367 718q51 0 91-18t67.5-47.5 42-68T582 505q0-27-5.5-51.5t-17-49.5-29-51-41.5-56L254 0H123l202 253h-8q-51 0-91 18t-67.5 47.5-42 68T102 466z"/><glyph glyph-name="colon" unicode=":" horiz-adv-x="296" d="M198 79q0-36-25-61.5T112-8 50.5 17.5 25 79q0 18 7 33.5t18.5 27T78 158t34 7 33.5-7 27.5-18.5 18.5-27T198 79zm73 343q0-36-25-61.5T185 335t-61.5 25.5T98 422q0 18 7 33.5t18.5 27T151 501t34 7 33.5-7 27.5-18.5 18.5-27T271 422z"/><glyph glyph-name="semicolon" unicode=";" horiz-adv-x="295" d="M82 0H24l30 141h141L165 0 75-146H7zm188 422q0-36-25-61.5T184 335t-61.5 25.5T97 422q0 18 7 33.5t18.5 27T150 501t34 7 33.5-7 27.5-18.5 18.5-27T270 422z"/><glyph glyph-name="equal" unicode="=" horiz-adv-x="590" d="M77 215h442v-88H77v88zm0 212h442v-88H77v88z"/><glyph glyph-name="question" unicode="?" horiz-adv-x="545" d="M239 380h40q36 0 66 9.5t51 26.5 33 40 12 50q0 49-30.5 79T329 615q-30 0-54-10.5T233.5 577t-28-40.5T193 488H85q3 46 22 88t52 73.5 78.5 50T339 718q49 0 88-16.5t66-45 41.5-66T549 512q0-47-15.5-87t-45-70.5-72.5-50-98-25.5l-11-48h-99zM221-8q-32 0-54.5 22.5T144 68q0 26 15 46.5t35 34.5h101q11-10 18-27t7-35q0-19-7.5-36.5t-21-30.5T260-.5 221-8z"/><glyph glyph-name="at" unicode="@" horiz-adv-x="814" d="M421-8q-81 0-145.5 27t-110 73.5T96 202 72 337q0 85 31.5 155.5T188 613t123.5 77.5T459 718q74 0 137-22t109-62.5 72-98T803 406q0-65-16-111.5T745.5 219t-59-42.5T619 163t-60 14-38 37q-23-23-56-36t-67-13q-40 0-71 13.5t-52 37-32 55-11 66.5q0 45 16 85t44.5 70 68.5 47 88 17q33 0 58-10t45-28l6 28h80l-49-229q-7-33 2.5-56t41.5-23q40 0 68 41t28 129q0 58-21.5 103T649 586t-86.5 45.5T458 647q-62 0-118-21.5T242 564t-67-97.5T150 337q0-59 18.5-109t53.5-86 85-56 114-20q45 0 94 10t90 31l25-71Q583 15 526.5 3.5T421-8zm-9 249q25 0 48 10t42 33l33 153q-15 23-38 33t-46 10q-27 0-51-10t-42-28-29-43-11-55q0-50 25.5-76.5T412 241z"/><glyph glyph-name="A" unicode="A" horiz-adv-x="671" d="M435 718L629 0H508l-41 158H178L70 0H-65zM250 264h190l-51 202z"/><glyph glyph-name="B" unicode="B" horiz-adv-x="644" d="M186 710h213q51 0 89.5-15.5t65-41 39.5-58 13-65.5q0-54-23.5-98.5T508 362q39-21 61-56.5t22-79.5q0-57-20.5-99.5T513 56t-89.5-42T307 0H35zm139-602q69 0 108.5 30.5T473 220q0 38-29 65t-90 27H217l-43-204h151zm33 303q62 0 96 29t34 75q0 35-24.5 61.5T389 603H279l-41-192h120z"/><glyph glyph-name="C" unicode="C" horiz-adv-x="690" d="M648 71q-50-40-112.5-59.5T401-8q-81 0-143.5 27.5t-105 74T88 200 66 325q0 75 27 146t78.5 125.5 127.5 88T474 718q88 0 150-31.5T728 602l-87-77q-30 38-74 60.5T464 608q-62 0-112.5-22T264 526.5t-57-87T187 336q0-45 13.5-87.5t41-75 69-52T407 102t98.5 17 78.5 45l64-93z"/><glyph glyph-name="D" unicode="D" horiz-adv-x="731" d="M261 108q76 0 137.5 24t105 64.5 67 94T594 403q0 42-14 78.5T540 545t-64.5 42-87.5 15H279L174 108h87zm-75 602h198q79 0 140.5-23t104-63.5T693 529t22-117q0-89-34.5-164.5t-95-130.5-144-86T260 0H35z"/><glyph glyph-name="E" unicode="E" horiz-adv-x="556" d="M186 710h420l-24-114H278l-39-180h244l-23-112H216l-41-190h305L456 0H35z"/><glyph glyph-name="F" unicode="F" horiz-adv-x="532" d="M186 710h412l-24-114H278l-39-180h231l-23-112H216L151 0H35z"/><glyph glyph-name="G" unicode="G" horiz-adv-x="774" d="M688 83q-29-21-63-38t-71.5-29T477-2t-76-6q-81 0-143.5 27.5t-105 74T88 200 66 325q0 75 27 146t78.5 125.5 127.5 88T474 718q88 0 159-30t113-86l-87-77q-15 20-36 35.5t-46.5 26-54.5 16-58 5.5q-62 0-112.5-22T264 526.5t-57-87T187 336q0-45 13.5-87.5t41-75 69-52T407 102q54 0 101 12.5t79 39.5l38 150H430l74 112h260L688 83z"/><glyph glyph-name="H" unicode="H" horiz-adv-x="760" d="M186 710h116l-63-294h352l63 294h116L619 0H503l65 304H216L151 0H35z"/><glyph glyph-name="I" unicode="I" horiz-adv-x="292" d="M186 710h116L151 0H35z"/><glyph glyph-name="J" unicode="J" horiz-adv-x="533" d="M443 207q-13-61-35.5-102.5T354 38 283 2.5 195-8q-39 0-74.5 11.5T59 36.5 17.5 89 2 160q0 12 1 23.5T7 209h117q-3-18-3-32 0-42 23.5-58.5T203 102q42 0 76.5 25t46.5 82l107 501h117L443 207z"/><glyph glyph-name="K" unicode="K" horiz-adv-x="652" d="M186 710h116l-76-355 368 355h145L353 337 610 0H479L222 336 151 0H35z"/><glyph glyph-name="L" unicode="L" horiz-adv-x="519" d="M186 710h117L176 115h298L450 0H35z"/><glyph glyph-name="M" unicode="M" horiz-adv-x="874" d="M188 718l257-373 441 373L733 0H617l90 424-284-240-178 259L151 0H35z"/><glyph glyph-name="N" unicode="N" horiz-adv-x="777" d="M250 466L151 0H35l153 718 384-474 99 466h116L634-8z"/><glyph glyph-name="O" unicode="O" horiz-adv-x="826" d="M187 336q0-47 13.5-89.5t41-74.5 69-51 96.5-19q61 0 112 22t88 59.5 57 87T684 374q0 47-13.5 89.5t-41 74.5-69 51-96.5 19q-62 0-112.5-22T264 526.5t-57-87T187 336zm618 49q0-75-27-146t-78.5-125.5-127.5-88T397-8q-80 0-141.5 28T152 94.5 88 201 66 325q0 75 27 146t78.5 125.5 127.5 88T474 718q79 0 141-28t104-74.5T783 509t22-124z"/><glyph glyph-name="P" unicode="P" horiz-adv-x="582" d="M186 710h185q57 0 99.5-15t71.5-42 43.5-64 14.5-81q0-119-75-184.5T302 258h-96L151 0H35zm134-344q75 0 119 38t44 104q0 45-30 69.5T360 602h-81l-50-236h91z"/><glyph glyph-name="Q" unicode="Q" horiz-adv-x="844" d="M805 385q0-67-21-130.5T721 138l98-96-81-78-99 98q-48-33-108.5-51.5T397-8q-80 0-141.5 28T152 94.5 88 201 66 325q0 75 27 146t78.5 125.5 127.5 88T474 718q79 0 141-28t104-74.5T783 509t22-124zm-618-49q0-47 13.5-89.5t41-74.5 69-51 96.5-19q43 0 80.5 10.5T557 143l-99 98 81 78 98-98q23 33 35 72t12 81q0 47-13.5 89.5t-41 74.5-69 51-96.5 19q-62 0-112.5-22T264 526.5t-57-87T187 336z"/><glyph glyph-name="R" unicode="R" horiz-adv-x="637" d="M292 302h-77L151 0H35l151 710h205q52 0 92-13.5t67-38.5 40.5-59 13.5-75q0-91-51.5-145.5T414 308L571 0H442zm49 101q69 0 107 30.5t38 82.5q0 42-27.5 64.5T373 603h-94l-42-200h104z"/><glyph glyph-name="S" unicode="S" horiz-adv-x="536" d="M489 198q0-44-18-81.5t-50.5-65T342 8 241-8Q158-8 96 30.5T2 132l105 66q9-19 22.5-36t30.5-30.5 39.5-21.5 49.5-8q54 0 86.5 23.5T368 188q0 35-21 59.5T288 299l-50 37q-60 45-91 90t-31 105q0 43 18 77.5t48.5 59 71 37.5 85.5 13q66 0 122-27.5t91-85.5l-105-66q-38 69-117 69-40 0-68.5-21T233 530q0-31 20.5-54t58.5-52l50-37q25-19 48.5-39t40.5-43 27.5-49.5T489 198z"/><glyph glyph-name="T" unicode="T" horiz-adv-x="516" d="M273 596H90l24 114h483l-24-114H389L262 0H146z"/><glyph glyph-name="U" unicode="U" horiz-adv-x="730" d="M656 276q-14-68-39.5-120.5t-65.5-89T456 11 328-8Q273-8 227 7t-79 43.5T96.5 120 78 212q0 15 1.5 31t5.5 33l92 434h116l-93-437q-3-13-4-24t-1-22q0-61 37-93t102-32q38 0 71.5 11t60.5 33 45.5 54 27.5 73l93 437h116l-92-434z"/><glyph glyph-name="V" unicode="V" horiz-adv-x="648" d="M93 710h116l109-451 301 451h132L271 0z"/><glyph glyph-name="W" unicode="W" horiz-adv-x="874" d="M99 710h115l52-412 265 420 86-425 229 417h124L572-8l-93 458L190-8z"/><glyph glyph-name="X" unicode="X" horiz-adv-x="644" d="M283 371L118 710h126l121-249 226 249h141L414 360 589 0H464L332 270 86 0H-55z"/><glyph glyph-name="Y" unicode="Y" horiz-adv-x="644" d="M275 299L100 710h123l122-300 247 300h147L391 299 327 0H211z"/><glyph glyph-name="Z" unicode="Z" horiz-adv-x="606" d="M445 596H126l24 114h528L190 114h354L520 0H-43z"/><glyph glyph-name="bracketleft" unicode="[" horiz-adv-x="318" d="M188 748h204l-18-85H267L113-63h107l-18-85H-2z"/><glyph glyph-name="bracketright" unicode="]" horiz-adv-x="319" d="M152-148H-52l18 85H73l154 726H120l18 85h204z"/><glyph glyph-name="underscore" unicode="_" horiz-adv-x="546" d="M9 0h428l-19-88H-10z"/><glyph glyph-name="grave" unicode="`" horiz-adv-x="328" d="M205 710h133l49-165h-75z"/><glyph glyph-name="a" unicode="a" d="M388 37q-25-18-58.5-31.5T248-8t-87 18-66.5 49T52 131t-15 88q0 57 21 109t59 92 91 64 118 24q46 0 82.5-13t63.5-35l9 40h110L485 0H380zM274 97q38 0 73 16t61 46l40 184q-20 29-54 44.5T323 403q-35 0-66.5-13T202 354t-36.5-55-13.5-71q0-64 35-97.5T274 97z"/><glyph glyph-name="b" unicode="b" horiz-adv-x="607" d="M168 710h110l-51-242q24 17 55.5 28.5T359 508q48 0 87-18t66.5-49 42.5-72.5 15-87.5q0-57-21-109t-59-92-91-64T281-8q-46 0-82.5 12.5T135 39l-8-39H17zm165-307q-38 0-72.5-16T200 342l-40-187q20-28 53.5-43T284 97q35 0 66 13t54.5 36 37 55 13.5 71q0 64-35 97.5T333 403z"/><glyph glyph-name="c" unicode="c" horiz-adv-x="525" d="M475 72q-39-36-88-58T276-8q-57 0-101 19.5t-74.5 52-46 75T39 227q0 58 21.5 109.5t60 89.5 90.5 60 113 22q74 0 121.5-30t75.5-83l-93-61q-35 69-114 69-35 0-64-12.5T199 356t-34-52.5-12-66.5q0-33 10.5-59t28.5-44 42.5-27.5T286 97q37 0 64.5 13.5T401 147l74-75z"/><glyph glyph-name="d" unicode="d" d="M386 36q-25-18-58-31T248-8q-48 0-87 18T94.5 59 52 131t-15 88q0 57 21 109t59 92 91 64 118 24q46 0 83-13t64-35l53 250h110L485 0H380zM274 97q38 0 73 16.5t61 45.5l40 184q-20 29-54 44.5T323 403q-35 0-66.5-13T202 354t-36.5-55-13.5-71q0-64 35-97.5T274 97z"/><glyph glyph-name="e" unicode="e" horiz-adv-x="576" d="M486 74q-39-38-93-60T276-8q-57 0-101 19.5t-74.5 52-46 75T39 227q0 58 21.5 109.5t60 89.5 90.5 60 113 22q59 0 101-20.5t68.5-53.5 38.5-74 12-82q0-31-6-58H154q3-30 14-52.5t29-38.5 40.5-24 48.5-8q38 0 70.5 14t55.5 38zM314 403q-53 0-93-25t-57-73h261q-7 51-37.5 74.5T314 403z"/><glyph glyph-name="f" unicode="f" horiz-adv-x="365" d="M84 500h85q-11 15-17 34.5t-6 41.5q0 58 46.5 96T326 710h121l-21-98h-99q-35 0-58-14t-23-46q0-22 12.5-36t36.5-16h107l-21-98H251L166 0H56l85 402H63z"/><glyph glyph-name="g" unicode="g" horiz-adv-x="595" d="M494 51q0-62-21.5-108T414-133.5 327-179t-107-15q-26 0-55 3t-58 10.5-55.5 19T4-132l66 94q26-23 67-37t89-14q66 0 110 31.5T380 39v9.5L379 59q-24-17-56-28t-76-11q-45 0-82.5 16.5t-65 45-43 67.5T41 233q0 57 20 107t57 87.5 89.5 59T326 508q41 0 73.5-10t58.5-28l7 30h110l-84-395q2-15 2.5-29t.5-25zm-221 74q35 0 68 13.5t58 39.5l36 178q-20 23-51.5 35T320 403q-33 0-63-10.5t-52.5-31T169 311t-13-69q0-64 33.5-90.5T273 125z"/><glyph glyph-name="h" unicode="h" horiz-adv-x="585" d="M168 710h110l-52-241q32 22 67 30.5t69 8.5q36 0 67.5-12t55-34.5 37-55.5 13.5-74q0-27-6-55L470 0H360l56 265q2 11 3.5 21t1.5 19q0 48-28 73t-76 25q-70 0-116-55L127 0H17z"/><glyph glyph-name="i" unicode="i" horiz-adv-x="250" d="M144 596q-13 20-13 43 0 31 22 55t60 24q32 0 49.5-21.5T280 649q0-15-6.5-29T253 596H144zm-21-96h110L127 0H17z"/><glyph glyph-name="j" unicode="j" horiz-adv-x="258" d="M-98-80h40q38 0 55 15t25 53l109 512h110L131-18q-10-45-25.5-77T67-146.5 11.5-175t-76.5-9h-55zm250 676q-13 20-13 43 0 31 22 55t60 24q32 0 49.5-21.5T288 649q0-15-6.5-29T261 596H152z"/><glyph glyph-name="k" unicode="k" horiz-adv-x="525" d="M168 710h110l-93-435 244 225h139L300 255 478 0H354L180 249 127 0H17z"/><glyph glyph-name="l" unicode="l" horiz-adv-x="250" d="M168 710h110L127 0H17z"/><glyph glyph-name="m" unicode="m" horiz-adv-x="885" d="M716 265q6 25 6 47 0 91-94 91-34 0-63-17.5T515 337v-2q0-28-6-58L450 0H340l56 265q6 25 6 47 0 91-94 91-35 0-60.5-13.5T201 350L127 0H17l106 500h105l-7-35q31 24 64 33.5t68 9.5q45 0 80-18.5t56-53.5q43 42 90 57t94 15q36 0 65.5-12.5t51-35T823 406t12-71q0-28-6-58L770 0H660z"/><glyph glyph-name="n" unicode="n" horiz-adv-x="585" d="M123 500h105l-7-36q32 25 69 34.5t72 9.5q36 0 67.5-12t55-34.5 37-55.5 13.5-74q0-27-6-55L470 0H360l56 265q2 11 3.5 21t1.5 19q0 48-28 73t-76 25q-70 0-116-55L127 0H17z"/><glyph glyph-name="o" unicode="o" horiz-adv-x="599" d="M153 237q0-33 10.5-59t28.5-44 42.5-27.5T286 97q34 0 63.5 12.5T401 144t34 53 12 67q0 33-10.5 59T408 366.5t-42.5 27T314 403q-35 0-64-12.5T199 356t-34-52.5-12-66.5zm408 37q0-59-22-110.5T479 74t-90-60T276-8q-57 0-101 19.5t-74.5 52-46 75T39 227q0 58 21.5 109.5t60 89.5 90.5 60 113 22q57 0 101-19.5t74.5-52 46-74.5 15.5-88z"/><glyph glyph-name="p" unicode="p" d="M123 500h105l-8-37q25 19 58.5 32t81.5 13 87-18 66.5-49 42.5-72.5 15-87.5q0-57-21-109t-59-92-91-64T282-8q-46 0-83 12.5T135 39L88-184H-22zm211-97q-38 0-73.5-16.5T199 341l-39-185q20-29 54-44t71-15q35 0 66 13t54.5 36 37 55 13.5 71q0 64-35 97.5T334 403z"/><glyph glyph-name="q" unicode="q" d="M382 32q-25-17-57-28.5T248-8q-48 0-87 18T94.5 59 52 131t-15 88q0 57 21 109t59 92 91 64 118 24q46 0 82.5-13t63.5-35l9 40h110L446-184H336zM274 97q38 0 73.5 16.5T409 160l39 183q-20 29-54 44.5T323 403q-35 0-66.5-13T202 354t-36.5-55-13.5-71q0-64 35-97.5T274 97z"/><glyph glyph-name="r" unicode="r" horiz-adv-x="363" d="M123 500h110l-10-48q29 29 64.5 42t76.5 13q20 0 35-3l-24-115q-20 7-54 7-35 0-67.5-14.5T198 335L127 0H17z"/><glyph glyph-name="s" unicode="s" horiz-adv-x="430" d="M375 146q0-35-15-63.5T320.5 34t-57-31T197-8Q123-8 75.5 22T5 118l97 43q14-39 38.5-55.5T202 89q23 0 43.5 11.5T266 135q0 20-14 34t-46 32l-34 20q-21 12-39.5 26.5t-32.5 32T77.5 317 69 360q0 33 13 60.5t36 47 54 30 67 10.5q54 0 98.5-25t67.5-82l-99-44q-11 29-29 41t-44 12q-23 0-39-10.5T178 368q0-17 11.5-30.5T227 309l34-20q21-12 41-26t36.5-31 26.5-38.5 10-47.5z"/><glyph glyph-name="t" unicode="t" horiz-adv-x="382" d="M63 500h95l20 94 123 56-32-150h131l-21-98H248l-48-227q-2-9-3-17t-1-14q0-23 13-33t46-10h68L302 0h-75Q82 0 82 117q0 13 2 27t5 30l48 228H63v98z"/><glyph glyph-name="u" unicode="u" horiz-adv-x="578" d="M357 35q-32-24-67-33.5T220-8q-36 0-67 12T99 38.5t-36 55T50 167q0 26 6 56l59 277h110l-56-265q-6-29-6-50 0-46 24.5-67T259 97q70 0 118 56l74 347h110L455 0H350z"/><glyph glyph-name="v" unicode="v" horiz-adv-x="512" d="M45 500h121l74-287 198 287h135L201-8z"/><glyph glyph-name="w" unicode="w" horiz-adv-x="709" d="M59 500h111l30-327 205 335 61-338 171 330h119L492 0h-82l-51 261L196 0h-85z"/><glyph glyph-name="x" unicode="x" horiz-adv-x="529" d="M-50 0l254 261L74 500h119l88-161 156 161h135L329 250 467 0H347l-94 172L86 0H-50z"/><glyph glyph-name="y" unicode="y" horiz-adv-x="512" d="M150 37L56 500h111l65-344 208 344h125L133-184H10z"/><glyph glyph-name="z" unicode="z" horiz-adv-x="502" d="M316 402H80l21 98h430L178 98h254L411 0H-37z"/><glyph glyph-name="braceleft" unicode="{" horiz-adv-x="330" d="M151-148Q43-148 43-46q0 28 7 60l37 179q2 8 3 14.5t1 12.5q0 18-10.5 28T44 258H31l18 84h13q35 0 49.5 17.5T132 407l43 198q9 41 22.5 68.5t33.5 44 46 23.5 61 7h64l-18-85h-42q-35 0-50-16t-23-51l-41-190q-10-45-28-69.5T150 300q38-16 38-63 0-9-1-19.5t-4-23.5L144 4q-2-8-3-15.5T140-26q0-20 11-28.5t37-8.5h42l-18-85h-61z"/><glyph glyph-name="bar" unicode="|" horiz-adv-x="329" d="M119 710h97v-894h-97v894z"/><glyph glyph-name="braceright" unicode="}" horiz-adv-x="330" d="M201 748q108 0 108-102 0-28-7-60l-37-179q-2-8-3-14.5t-1-12.5q0-18 10.5-28t36.5-10h13l-18-84h-13q-35 0-49.5-17.5T220 193L177-5q-9-41-22.5-68.5t-33.5-44T74.5-141 14-148h-64l18 85h42q35 0 50 16T83 4l41 190q10 45 28 69.5t50 36.5q-38 16-38 63 0 9 1 19.5t4 23.5l39 190q2 8 3 15.5t1 14.5q0 20-11 28.5t-37 8.5h-42l18 85h61z"/><glyph glyph-name="uni00A0" horiz-adv-x="233"/><glyph glyph-name="exclamdown" unicode="¡" horiz-adv-x="270" d="M150 60L99-182H-12L39 60l62 192h68zM87 414q0 19 7.5 36.5t21 30.5 31.5 20.5 39 7.5q32 0 54.5-22.5T263 433q0-26-15-46.5T213 352H112q-11 10-18 27t-7 35z"/><glyph glyph-name="sterling" unicode="£" horiz-adv-x="588" d="M23 103h85l42 198H65l19 90h89q-28 39-28 98 0 48 18.5 90t51.5 72.5 77.5 48.5 96.5 18q49 0 87-16.5t63.5-44.5 38.5-64.5 13-76.5v-13H484v4q0 53-31.5 81T378 616q-27 0-50-9t-40.5-24.5T260 545t-10-48q0-28 9-48t24-33 34.5-19 41.5-6h88l-19-90H261l-42-198h303L500 0H1z"/><glyph glyph-name="yen" unicode="¥" horiz-adv-x="685" d="M147 369h120L122 710h120l125-299 250 299h137L465 369h121l-19-88H402l-16-74h165l-18-88H367L342 0H233l25 119H94l18 88h165l16 74H128z"/><glyph glyph-name="dieresis" unicode="¨" horiz-adv-x="468" d="M321 629q0-28-20-47.5T253 562t-48 19.5-20 47.5 20 48 48 20 48-20 20-48zm229 0q0-28-19.5-47.5T483 562q-29 0-48 19.5T416 629t19 48 48 20q28 0 47.5-20t19.5-48z"/><glyph glyph-name="copyright" unicode="©" horiz-adv-x="825" d="M435-8q-75 0-141 27.5T178.5 96t-78 115T72 355t28.5 144 78 115T294 690.5 435 718t141-27.5T691.5 614t78-115T798 355t-28.5-144-78-115T576 19.5 435-8zm0 80q59 0 110 21.5t88.5 59.5 59 89.5T714 355t-21.5 113-59 89.5-88.5 59T435 638t-110-21.5-88.5-59T177 468t-22-113 22-112.5 59.5-89.5T325 93.5 435 72zm10 99q-40 0-73.5 14t-58 38.5T275 282t-14 73 14 73 38.5 58.5 58 38.5 73.5 14q96 0 148-80l-60-41q-14 23-38 36.5T443 468q-44 0-74-30.5T339 355t30-82.5 74-30.5q28 0 52 13.5t38 36.5l60-41q-26-38-63-59t-85-21z"/><glyph glyph-name="guillemotleft" unicode="«" horiz-adv-x="533" d="M254 256l202 219 66-60-160-170 83-183-84-37zm-214 0l202 219 66-60-160-170 83-183-84-37z"/><glyph glyph-name="uni00AD" unicode="­" horiz-adv-x="382" d="M79 331h258l-23-109H56z"/><glyph glyph-name="macron" unicode="¯" horiz-adv-x="406" d="M194 677h306l-16-76H178z"/><glyph glyph-name="degree" unicode="°" horiz-adv-x="322" d="M230 537q23 0 39 16t16 39-16 39-39 16-39-16-16-39 16-39 39-16zm0-67q-25 0-47.5 9.5t-39 26-26 39T108 592t9.5 47.5 26 39 39 26T230 714t47.5-9.5 39-26 26-39T352 592t-9.5-47.5-26-39-39-26T230 470z"/><glyph glyph-name="acute" unicode="´" horiz-adv-x="328" d="M291 710h133L268 545h-97z"/><glyph glyph-name="periodcentered" unicode="·" horiz-adv-x="278" d="M230 276q0-36-25-61.5T144 189t-61.5 25.5T57 276q0 18 7 33.5t18.5 27T110 355t34 7 33.5-7 27.5-18.5 18.5-27T230 276z"/><glyph glyph-name="cedilla" unicode="¸" horiz-adv-x="267" d="M110 0h82l-68-132H24z"/><glyph glyph-name="guillemotright" unicode="»" horiz-adv-x="532" d="M493 244L291 25l-66 60 160 170-83 183 84 37zm-214 0L77 25 11 85l160 170-83 183 84 37z"/><glyph glyph-name="questiondown" unicode="¿" horiz-adv-x="537" d="M221 413q0 19 7.5 36.5t21 30.5 31.5 20.5 39 7.5q32 0 54.5-22.5T397 432q0-26-15-46.5T347 351H246q-11 10-18 27t-7 35zm113-137l-27-132h-40q-36 0-66-9.5T150 108t-33-40-12-50q0-49 30.5-79T217-91q30 0 54 10.5T312.5-53t28 40T353 36h108q-3-46-22.5-88T386-125.5t-78.5-50T207-194q-49 0-88 16.5t-66 45-41.5 66T-3 12q0 47 15.5 87t45 70.5 72.5 50 98 25.5l7 31h99z"/><glyph glyph-name="Agrave" unicode="À" horiz-adv-x="671" d="M435 718L629 0H508l-41 158H178L70 0H-65zM250 264h190l-51 202zm67 649h115l55-145h-82z"/><glyph glyph-name="Aacute" unicode="Á" horiz-adv-x="671" d="M435 718L629 0H508l-41 158H178L70 0H-65zM250 264h190l-51 202zm254 649h134L490 768h-91z"/><glyph glyph-name="Acircumflex" unicode="Â" horiz-adv-x="671" d="M435 718L629 0H508l-41 158H178L70 0H-65zM250 264h190l-51 202zm23 569l193 91 142-99-45-65-104 73-152-73z"/><glyph glyph-name="Atilde" unicode="Ã" horiz-adv-x="671" d="M435 718L629 0H508l-41 158H178L70 0H-65zM250 264h190l-51 202zm16 514q7 33 21 56.5t33 38.5 40.5 22 43.5 7q21 0 37.5-6.5t30-14.5 25.5-14.5 24-6.5q39 0 56 43h77q-6-34-20-57.5T601.5 807t-41-21.5T516 779t-38.5 6.5T447 800t-25.5 14.5T398 821q-39 0-55-43h-77z"/><glyph glyph-name="Adieresis" unicode="Ä" horiz-adv-x="671" d="M435 718L629 0H508l-41 158H178L70 0H-65zM250 264h190l-51 202zm164 578q0-29-19.5-48.5T346 774q-27 0-47.5 19.5T278 842q0 28 20.5 48t47.5 20q29 0 48.5-20t19.5-48zm230 0q0-29-19.5-48.5T576 774q-28 0-48 19.5T508 842q0 28 20 48t48 20q29 0 48.5-20t19.5-48z"/><glyph glyph-name="Aring" unicode="Å" horiz-adv-x="671" d="M435 718L629 0H508l-41 158H178L70 0H-65zM250 264h190l-51 202zm166 590q0-21 14-34t34-13 33.5 13 13.5 34q0 20-13.5 34T464 902t-34-14-14-34zm155 0q0-22-8.5-41t-23-33-34-22-41.5-8q-23 0-42.5 8T388 780t-22.5 33-8.5 41q0 45 31 74.5t76 29.5q22 0 41.5-8t34-22 23-33 8.5-41z"/><glyph glyph-name="AE" unicode="Æ" horiz-adv-x="960" d="M363 602l-27 108h389l31-114H477l49-180h227l30-112H556l51-190h278L916 0H517l-41 158H187L79 0H-56zM259 264h190l-51 202z"/><glyph glyph-name="Ccedilla" unicode="Ç" horiz-adv-x="690" d="M358-6q-71 7-125.5 37.5T141 107 85 208.5 66 325q0 75 27 146t78.5 125.5 127.5 88T474 718q88 0 150-31.5T728 602l-87-77q-30 38-74 60.5T464 608q-62 0-112.5-22T264 526.5t-57-87T187 336q0-45 13.5-87.5t41-75 69-52T407 102t98.5 17 78.5 45l64-93q-42-34-93-53T446-6l-65-126H276z"/><glyph glyph-name="Egrave" unicode="È" horiz-adv-x="556" d="M186 710h420l-24-114H278l-39-180h244l-23-112H216l-41-190h305L456 0H35zm110 203h115l55-145h-82z"/><glyph glyph-name="Eacute" unicode="É" horiz-adv-x="556" d="M186 710h420l-24-114H278l-39-180h244l-23-112H216l-41-190h305L456 0H35zm247 203h134L419 768h-91z"/><glyph glyph-name="Ecircumflex" unicode="Ê" horiz-adv-x="556" d="M186 710h420l-24-114H278l-39-180h244l-23-112H216l-41-190h305L456 0H35zm50 123l193 91 142-99-45-65-104 73-152-73z"/><glyph glyph-name="Edieresis" unicode="Ë" horiz-adv-x="556" d="M186 710h420l-24-114H278l-39-180h244l-23-112H216l-41-190h305L456 0H35zm192 132q0-29-19.5-48.5T310 774q-27 0-47.5 19.5T242 842q0 28 20.5 48t47.5 20q29 0 48.5-20t19.5-48zm230 0q0-29-19.5-48.5T540 774q-28 0-48 19.5T472 842q0 28 20 48t48 20q29 0 48.5-20t19.5-48z"/><glyph glyph-name="Igrave" unicode="Ì" horiz-adv-x="292" d="M186 710h116L151 0H35zm-41 203h115l55-145h-82z"/><glyph glyph-name="Iacute" unicode="Í" horiz-adv-x="292" d="M186 710h116L151 0H35zm96 203h134L268 768h-91z"/><glyph glyph-name="Icircumflex" unicode="Î" horiz-adv-x="292" d="M186 710h116L151 0H35zM85 833l193 91 142-99-45-65-104 73-152-73z"/><glyph glyph-name="Idieresis" unicode="Ï" horiz-adv-x="292" d="M186 710h116L151 0H35zm39 132q0-29-19.5-48.5T157 774q-27 0-47.5 19.5T89 842q0 28 20.5 48t47.5 20q29 0 48.5-20t19.5-48zm230 0q0-29-19.5-48.5T387 774q-28 0-48 19.5T319 842q0 28 20 48t48 20q29 0 48.5-20t19.5-48z"/><glyph glyph-name="Eth" unicode="Ð" horiz-adv-x="768" d="M53 421h108l62 289h198q79 0 140.5-23t104-63.5T730 529t22-117q0-89-34.5-164.5t-95-130.5-144-86T297 0H72l66 313H31zm245-313q76 0 137.5 24t105 64.5 67 94T631 403q0 42-14 78.5T577 545t-64.5 42-87.5 15H316l-39-181h131l-22-108H254l-43-205h87z"/><glyph glyph-name="Ntilde" unicode="Ñ" horiz-adv-x="777" d="M250 466L151 0H35l153 718 384-474 99 466h116L634-8zm68 312q7 33 21 56.5t33 38.5 40.5 22 43.5 7q21 0 37.5-6.5t30-14.5 25.5-14.5 24-6.5q39 0 56 43h77q-6-34-20-57.5T653.5 807t-41-21.5T568 779t-38.5 6.5T499 800t-25.5 14.5T450 821q-39 0-55-43h-77z"/><glyph glyph-name="Ograve" unicode="Ò" horiz-adv-x="826" d="M187 336q0-47 13.5-89.5t41-74.5 69-51 96.5-19q61 0 112 22t88 59.5 57 87T684 374q0 47-13.5 89.5t-41 74.5-69 51-96.5 19q-62 0-112.5-22T264 526.5t-57-87T187 336zm618 49q0-75-27-146t-78.5-125.5-127.5-88T397-8q-80 0-141.5 28T152 94.5 88 201 66 325q0 75 27 146t78.5 125.5 127.5 88T474 718q79 0 141-28t104-74.5T783 509t22-124zM372 913h115l55-145h-82z"/><glyph glyph-name="Oacute" unicode="Ó" horiz-adv-x="826" d="M187 336q0-47 13.5-89.5t41-74.5 69-51 96.5-19q61 0 112 22t88 59.5 57 87T684 374q0 47-13.5 89.5t-41 74.5-69 51-96.5 19q-62 0-112.5-22T264 526.5t-57-87T187 336zm618 49q0-75-27-146t-78.5-125.5-127.5-88T397-8q-80 0-141.5 28T152 94.5 88 201 66 325q0 75 27 146t78.5 125.5 127.5 88T474 718q79 0 141-28t104-74.5T783 509t22-124zM509 913h134L495 768h-91z"/><glyph glyph-name="Ocircumflex" unicode="Ô" horiz-adv-x="826" d="M187 336q0-47 13.5-89.5t41-74.5 69-51 96.5-19q61 0 112 22t88 59.5 57 87T684 374q0 47-13.5 89.5t-41 74.5-69 51-96.5 19q-62 0-112.5-22T264 526.5t-57-87T187 336zm618 49q0-75-27-146t-78.5-125.5-127.5-88T397-8q-80 0-141.5 28T152 94.5 88 201 66 325q0 75 27 146t78.5 125.5 127.5 88T474 718q79 0 141-28t104-74.5T783 509t22-124zM313 833l193 91 142-99-45-65-104 73-152-73z"/><glyph glyph-name="Otilde" unicode="Õ" horiz-adv-x="826" d="M187 336q0-47 13.5-89.5t41-74.5 69-51 96.5-19q61 0 112 22t88 59.5 57 87T684 374q0 47-13.5 89.5t-41 74.5-69 51-96.5 19q-62 0-112.5-22T264 526.5t-57-87T187 336zm618 49q0-75-27-146t-78.5-125.5-127.5-88T397-8q-80 0-141.5 28T152 94.5 88 201 66 325q0 75 27 146t78.5 125.5 127.5 88T474 718q79 0 141-28t104-74.5T783 509t22-124zM306 778q7 33 21 56.5t33 38.5 40.5 22 43.5 7q21 0 37.5-6.5t30-14.5 25.5-14.5 24-6.5q39 0 56 43h77q-6-34-20-57.5T641.5 807t-41-21.5T556 779t-38.5 6.5T487 800t-25.5 14.5T438 821q-39 0-55-43h-77z"/><glyph glyph-name="Odieresis" unicode="Ö" horiz-adv-x="826" d="M187 336q0-47 13.5-89.5t41-74.5 69-51 96.5-19q61 0 112 22t88 59.5 57 87T684 374q0 47-13.5 89.5t-41 74.5-69 51-96.5 19q-62 0-112.5-22T264 526.5t-57-87T187 336zm618 49q0-75-27-146t-78.5-125.5-127.5-88T397-8q-80 0-141.5 28T152 94.5 88 201 66 325q0 75 27 146t78.5 125.5 127.5 88T474 718q79 0 141-28t104-74.5T783 509t22-124zM454 842q0-29-19.5-48.5T386 774q-27 0-47.5 19.5T318 842q0 28 20.5 48t47.5 20q29 0 48.5-20t19.5-48zm230 0q0-29-19.5-48.5T616 774q-28 0-48 19.5T548 842q0 28 20 48t48 20q29 0 48.5-20t19.5-48z"/><glyph glyph-name="multiply" unicode="×" horiz-adv-x="590" d="M102 131l135 134-135 135 63 62 134-135 135 135 62-62-135-135 135-134-62-62-135 134L165 69z"/><glyph glyph-name="Oslash" unicode="Ø" horiz-adv-x="826" d="M88 49l53 58q-37 45-56 101.5T66 325q0 75 27 146t78.5 125.5 127.5 88T474 718q56 0 102.5-14t84.5-39l59 64 68-65-58-62q37-45 56-101t19-116q0-75-27-146t-78.5-125.5-127.5-88T397-8Q342-8 295.5 5.5T211 43l-56-60zm99 287q0-39 9-75t28-65l356 383q-23 14-52 21.5t-64 7.5q-62 0-112.5-22T264 526.5t-57-87T187 336zm497 38q0 38-9 73.5T647 513L292 130q48-28 115-28 61 0 112 22t88 59.5 57 87T684 374z"/><glyph glyph-name="Ugrave" unicode="Ù" horiz-adv-x="730" d="M656 276q-14-68-39.5-120.5t-65.5-89T456 11 328-8Q273-8 227 7t-79 43.5T96.5 120 78 212q0 15 1.5 31t5.5 33l92 434h116l-93-437q-3-13-4-24t-1-22q0-61 37-93t102-32q38 0 71.5 11t60.5 33 45.5 54 27.5 73l93 437h116l-92-434zM361 913h115l55-145h-82z"/><glyph glyph-name="Uacute" unicode="Ú" horiz-adv-x="730" d="M656 276q-14-68-39.5-120.5t-65.5-89T456 11 328-8Q273-8 227 7t-79 43.5T96.5 120 78 212q0 15 1.5 31t5.5 33l92 434h116l-93-437q-3-13-4-24t-1-22q0-61 37-93t102-32q38 0 71.5 11t60.5 33 45.5 54 27.5 73l93 437h116l-92-434zM499 913h134L485 768h-91z"/><glyph glyph-name="Ucircumflex" unicode="Û" horiz-adv-x="730" d="M656 276q-14-68-39.5-120.5t-65.5-89T456 11 328-8Q273-8 227 7t-79 43.5T96.5 120 78 212q0 15 1.5 31t5.5 33l92 434h116l-93-437q-3-13-4-24t-1-22q0-61 37-93t102-32q38 0 71.5 11t60.5 33 45.5 54 27.5 73l93 437h116l-92-434zM303 833l193 91 142-99-45-65-104 73-152-73z"/><glyph glyph-name="Udieresis" unicode="Ü" horiz-adv-x="730" d="M656 276q-14-68-39.5-120.5t-65.5-89T456 11 328-8Q273-8 227 7t-79 43.5T96.5 120 78 212q0 15 1.5 31t5.5 33l92 434h116l-93-437q-3-13-4-24t-1-22q0-61 37-93t102-32q38 0 71.5 11t60.5 33 45.5 54 27.5 73l93 437h116l-92-434zM444 842q0-29-19.5-48.5T376 774q-27 0-47.5 19.5T308 842q0 28 20.5 48t47.5 20q29 0 48.5-20t19.5-48zm230 0q0-29-19.5-48.5T606 774q-28 0-48 19.5T538 842q0 28 20 48t48 20q29 0 48.5-20t19.5-48z"/><glyph glyph-name="Yacute" unicode="Ý" horiz-adv-x="644" d="M275 299L100 710h123l122-300 247 300h147L391 299 327 0H211zm171 614h134L432 768h-91z"/><glyph glyph-name="Thorn" unicode="Þ" horiz-adv-x="589" d="M186 710h116l-27-128h80q54 0 95.5-15t69-42 42-64 14.5-81q0-59-22.5-105.5t-63-78.5-95.5-49-120-17h-96L151 0H35zm107-472q75 0 119 36t44 101q0 43-30.5 71T332 474h-80l-50-236h91z"/><glyph glyph-name="germandbls" unicode="ß" horiz-adv-x="565" d="M122 494q24 113 89 168.5T374 718q39 0 72.5-12.5t58-34.5 38-51.5T556 556q0-63-36.5-110.5T423 375q46-17 72-53t26-81q0-48-19.5-91.5T445 73t-90-53T235 0h-42l21 101h42q36 0 64.5 11.5T369 143t31 42 11 47q0 44-29.5 69T300 326h-38l21 97h17q30 0 56.5 10t46.5 26.5 31.5 37.5 11.5 44q0 37-22.5 57T363 618q-49 0-83.5-32T233 494L128 0H18z"/><glyph glyph-name="agrave" unicode="à" d="M388 37q-25-18-58.5-31.5T248-8t-87 18-66.5 49T52 131t-15 88q0 57 21 109t59 92 91 64 118 24q46 0 82.5-13t63.5-35l9 40h110L485 0H380zM274 97q38 0 73 16t61 46l40 184q-20 29-54 44.5T323 403q-35 0-66.5-13T202 354t-36.5-55-13.5-71q0-64 35-97.5T274 97zm-61 613h133l49-165h-75z"/><glyph glyph-name="aacute" unicode="á" d="M388 37q-25-18-58.5-31.5T248-8t-87 18-66.5 49T52 131t-15 88q0 57 21 109t59 92 91 64 118 24q46 0 82.5-13t63.5-35l9 40h110L485 0H380zM274 97q38 0 73 16t61 46l40 184q-20 29-54 44.5T323 403q-35 0-66.5-13T202 354t-36.5-55-13.5-71q0-64 35-97.5T274 97zm133 613h133L384 545h-97z"/><glyph glyph-name="acircumflex" unicode="â" d="M388 37q-25-18-58.5-31.5T248-8t-87 18-66.5 49T52 131t-15 88q0 57 21 109t59 92 91 64 118 24q46 0 82.5-13t63.5-35l9 40h110L485 0H380zM274 97q38 0 73 16t61 46l40 184q-20 29-54 44.5T323 403q-35 0-66.5-13T202 354t-36.5-55-13.5-71q0-64 35-97.5T274 97zm-69 516l195 105 143-111-50-64-101 81-150-81z"/><glyph glyph-name="atilde" unicode="ã" d="M388 37q-25-18-58.5-31.5T248-8t-87 18-66.5 49T52 131t-15 88q0 57 21 109t59 92 91 64 118 24q46 0 82.5-13t63.5-35l9 40h110L485 0H380zM274 97q38 0 73 16t61 46l40 184q-20 29-54 44.5T323 403q-35 0-66.5-13T202 354t-36.5-55-13.5-71q0-64 35-97.5T274 97zm-96 465q7 33 21 56.5t33 38.5 40.5 22 43.5 7q21 0 37.5-6.5t30-14.5 25.5-14.5 24-6.5q39 0 56 43h77q-6-34-20-57.5T513.5 591t-41-21.5T428 563t-38.5 6.5T359 584t-25.5 14.5T310 605q-39 0-55-43h-77z"/><glyph glyph-name="adieresis" unicode="ä" d="M388 37q-25-18-58.5-31.5T248-8t-87 18-66.5 49T52 131t-15 88q0 57 21 109t59 92 91 64 118 24q46 0 82.5-13t63.5-35l9 40h110L485 0H380zM274 97q38 0 73 16t61 46l40 184q-20 29-54 44.5T323 403q-35 0-66.5-13T202 354t-36.5-55-13.5-71q0-64 35-97.5T274 97zm71 532q0-28-20-47.5T277 562t-48 19.5-20 47.5 20 48 48 20 48-20 20-48zm229 0q0-28-19.5-47.5T507 562q-29 0-48 19.5T440 629t19 48 48 20q28 0 47.5-20t19.5-48z"/><glyph glyph-name="aring" unicode="å" d="M388 37q-25-18-58.5-31.5T248-8t-87 18-66.5 49T52 131t-15 88q0 57 21 109t59 92 91 64 118 24q46 0 82.5-13t63.5-35l9 40h110L485 0H380zM274 97q38 0 73 16t61 46l40 184q-20 29-54 44.5T323 403q-35 0-66.5-13T202 354t-36.5-55-13.5-71q0-64 35-97.5T274 97zm58 558q0-20 14-33.5t34-13.5 33.5 13.5T427 655t-13.5 33.5T380 702t-34-13.5-14-33.5zm155 0q0-22-8.5-41t-23-33-34-22-41.5-8q-23 0-42.5 8T304 581t-22.5 33-8.5 41 8.5 41 23 33 34 22 41.5 8 41.5-8 34-22 23-33 8.5-41z"/><glyph glyph-name="ae" unicode="æ" horiz-adv-x="912" d="M822 73q-39-38-93-60T612-9q-65 0-113 24.5T421 80q-50-44-102-66T204-8q-41 0-75.5 9.5T68 29.5t-40.5 47T13 143q0 81 61.5 127.5T248 317q43 0 75.5-9.5T380 284l5 21q4 30-3 49t-23 30.5-37.5 16T276 405q-42 0-77-12t-63-29l-24 98q32 20 80.5 33T296 508q51 0 97-18.5t67-61.5q38 37 89 58t111 21q59 0 101-20.5t68.5-53.5 38.5-74 12-82q0-31-6-58H490q3-30 14-52.5t29-38.5 40.5-24 48.5-8q38 0 70.5 14t55.5 38zM243 234q-25 0-47-5t-38.5-15-26-24.5T122 156q0-36 25.5-50T206 92q47 0 85.5 17.5T353 155l9 43q-20 17-48.5 26.5T243 234zm407 168q-53 0-93-25t-57-73h261q-7 51-37.5 74.5T650 402z"/><glyph glyph-name="ccedilla" unicode="ç" horiz-adv-x="525" d="M234-4q-47 7-83.5 28T89 76.5t-37.5 70T39 227q0 58 21.5 109.5t60 89.5 90.5 60 113 22q74 0 121.5-30t75.5-83l-93-61q-35 69-114 69-35 0-64-12.5T199 356t-34-52.5-12-66.5q0-33 10.5-59t28.5-44 42.5-27.5T286 97q37 0 64.5 13.5T401 147l74-75q-33-30-72-50.5T316-5l-65-127H151z"/><glyph glyph-name="egrave" unicode="è" horiz-adv-x="576" d="M486 74q-39-38-93-60T276-8q-57 0-101 19.5t-74.5 52-46 75T39 227q0 58 21.5 109.5t60 89.5 90.5 60 113 22q59 0 101-20.5t68.5-53.5 38.5-74 12-82q0-31-6-58H154q3-30 14-52.5t29-38.5 40.5-24 48.5-8q38 0 70.5 14t55.5 38zM314 403q-53 0-93-25t-57-73h261q-7 51-37.5 74.5T314 403zM211 710h133l49-165h-75z"/><glyph glyph-name="eacute" unicode="é" horiz-adv-x="576" d="M486 74q-39-38-93-60T276-8q-57 0-101 19.5t-74.5 52-46 75T39 227q0 58 21.5 109.5t60 89.5 90.5 60 113 22q59 0 101-20.5t68.5-53.5 38.5-74 12-82q0-31-6-58H154q3-30 14-52.5t29-38.5 40.5-24 48.5-8q38 0 70.5 14t55.5 38zM314 403q-53 0-93-25t-57-73h261q-7 51-37.5 74.5T314 403zm54 307h133L345 545h-97z"/><glyph glyph-name="ecircumflex" unicode="ê" horiz-adv-x="576" d="M486 74q-39-38-93-60T276-8q-57 0-101 19.5t-74.5 52-46 75T39 227q0 58 21.5 109.5t60 89.5 90.5 60 113 22q59 0 101-20.5t68.5-53.5 38.5-74 12-82q0-31-6-58H154q3-30 14-52.5t29-38.5 40.5-24 48.5-8q38 0 70.5 14t55.5 38zM314 403q-53 0-93-25t-57-73h261q-7 51-37.5 74.5T314 403zM163 613l195 105 143-111-50-64-101 81-150-81z"/><glyph glyph-name="edieresis" unicode="ë" horiz-adv-x="576" d="M486 74q-39-38-93-60T276-8q-57 0-101 19.5t-74.5 52-46 75T39 227q0 58 21.5 109.5t60 89.5 90.5 60 113 22q59 0 101-20.5t68.5-53.5 38.5-74 12-82q0-31-6-58H154q3-30 14-52.5t29-38.5 40.5-24 48.5-8q38 0 70.5 14t55.5 38zM314 403q-53 0-93-25t-57-73h261q-7 51-37.5 74.5T314 403zm-11 226q0-28-20-47.5T235 562t-48 19.5-20 47.5 20 48 48 20 48-20 20-48zm229 0q0-28-19.5-47.5T465 562q-29 0-48 19.5T398 629t19 48 48 20q28 0 47.5-20t19.5-48z"/><glyph glyph-name="igrave" unicode="ì" horiz-adv-x="250" d="M123 500h110L127 0H17zM67 710h133l49-165h-75z"/><glyph glyph-name="iacute" unicode="í" horiz-adv-x="250" d="M123 500h110L127 0H17zm101 210h133L201 545h-97z"/><glyph glyph-name="icircumflex" unicode="î" horiz-adv-x="250" d="M123 500h110L127 0H17zM28 613l195 105 143-111-50-64-101 81-150-81z"/><glyph glyph-name="idieresis" unicode="ï" horiz-adv-x="250" d="M123 500h110L127 0H17zm35 129q0-28-20-47.5T90 562t-48 19.5T22 629t20 48 48 20 48-20 20-48zm229 0q0-28-19.5-47.5T320 562q-29 0-48 19.5T253 629t19 48 48 20q28 0 47.5-20t19.5-48z"/><glyph glyph-name="eth" unicode="ð" horiz-adv-x="600" d="M217 631h89l-36 79h118l36-79h115l-16-78h-64l67-147q16-35 25.5-65t9.5-67q0-59-22-110.5T479 74t-90-60T276-8q-57 0-101 19.5t-74.5 52-46 75T39 227q0 58 21.5 109.5t60 89.5 90.5 60 113 22q21 0 39-3l-22 48H201zm-64-394q0-33 10.5-59t28.5-44 42.5-27.5T286 97q34 0 63.5 12.5T401 144t34 53 12 67q0 33-10.5 59T408 366.5t-42.5 27T314 403q-35 0-64-12.5T199 356t-34-52.5-12-66.5z"/><glyph glyph-name="ntilde" unicode="ñ" horiz-adv-x="585" d="M123 500h105l-7-36q32 25 69 34.5t72 9.5q36 0 67.5-12t55-34.5 37-55.5 13.5-74q0-27-6-55L470 0H360l56 265q2 11 3.5 21t1.5 19q0 48-28 73t-76 25q-70 0-116-55L127 0H17zm59 62q7 33 21 56.5t33 38.5 40.5 22 43.5 7q21 0 37.5-6.5t30-14.5 25.5-14.5 24-6.5q39 0 56 43h77q-6-34-20-57.5T517.5 591t-41-21.5T432 563t-38.5 6.5T363 584t-25.5 14.5T314 605q-39 0-55-43h-77z"/><glyph glyph-name="ograve" unicode="ò" horiz-adv-x="599" d="M153 237q0-33 10.5-59t28.5-44 42.5-27.5T286 97q34 0 63.5 12.5T401 144t34 53 12 67q0 33-10.5 59T408 366.5t-42.5 27T314 403q-35 0-64-12.5T199 356t-34-52.5-12-66.5zm408 37q0-59-22-110.5T479 74t-90-60T276-8q-57 0-101 19.5t-74.5 52-46 75T39 227q0 58 21.5 109.5t60 89.5 90.5 60 113 22q57 0 101-19.5t74.5-52 46-74.5 15.5-88zM219 710h133l49-165h-75z"/><glyph glyph-name="oacute" unicode="ó" horiz-adv-x="599" d="M153 237q0-33 10.5-59t28.5-44 42.5-27.5T286 97q34 0 63.5 12.5T401 144t34 53 12 67q0 33-10.5 59T408 366.5t-42.5 27T314 403q-35 0-64-12.5T199 356t-34-52.5-12-66.5zm408 37q0-59-22-110.5T479 74t-90-60T276-8q-57 0-101 19.5t-74.5 52-46 75T39 227q0 58 21.5 109.5t60 89.5 90.5 60 113 22q57 0 101-19.5t74.5-52 46-74.5 15.5-88zM398 710h133L375 545h-97z"/><glyph glyph-name="ocircumflex" unicode="ô" horiz-adv-x="599" d="M153 237q0-33 10.5-59t28.5-44 42.5-27.5T286 97q34 0 63.5 12.5T401 144t34 53 12 67q0 33-10.5 59T408 366.5t-42.5 27T314 403q-35 0-64-12.5T199 356t-34-52.5-12-66.5zm408 37q0-59-22-110.5T479 74t-90-60T276-8q-57 0-101 19.5t-74.5 52-46 75T39 227q0 58 21.5 109.5t60 89.5 90.5 60 113 22q57 0 101-19.5t74.5-52 46-74.5 15.5-88zM192 613l195 105 143-111-50-64-101 81-150-81z"/><glyph glyph-name="otilde" unicode="õ" horiz-adv-x="599" d="M153 237q0-33 10.5-59t28.5-44 42.5-27.5T286 97q34 0 63.5 12.5T401 144t34 53 12 67q0 33-10.5 59T408 366.5t-42.5 27T314 403q-35 0-64-12.5T199 356t-34-52.5-12-66.5zm408 37q0-59-22-110.5T479 74t-90-60T276-8q-57 0-101 19.5t-74.5 52-46 75T39 227q0 58 21.5 109.5t60 89.5 90.5 60 113 22q57 0 101-19.5t74.5-52 46-74.5 15.5-88zM185 562q7 33 21 56.5t33 38.5 40.5 22 43.5 7q21 0 37.5-6.5t30-14.5 25.5-14.5 24-6.5q39 0 56 43h77q-6-34-20-57.5T520.5 591t-41-21.5T435 563t-38.5 6.5T366 584t-25.5 14.5T317 605q-39 0-55-43h-77z"/><glyph glyph-name="odieresis" unicode="ö" horiz-adv-x="599" d="M153 237q0-33 10.5-59t28.5-44 42.5-27.5T286 97q34 0 63.5 12.5T401 144t34 53 12 67q0 33-10.5 59T408 366.5t-42.5 27T314 403q-35 0-64-12.5T199 356t-34-52.5-12-66.5zm408 37q0-59-22-110.5T479 74t-90-60T276-8q-57 0-101 19.5t-74.5 52-46 75T39 227q0 58 21.5 109.5t60 89.5 90.5 60 113 22q57 0 101-19.5t74.5-52 46-74.5 15.5-88zM333 629q0-28-20-47.5T265 562t-48 19.5-20 47.5 20 48 48 20 48-20 20-48zm229 0q0-28-19.5-47.5T495 562q-29 0-48 19.5T428 629t19 48 48 20q28 0 47.5-20t19.5-48z"/><glyph glyph-name="divide" unicode="÷" horiz-adv-x="590" d="M82 321h437v-88H82v88zm218 44q-29 0-50 21t-21 51q0 29 21 50t50 21q30 0 51-21t21-50q0-30-21-51t-51-21zm0-319q-29 0-50 21t-21 50q0 30 21 50.5t50 20.5q30 0 51-20.5t21-50.5q0-29-21-50t-51-21z"/><glyph glyph-name="oslash" unicode="ø" horiz-adv-x="599" d="M33 39l48 48q-21 30-31.5 66T39 227q0 58 21.5 109.5t60 89.5 90.5 60 113 22q41 0 74.5-10.5T460 470l42 42 57-53-43-43q22-31 33.5-67.5T561 274q0-59-22-110.5T479 74t-90-60T276-8q-42 0-77 10.5T136 32L90-15zm414 225q0 37-14 67L217 114q15-9 32.5-13t36.5-4q34 0 63.5 12.5T401 144t34 53 12 67zm-294-27q0-37 12-65l214 216q-29 15-65 15-35 0-64-12.5T199 356t-34-52.5-12-66.5z"/><glyph glyph-name="ugrave" unicode="ù" horiz-adv-x="578" d="M357 35q-32-24-67-33.5T220-8q-36 0-67 12T99 38.5t-36 55T50 167q0 26 6 56l59 277h110l-56-265q-6-29-6-50 0-46 24.5-67T259 97q70 0 118 56l74 347h110L455 0H350zM226 710h133l49-165h-75z"/><glyph glyph-name="uacute" unicode="ú" horiz-adv-x="578" d="M357 35q-32-24-67-33.5T220-8q-36 0-67 12T99 38.5t-36 55T50 167q0 26 6 56l59 277h110l-56-265q-6-29-6-50 0-46 24.5-67T259 97q70 0 118 56l74 347h110L455 0H350zm26 675h133L360 545h-97z"/><glyph glyph-name="ucircumflex" unicode="û" horiz-adv-x="578" d="M357 35q-32-24-67-33.5T220-8q-36 0-67 12T99 38.5t-36 55T50 167q0 26 6 56l59 277h110l-56-265q-6-29-6-50 0-46 24.5-67T259 97q70 0 118 56l74 347h110L455 0H350zM177 613l195 105 143-111-50-64-101 81-150-81z"/><glyph glyph-name="udieresis" unicode="ü" horiz-adv-x="578" d="M357 35q-32-24-67-33.5T220-8q-36 0-67 12T99 38.5t-36 55T50 167q0 26 6 56l59 277h110l-56-265q-6-29-6-50 0-46 24.5-67T259 97q70 0 118 56l74 347h110L455 0H350zm-38 594q0-28-20-47.5T251 562t-48 19.5-20 47.5 20 48 48 20 48-20 20-48zm229 0q0-28-19.5-47.5T481 562q-29 0-48 19.5T414 629t19 48 48 20q28 0 47.5-20t19.5-48z"/><glyph glyph-name="yacute" unicode="ý" horiz-adv-x="512" d="M150 37L56 500h111l65-344 208 344h125L133-184H10zm200 673h133L327 545h-97z"/><glyph glyph-name="thorn" unicode="þ" d="M168 710h110l-52-242q25 17 57 28.5t77 11.5q48 0 87-18t66.5-49 42.5-72.5 15-87.5q0-57-21-109t-59-92-91-64T282-8q-46 0-83 12.5T135 39L88-184H-22zm166-307q-38 0-73.5-16.5T199 340l-39-184q20-29 54-44t71-15q35 0 66 13t54.5 36 37 55 13.5 71q0 64-35 97.5T334 403z"/><glyph glyph-name="ydieresis" unicode="ÿ" horiz-adv-x="512" d="M150 37L56 500h111l65-344 208 344h125L133-184H10zm136 592q0-28-20-47.5T218 562t-48 19.5-20 47.5 20 48 48 20 48-20 20-48zm229 0q0-28-19.5-47.5T448 562q-29 0-48 19.5T381 629t19 48 48 20q28 0 47.5-20t19.5-48z"/><glyph glyph-name="Amacron" unicode="Ā" horiz-adv-x="671" d="M435 718L629 0H508l-41 158H178L70 0H-65zM250 264h190l-51 202zm65 611h306l-16-76H299z"/><glyph glyph-name="amacron" unicode="ā" d="M388 37q-25-18-58.5-31.5T248-8t-87 18-66.5 49T52 131t-15 88q0 57 21 109t59 92 91 64 118 24q46 0 82.5-13t63.5-35l9 40h110L485 0H380zM274 97q38 0 73 16t61 46l40 184q-20 29-54 44.5T323 403q-35 0-66.5-13T202 354t-36.5-55-13.5-71q0-64 35-97.5T274 97zm-24 580h306l-16-76H234z"/><glyph glyph-name="Abreve" unicode="Ă" horiz-adv-x="671" d="M435 718L629 0H508l-41 158H178L70 0H-65zM250 264h190l-51 202zm379 653q-6-33-22-61t-40.5-49-56-32.5T444 763q-38 0-67 13t-49 34-30.5 49-10.5 58h75q3-40 28-62.5t60-22.5q39 0 67 23.5t36 61.5h76z"/><glyph glyph-name="abreve" unicode="ă" d="M388 37q-25-18-58.5-31.5T248-8t-87 18-66.5 49T52 131t-15 88q0 57 21 109t59 92 91 64 118 24q46 0 82.5-13t63.5-35l9 40h110L485 0H380zM274 97q38 0 73 16t61 46l40 184q-20 29-54 44.5T323 403q-35 0-66.5-13T202 354t-36.5-55-13.5-71q0-64 35-97.5T274 97zm288 613q-6-33-22-61t-40.5-49-56-32.5T377 556q-38 0-67 13t-49 34-30.5 49-10.5 58h75q3-40 28-62.5t60-22.5q39 0 67 23.5t36 61.5h76z"/><glyph glyph-name="Aogonek" unicode="Ą" horiz-adv-x="671" d="M435 718L629 0q-47-19-65-41.5T546-82q2-28 36-28 13 0 24 4l-14-70q-16-7-32.5-10t-32.5-3q-41 0-67 26t-25 61q0 33 19 59.5T508 0l-41 158H178L70 0H-65zM250 264h190l-51 202z"/><glyph glyph-name="aogonek" unicode="ą" d="M389-182q-38 0-63 22t-25 57q0 18 7 33t18 27.5 25 23T380 0l8 37q-25-18-58.5-31.5T248-8t-87 18-66.5 49T52 131t-15 88q0 57 21 109t59 92 91 64 118 24q46 0 82.5-13t63.5-35l9 40h110L485 0q-45-22-61-41.5T408-76q0-12 9-19.5t26-7.5q12 0 21 3l-15-70q-14-7-29-9.5t-31-2.5zM274 97q38 0 73 16t61 46l40 184q-20 29-54 44.5T323 403q-35 0-66.5-13T202 354t-36.5-55-13.5-71q0-64 35-97.5T274 97z"/><glyph glyph-name="Cacute" unicode="Ć" horiz-adv-x="690" d="M648 71q-50-40-112.5-59.5T401-8q-81 0-143.5 27.5t-105 74T88 200 66 325q0 75 27 146t78.5 125.5 127.5 88T474 718q88 0 150-31.5T728 602l-87-77q-30 38-74 60.5T464 608q-62 0-112.5-22T264 526.5t-57-87T187 336q0-45 13.5-87.5t41-75 69-52T407 102t98.5 17 78.5 45l64-93zM509 913h134L495 768h-91z"/><glyph glyph-name="cacute" unicode="ć" horiz-adv-x="525" d="M475 72q-39-36-88-58T276-8q-57 0-101 19.5t-74.5 52-46 75T39 227q0 58 21.5 109.5t60 89.5 90.5 60 113 22q74 0 121.5-30t75.5-83l-93-61q-35 69-114 69-35 0-64-12.5T199 356t-34-52.5-12-66.5q0-33 10.5-59t28.5-44 42.5-27.5T286 97q37 0 64.5 13.5T401 147l74-75zM368 710h133L345 545h-97z"/><glyph glyph-name="Ccircumflex" unicode="Ĉ" horiz-adv-x="690" d="M648 71q-50-40-112.5-59.5T401-8q-81 0-143.5 27.5t-105 74T88 200 66 325q0 75 27 146t78.5 125.5 127.5 88T474 718q88 0 150-31.5T728 602l-87-77q-30 38-74 60.5T464 608q-62 0-112.5-22T264 526.5t-57-87T187 336q0-45 13.5-87.5t41-75 69-52T407 102t98.5 17 78.5 45l64-93zM312 833l193 91 142-99-45-65-104 73-152-73z"/><glyph glyph-name="ccircumflex" unicode="ĉ" horiz-adv-x="525" d="M475 72q-39-36-88-58T276-8q-57 0-101 19.5t-74.5 52-46 75T39 227q0 58 21.5 109.5t60 89.5 90.5 60 113 22q74 0 121.5-30t75.5-83l-93-61q-35 69-114 69-35 0-64-12.5T199 356t-34-52.5-12-66.5q0-33 10.5-59t28.5-44 42.5-27.5T286 97q37 0 64.5 13.5T401 147l74-75zM163 613l195 105 143-111-50-64-101 81-150-81z"/><glyph glyph-name="Cdotaccent" unicode="Ċ" horiz-adv-x="690" d="M648 71q-50-40-112.5-59.5T401-8q-81 0-143.5 27.5t-105 74T88 200 66 325q0 75 27 146t78.5 125.5 127.5 88T474 718q88 0 150-31.5T728 602l-87-77q-30 38-74 60.5T464 608q-62 0-112.5-22T264 526.5t-57-87T187 336q0-45 13.5-87.5t41-75 69-52T407 102t98.5 17 78.5 45l64-93zm-75 771q0-30-21-51t-51-21q-29 0-50.5 21T429 842t21.5 51 50.5 21q30 0 51-21t21-51z"/><glyph glyph-name="cdotaccent" unicode="ċ" horiz-adv-x="525" d="M475 72q-39-36-88-58T276-8q-57 0-101 19.5t-74.5 52-46 75T39 227q0 58 21.5 109.5t60 89.5 90.5 60 113 22q74 0 121.5-30t75.5-83l-93-61q-35 69-114 69-35 0-64-12.5T199 356t-34-52.5-12-66.5q0-33 10.5-59t28.5-44 42.5-27.5T286 97q37 0 64.5 13.5T401 147l74-75zm-53 557q0-30-21-50.5T350 558q-29 0-50 20.5T279 629t21 50.5 50 20.5q30 0 51-20.5t21-50.5z"/><glyph glyph-name="Ccaron" unicode="Č" horiz-adv-x="690" d="M648 71q-50-40-112.5-59.5T401-8q-81 0-143.5 27.5t-105 74T88 200 66 325q0 75 27 146t78.5 125.5 127.5 88T474 718q88 0 150-31.5T728 602l-87-77q-30 38-74 60.5T464 608q-62 0-112.5-22T264 526.5t-57-87T187 336q0-45 13.5-87.5t41-75 69-52T407 102t98.5 17 78.5 45l64-93zm27 779l-193-91-142 99 45 65 104-73 152 73z"/><glyph glyph-name="ccaron" unicode="č" horiz-adv-x="525" d="M475 72q-39-36-88-58T276-8q-57 0-101 19.5t-74.5 52-46 75T39 227q0 58 21.5 109.5t60 89.5 90.5 60 113 22q74 0 121.5-30t75.5-83l-93-61q-35 69-114 69-35 0-64-12.5T199 356t-34-52.5-12-66.5q0-33 10.5-59t28.5-44 42.5-27.5T286 97q37 0 64.5 13.5T401 147l74-75zm54 586L334 553 191 664l50 64 101-81 150 81z"/><glyph glyph-name="Dcaron" unicode="Ď" horiz-adv-x="731" d="M261 108q76 0 137.5 24t105 64.5 67 94T594 403q0 42-14 78.5T540 545t-64.5 42-87.5 15H279L174 108h87zm-75 602h198q79 0 140.5-23t104-63.5T693 529t22-117q0-89-34.5-164.5t-95-130.5-144-86T260 0H35zm427 140l-193-91-142 99 45 65 104-73 152 73z"/><glyph glyph-name="dcaron" unicode="ď" horiz-adv-x="632" d="M386 36q-25-18-58-31T248-8q-48 0-87 18T94.5 59 52 131t-15 88q0 57 21 109t59 92 91 64 118 24q46 0 83-13t64-35l53 250h110L485 0H380zM274 97q38 0 73 16.5t61 45.5l40 184q-20 29-54 44.5T323 403q-35 0-66.5-13T202 354t-36.5-55-13.5-71q0-64 35-97.5T274 97zm430 613h109l-91-163h-75z"/><glyph glyph-name="Dcroat" unicode="Đ" horiz-adv-x="768" d="M53 421h108l62 289h198q79 0 140.5-23t104-63.5T730 529t22-117q0-89-34.5-164.5t-95-130.5-144-86T297 0H72l66 313H31zm245-313q76 0 137.5 24t105 64.5 67 94T631 403q0 42-14 78.5T577 545t-64.5 42-87.5 15H316l-39-181h131l-22-108H254l-43-205h87z"/><glyph glyph-name="dcroat" unicode="đ" d="M358 650h155l13 60h110l-13-60h67l-16-73h-67L485 0H380l6 36q-25-18-58-31T248-8q-48 0-87 18T94.5 59 52 131t-15 88q0 57 21 109t59 92 91 64 118 24q46 0 83-13t64-35l25 117H342zM274 97q38 0 73 16.5t61 45.5l40 184q-20 29-54 44.5T323 403q-35 0-66.5-13T202 354t-36.5-55-13.5-71q0-64 35-97.5T274 97z"/><glyph glyph-name="Emacron" unicode="Ē" horiz-adv-x="556" d="M186 710h420l-24-114H278l-39-180h244l-23-112H216l-41-190h305L456 0H35zm92 165h306l-16-76H262z"/><glyph glyph-name="emacron" unicode="ē" horiz-adv-x="576" d="M486 74q-39-38-93-60T276-8q-57 0-101 19.5t-74.5 52-46 75T39 227q0 58 21.5 109.5t60 89.5 90.5 60 113 22q59 0 101-20.5t68.5-53.5 38.5-74 12-82q0-31-6-58H154q3-30 14-52.5t29-38.5 40.5-24 48.5-8q38 0 70.5 14t55.5 38zM314 403q-53 0-93-25t-57-73h261q-7 51-37.5 74.5T314 403zM207 677h306l-16-76H191z"/><glyph glyph-name="Ebreve" unicode="Ĕ" horiz-adv-x="556" d="M186 710h420l-24-114H278l-39-180h244l-23-112H216l-41-190h305L456 0H35zm405 207q-6-33-22-61t-40.5-49-56-32.5T406 763q-38 0-67 13t-49 34-30.5 49-10.5 58h75q3-40 28-62.5t60-22.5q39 0 67 23.5t36 61.5h76z"/><glyph glyph-name="ebreve" unicode="ĕ" horiz-adv-x="576" d="M486 74q-39-38-93-60T276-8q-57 0-101 19.5t-74.5 52-46 75T39 227q0 58 21.5 109.5t60 89.5 90.5 60 113 22q59 0 101-20.5t68.5-53.5 38.5-74 12-82q0-31-6-58H154q3-30 14-52.5t29-38.5 40.5-24 48.5-8q38 0 70.5 14t55.5 38zM314 403q-53 0-93-25t-57-73h261q-7 51-37.5 74.5T314 403zm208 307q-6-33-22-61t-40.5-49-56-32.5T337 556q-38 0-67 13t-49 34-30.5 49-10.5 58h75q3-40 28-62.5t60-22.5q39 0 67 23.5t36 61.5h76z"/><glyph glyph-name="Edotaccent" unicode="Ė" horiz-adv-x="556" d="M186 710h420l-24-114H278l-39-180h244l-23-112H216l-41-190h305L456 0H35zm311 132q0-30-21-51t-51-21q-29 0-50.5 21T353 842t21.5 51 50.5 21q30 0 51-21t21-51z"/><glyph glyph-name="edotaccent" unicode="ė" horiz-adv-x="576" d="M486 74q-39-38-93-60T276-8q-57 0-101 19.5t-74.5 52-46 75T39 227q0 58 21.5 109.5t60 89.5 90.5 60 113 22q59 0 101-20.5t68.5-53.5 38.5-74 12-82q0-31-6-58H154q3-30 14-52.5t29-38.5 40.5-24 48.5-8q38 0 70.5 14t55.5 38zM314 403q-53 0-93-25t-57-73h261q-7 51-37.5 74.5T314 403zm107 226q0-30-21-50.5T349 558q-29 0-50 20.5T278 629t21 50.5 50 20.5q30 0 51-20.5t21-50.5z"/><glyph glyph-name="Eogonek" unicode="Ę" horiz-adv-x="556" d="M186 710h420l-24-114H278l-39-180h244l-23-112H216l-41-190h305L456 0q-47-19-65-41.5T373-82q2-28 36-28 13 0 24 4l-14-70q-16-7-32.5-10t-32.5-3q-41 0-67 26t-25 61q0 33 21.5 59.5T340 0H35z"/><glyph glyph-name="eogonek" unicode="ę" horiz-adv-x="576" d="M250-182q-38 0-63 22t-25 57q0 34 20 58t47 41q-46 7-81.5 29T88 78t-36.5 69.5T39 227q0 58 21.5 109.5t60 89.5 90.5 60 113 22q59 0 101-20.5t68.5-53.5 38.5-74 12-82q0-31-6-58H154q3-30 14-52.5t29-38.5 40.5-24 48.5-8q38 0 70.5 14t55.5 38l74-75q-28-27-63.5-46.5T345 0q-45-22-60.5-41.5T269-76q0-12 9-19.5t26-7.5q12 0 21 3l-15-70q-14-7-29-9.5t-31-2.5zm64 585q-53 0-93-25t-57-73h261q-7 51-37.5 74.5T314 403z"/><glyph glyph-name="Ecaron" unicode="Ě" horiz-adv-x="556" d="M186 710h420l-24-114H278l-39-180h244l-23-112H216l-41-190h305L456 0H35zm413 140l-193-91-142 99 45 65 104-73 152 73z"/><glyph glyph-name="ecaron" unicode="ě" horiz-adv-x="576" d="M486 74q-39-38-93-60T276-8q-57 0-101 19.5t-74.5 52-46 75T39 227q0 58 21.5 109.5t60 89.5 90.5 60 113 22q59 0 101-20.5t68.5-53.5 38.5-74 12-82q0-31-6-58H154q3-30 14-52.5t29-38.5 40.5-24 48.5-8q38 0 70.5 14t55.5 38zM314 403q-53 0-93-25t-57-73h261q-7 51-37.5 74.5T314 403zm215 255L334 553 191 664l50 64 101-81 150 81z"/><glyph glyph-name="Gcircumflex" unicode="Ĝ" horiz-adv-x="774" d="M688 83q-29-21-63-38t-71.5-29T477-2t-76-6q-81 0-143.5 27.5t-105 74T88 200 66 325q0 75 27 146t78.5 125.5 127.5 88T474 718q88 0 159-30t113-86l-87-77q-15 20-36 35.5t-46.5 26-54.5 16-58 5.5q-62 0-112.5-22T264 526.5t-57-87T187 336q0-45 13.5-87.5t41-75 69-52T407 102q54 0 101 12.5t79 39.5l38 150H430l74 112h260L688 83zM313 833l193 91 142-99-45-65-104 73-152-73z"/><glyph glyph-name="gcircumflex" unicode="ĝ" horiz-adv-x="595" d="M494 51q0-62-21.5-108T414-133.5 327-179t-107-15q-26 0-55 3t-58 10.5-55.5 19T4-132l66 94q26-23 67-37t89-14q66 0 110 31.5T380 39v9.5L379 59q-24-17-56-28t-76-11q-45 0-82.5 16.5t-65 45-43 67.5T41 233q0 57 20 107t57 87.5 89.5 59T326 508q41 0 73.5-10t58.5-28l7 30h110l-84-395q2-15 2.5-29t.5-25zm-221 74q35 0 68 13.5t58 39.5l36 178q-20 23-51.5 35T320 403q-33 0-63-10.5t-52.5-31T169 311t-13-69q0-64 33.5-90.5T273 125zm-89 488l195 105 143-111-50-64-101 81-150-81z"/><glyph glyph-name="Gbreve" unicode="Ğ" horiz-adv-x="774" d="M688 83q-29-21-63-38t-71.5-29T477-2t-76-6q-81 0-143.5 27.5t-105 74T88 200 66 325q0 75 27 146t78.5 125.5 127.5 88T474 718q88 0 159-30t113-86l-87-77q-15 20-36 35.5t-46.5 26-54.5 16-58 5.5q-62 0-112.5-22T264 526.5t-57-87T187 336q0-45 13.5-87.5t41-75 69-52T407 102q54 0 101 12.5t79 39.5l38 150H430l74 112h260L688 83zm-19 834q-6-33-22-61t-40.5-49-56-32.5T484 763q-38 0-67 13t-49 34-30.5 49-10.5 58h75q3-40 28-62.5t60-22.5q39 0 67 23.5t36 61.5h76z"/><glyph glyph-name="gbreve" unicode="ğ" horiz-adv-x="595" d="M494 51q0-62-21.5-108T414-133.5 327-179t-107-15q-26 0-55 3t-58 10.5-55.5 19T4-132l66 94q26-23 67-37t89-14q66 0 110 31.5T380 39v9.5L379 59q-24-17-56-28t-76-11q-45 0-82.5 16.5t-65 45-43 67.5T41 233q0 57 20 107t57 87.5 89.5 59T326 508q41 0 73.5-10t58.5-28l7 30h110l-84-395q2-15 2.5-29t.5-25zm-221 74q35 0 68 13.5t58 39.5l36 178q-20 23-51.5 35T320 403q-33 0-63-10.5t-52.5-31T169 311t-13-69q0-64 33.5-90.5T273 125zm269 585q-6-33-22-61t-40.5-49-56-32.5T357 556q-38 0-67 13t-49 34-30.5 49-10.5 58h75q3-40 28-62.5t60-22.5q39 0 67 23.5t36 61.5h76z"/><glyph glyph-name="Gdotaccent" unicode="Ġ" horiz-adv-x="774" d="M688 83q-29-21-63-38t-71.5-29T477-2t-76-6q-81 0-143.5 27.5t-105 74T88 200 66 325q0 75 27 146t78.5 125.5 127.5 88T474 718q88 0 159-30t113-86l-87-77q-15 20-36 35.5t-46.5 26-54.5 16-58 5.5q-62 0-112.5-22T264 526.5t-57-87T187 336q0-45 13.5-87.5t41-75 69-52T407 102q54 0 101 12.5t79 39.5l38 150H430l74 112h260L688 83zM573 842q0-30-21-51t-51-21q-29 0-50.5 21T429 842t21.5 51 50.5 21q30 0 51-21t21-51z"/><glyph glyph-name="gdotaccent" unicode="ġ" horiz-adv-x="595" d="M494 51q0-62-21.5-108T414-133.5 327-179t-107-15q-26 0-55 3t-58 10.5-55.5 19T4-132l66 94q26-23 67-37t89-14q66 0 110 31.5T380 39v9.5L379 59q-24-17-56-28t-76-11q-45 0-82.5 16.5t-65 45-43 67.5T41 233q0 57 20 107t57 87.5 89.5 59T326 508q41 0 73.5-10t58.5-28l7 30h110l-84-395q2-15 2.5-29t.5-25zm-221 74q35 0 68 13.5t58 39.5l36 178q-20 23-51.5 35T320 403q-33 0-63-10.5t-52.5-31T169 311t-13-69q0-64 33.5-90.5T273 125zm171 504q0-30-21-50.5T372 558q-29 0-50 20.5T301 629t21 50.5 50 20.5q30 0 51-20.5t21-50.5z"/><glyph glyph-name="uni0122" unicode="Ģ" horiz-adv-x="774" d="M688 83q-29-21-63-38t-71.5-29T477-2t-76-6q-81 0-143.5 27.5t-105 74T88 200 66 325q0 75 27 146t78.5 125.5 127.5 88T474 718q88 0 159-30t113-86l-87-77q-15 20-36 35.5t-46.5 26-54.5 16-58 5.5q-62 0-112.5-22T264 526.5t-57-87T187 336q0-45 13.5-87.5t41-75 69-52T407 102q54 0 101 12.5t79 39.5l38 150H430l74 112h260L688 83zM349-50h114L322-243h-73z"/><glyph glyph-name="uni0123" unicode="ģ" horiz-adv-x="595" d="M396.006 541.997H282.014l140.991 192.988H496zM494 51q0-62-21.5-108T414-133.5 327-179t-107-15q-26 0-55 3t-58 10.5-55.5 19T4-132l66 94q26-23 67-37t89-14q66 0 110 31.5T380 39v9.5L379 59q-24-17-56-28t-76-11q-45 0-82.5 16.5t-65 45-43 67.5T41 233q0 57 20 107t57 87.5 89.5 59T326 508q41 0 73.5-10t58.5-28l7 30h110l-84-395q2-15 2.5-29t.5-25zm-221 74q35 0 68 13.5t58 39.5l36 178q-20 23-51.5 35T320 403q-33 0-63-10.5t-52.5-31T169 311t-13-69q0-64 33.5-90.5T273 125z"/><glyph glyph-name="Hcircumflex" unicode="Ĥ" horiz-adv-x="760" d="M186 710h116l-63-294h352l63 294h116L619 0H503l65 304H216L151 0H35zm132 123l193 91 142-99-45-65-104 73-152-73z"/><glyph glyph-name="hcircumflex" unicode="ĥ" horiz-adv-x="585" d="M168 710h110l-52-241q32 22 67 30.5t69 8.5q36 0 67.5-12t55-34.5 37-55.5 13.5-74q0-27-6-55L470 0H360l56 265q2 11 3.5 21t1.5 19q0 48-28 73t-76 25q-70 0-116-55L127 0H17zm67 123l193 91 142-99-45-65-104 73-152-73z"/><glyph glyph-name="Hbar" unicode="Ħ" horiz-adv-x="770" d="M105 610h64l22 100h116l-22-100h352l22 100h116l-22-100h66l-20-94h-66L624 0H508l65 304H221L156 0H40l109 516H85zm491-194l21 100H265l-21-100h352z"/><glyph glyph-name="hbar" unicode="ħ" horiz-adv-x="585" d="M78 650h77l13 60h110l-13-60h145l-15-73H249l-23-108q32 22 67 30.5t69 8.5q36 0 67.5-12t55-34.5 37-55.5 13.5-74q0-27-6-55L470 0H360l56 265q2 11 3.5 21t1.5 19q0 48-28 73t-76 25q-70 0-116-55L127 0H17l122 577H63z"/><glyph glyph-name="Itilde" unicode="Ĩ" horiz-adv-x="292" d="M186 710h116L151 0H35zM78 778q7 33 21 56.5t33 38.5 40.5 22 43.5 7q21 0 37.5-6.5t30-14.5 25.5-14.5 24-6.5q39 0 56 43h77q-6-34-20-57.5T413.5 807t-41-21.5T328 779t-38.5 6.5T259 800t-25.5 14.5T210 821q-39 0-55-43H78z"/><glyph glyph-name="itilde" unicode="ĩ" horiz-adv-x="250" d="M123 500h110L127 0H17zM11 562q7 33 21 56.5T65 657t40.5 22 43.5 7q21 0 37.5-6.5t30-14.5 25.5-14.5 24-6.5q39 0 56 43h77q-6-34-20-57.5T346.5 591t-41-21.5T261 563t-38.5 6.5T192 584t-25.5 14.5T143 605q-39 0-55-43H11z"/><glyph glyph-name="Imacron" unicode="Ī" horiz-adv-x="292" d="M186 710h116L151 0H35zm-59 165h306l-16-76H111z"/><glyph glyph-name="imacron" unicode="ī" horiz-adv-x="250" d="M123 500h110L127 0H17zM63 677h306l-16-76H47z"/><glyph glyph-name="Ibreve" unicode="Ĭ" horiz-adv-x="292" d="M186 710h116L151 0H35zm255 207q-6-33-22-61t-40.5-49-56-32.5T256 763q-38 0-67 13t-49 34-30.5 49T99 917h75q3-40 28-62.5t60-22.5q39 0 67 23.5t36 61.5h76z"/><glyph glyph-name="ibreve" unicode="ĭ" horiz-adv-x="250" d="M123 500h110L127 0H17zm264 210q-6-33-22-61t-40.5-49-56-32.5T202 556q-38 0-67 13t-49 34-30.5 49T45 710h75q3-40 28-62.5t60-22.5q39 0 67 23.5t36 61.5h76z"/><glyph glyph-name="Iogonek" unicode="Į" horiz-adv-x="292" d="M49-189q-41 0-67 26t-25 61q0 33 21.5 59.5T35 0l151 710h116L151 0q-47-19-65-41.5T68-82q2-28 36-28 13 0 24 4l-14-70q-16-7-32.5-10T49-189z"/><glyph glyph-name="iogonek" unicode="į" horiz-adv-x="250" d="M31-182q-38 0-63 22t-25 57q0 36 22.5 61T17 0l106 500h110L127 0Q82-22 66-41.5T50-76q0-12 9-19.5t26-7.5q12 0 21 3l-15-70q-14-7-29-9.5T31-182zm113 778q-13 20-13 43 0 31 22 55t60 24q32 0 49.5-21.5T280 649q0-15-6.5-29T253 596H144z"/><glyph glyph-name="Idotaccent" unicode="İ" horiz-adv-x="292" d="M186 710h116L151 0H35zm159 132q0-30-21-51t-51-21q-29 0-50.5 21T201 842t21.5 51 50.5 21q30 0 51-21t21-51z"/><glyph glyph-name="dotlessi" unicode="ı" horiz-adv-x="250" d="M123 500h110L127 0H17z"/><glyph glyph-name="Jcircumflex" unicode="Ĵ" horiz-adv-x="533" d="M443 207q-13-61-35.5-102.5T354 38 283 2.5 195-8q-39 0-74.5 11.5T59 36.5 17.5 89 2 160q0 12 1 23.5T7 209h117q-3-18-3-32 0-42 23.5-58.5T203 102q42 0 76.5 25t46.5 82l107 501h117L443 207zM331 833l193 91 142-99-45-65-104 73-152-73z"/><glyph glyph-name="jcircumflex" unicode="ĵ" horiz-adv-x="258" d="M-98-80h40q38 0 55 15t25 53l109 512h110L131-18q-10-45-25.5-77T67-146.5 11.5-175t-76.5-9h-55zM27 613l195 105 143-111-50-64-101 81-150-81z"/><glyph glyph-name="uni0136" unicode="Ķ" horiz-adv-x="652" d="M186 710h116l-76-355 368 355h145L353 337 610 0H479L222 336 151 0H35zm53-760h114L212-243h-73z"/><glyph glyph-name="uni0137" unicode="ķ" horiz-adv-x="525" d="M168 710h110l-93-435 244 225h139L300 255 478 0H354L180 249 127 0H17zm16-760h114L157-243H84z"/><glyph glyph-name="Lacute" unicode="Ĺ" horiz-adv-x="519" d="M186 710h117L176 115h298L450 0H35zm129 203h134L301 768h-91z"/><glyph glyph-name="lacute" unicode="ĺ" horiz-adv-x="250" d="M168 710h110L127 0H17zm88 203h134L242 768h-91z"/><glyph glyph-name="uni013B" unicode="Ļ" horiz-adv-x="519" d="M186 710h117L176 115h298L450 0H35zm2-760h114L161-243H88z"/><glyph glyph-name="uni013C" unicode="ļ" horiz-adv-x="250" d="M168 710h110L127 0H17zM4-50h114L-23-243h-73z"/><glyph glyph-name="Lcaron" unicode="Ľ" horiz-adv-x="522" d="M186 710h117L176 115h298L450 0H35zm222 0h109l-91-163h-75z"/><glyph glyph-name="lcaron" unicode="ľ" horiz-adv-x="274" d="M168 710h110L127 0H17zm178 0h109l-91-163h-75z"/><glyph glyph-name="Ldot" unicode="Ŀ" horiz-adv-x="527" d="M186 710h117L176 115h298L450 0H35zm319-296q0-30-21-50.5T433 343q-29 0-50 20.5T362 414t21 50.5 50 20.5q30 0 51-20.5t21-50.5z"/><glyph glyph-name="ldot" unicode="ŀ" horiz-adv-x="369" d="M403 353q0-30-21-50.5T331 282q-29 0-50 20.5T260 353t21 50.5 50 20.5q30 0 51-20.5t21-50.5zM168 710h110L127 0H17z"/><glyph glyph-name="Lslash" unicode="Ł" horiz-adv-x="582" d="M17 282l158 87 73 341h117l-58-268 144 79 50-91-222-122-41-193h298L512 0H97l50 235-80-44z"/><glyph glyph-name="lslash" unicode="ł" horiz-adv-x="365" d="M16 306l139 76 70 328h110l-55-260 83 45 37-69-142-77L184 0H74l60 282-81-44z"/><glyph glyph-name="Nacute" unicode="Ń" horiz-adv-x="777" d="M250 466L151 0H35l153 718 384-474 99 466h116L634-8zm274 447h134L510 768h-91z"/><glyph glyph-name="nacute" unicode="ń" horiz-adv-x="585" d="M123 500h105l-7-36q32 25 69 34.5t72 9.5q36 0 67.5-12t55-34.5 37-55.5 13.5-74q0-27-6-55L470 0H360l56 265q2 11 3.5 21t1.5 19q0 48-28 73t-76 25q-70 0-116-55L127 0H17zm272 210h133L372 545h-97z"/><glyph glyph-name="uni0145" unicode="Ņ" horiz-adv-x="777" d="M250 466L151 0H35l153 718 384-474 99 466h116L634-8zm47-516h114L270-243h-73z"/><glyph glyph-name="uni0146" unicode="ņ" horiz-adv-x="585" d="M123 500h105l-7-36q32 25 69 34.5t72 9.5q36 0 67.5-12t55-34.5 37-55.5 13.5-74q0-27-6-55L470 0H360l56 265q2 11 3.5 21t1.5 19q0 48-28 73t-76 25q-70 0-116-55L127 0H17zm52-550h114L148-243H75z"/><glyph glyph-name="Ncaron" unicode="Ň" horiz-adv-x="777" d="M250 466L151 0H35l153 718 384-474 99 466h116L634-8zm438 384l-193-91-142 99 45 65 104-73 152 73z"/><glyph glyph-name="ncaron" unicode="ň" horiz-adv-x="585" d="M123 500h105l-7-36q32 25 69 34.5t72 9.5q36 0 67.5-12t55-34.5 37-55.5 13.5-74q0-27-6-55L470 0H360l56 265q2 11 3.5 21t1.5 19q0 48-28 73t-76 25q-70 0-116-55L127 0H17zm433 158L361 553 218 664l50 64 101-81 150 81z"/><glyph glyph-name="Omacron" unicode="Ō" horiz-adv-x="826" d="M187 336q0-47 13.5-89.5t41-74.5 69-51 96.5-19q61 0 112 22t88 59.5 57 87T684 374q0 47-13.5 89.5t-41 74.5-69 51-96.5 19q-62 0-112.5-22T264 526.5t-57-87T187 336zm618 49q0-75-27-146t-78.5-125.5-127.5-88T397-8q-80 0-141.5 28T152 94.5 88 201 66 325q0 75 27 146t78.5 125.5 127.5 88T474 718q79 0 141-28t104-74.5T783 509t22-124zM355 875h306l-16-76H339z"/><glyph glyph-name="omacron" unicode="ō" horiz-adv-x="599" d="M153 237q0-33 10.5-59t28.5-44 42.5-27.5T286 97q34 0 63.5 12.5T401 144t34 53 12 67q0 33-10.5 59T408 366.5t-42.5 27T314 403q-35 0-64-12.5T199 356t-34-52.5-12-66.5zm408 37q0-59-22-110.5T479 74t-90-60T276-8q-57 0-101 19.5t-74.5 52-46 75T39 227q0 58 21.5 109.5t60 89.5 90.5 60 113 22q57 0 101-19.5t74.5-52 46-74.5 15.5-88zM237 677h306l-16-76H221z"/><glyph glyph-name="Obreve" unicode="Ŏ" horiz-adv-x="826" d="M187 336q0-47 13.5-89.5t41-74.5 69-51 96.5-19q61 0 112 22t88 59.5 57 87T684 374q0 47-13.5 89.5t-41 74.5-69 51-96.5 19q-62 0-112.5-22T264 526.5t-57-87T187 336zm618 49q0-75-27-146t-78.5-125.5-127.5-88T397-8q-80 0-141.5 28T152 94.5 88 201 66 325q0 75 27 146t78.5 125.5 127.5 88T474 718q79 0 141-28t104-74.5T783 509t22-124zM669 917q-6-33-22-61t-40.5-49-56-32.5T484 763q-38 0-67 13t-49 34-30.5 49-10.5 58h75q3-40 28-62.5t60-22.5q39 0 67 23.5t36 61.5h76z"/><glyph glyph-name="obreve" unicode="ŏ" horiz-adv-x="599" d="M153 237q0-33 10.5-59t28.5-44 42.5-27.5T286 97q34 0 63.5 12.5T401 144t34 53 12 67q0 33-10.5 59T408 366.5t-42.5 27T314 403q-35 0-64-12.5T199 356t-34-52.5-12-66.5zm408 37q0-59-22-110.5T479 74t-90-60T276-8q-57 0-101 19.5t-74.5 52-46 75T39 227q0 58 21.5 109.5t60 89.5 90.5 60 113 22q57 0 101-19.5t74.5-52 46-74.5 15.5-88zm-12 436q-6-33-22-61t-40.5-49-56-32.5T364 556q-38 0-67 13t-49 34-30.5 49-10.5 58h75q3-40 28-62.5t60-22.5q39 0 67 23.5t36 61.5h76z"/><glyph glyph-name="Ohungarumlaut" unicode="Ő" horiz-adv-x="826" d="M187 336q0-47 13.5-89.5t41-74.5 69-51 96.5-19q61 0 112 22t88 59.5 57 87T684 374q0 47-13.5 89.5t-41 74.5-69 51-96.5 19q-62 0-112.5-22T264 526.5t-57-87T187 336zm618 49q0-75-27-146t-78.5-125.5-127.5-88T397-8q-80 0-141.5 28T152 94.5 88 201 66 325q0 75 27 146t78.5 125.5 127.5 88T474 718q79 0 141-28t104-74.5T783 509t22-124zM638 913h124L614 768h-81zm-203 0h124L411 768h-81z"/><glyph glyph-name="ohungarumlaut" unicode="ő" horiz-adv-x="599" d="M153 237q0-33 10.5-59t28.5-44 42.5-27.5T286 97q34 0 63.5 12.5T401 144t34 53 12 67q0 33-10.5 59T408 366.5t-42.5 27T314 403q-35 0-64-12.5T199 356t-34-52.5-12-66.5zm408 37q0-59-22-110.5T479 74t-90-60T276-8q-57 0-101 19.5t-74.5 52-46 75T39 227q0 58 21.5 109.5t60 89.5 90.5 60 113 22q57 0 101-19.5t74.5-52 46-74.5 15.5-88zm-39 436h118L484 545h-82zm-179 0h118L305 545h-82z"/><glyph glyph-name="OE" unicode="Œ" horiz-adv-x="1072" d="M557 19Q486-8 397-8q-80 0-141.5 28T152 94.5 88 201 66 325q0 75 27 146t78.5 125.5 127.5 88T474 718q66 0 119.5-19.5T688 645l14 65h415l-24-115H786l-12-64q25-55 29-115h216l-24-112H797q-11-53-35-101t-61-88h292L969 0H553zM187 336q0-47 13.5-89.5t41-74.5 69-51 96.5-19q61 0 112 22t88 59.5 57 87T684 374q0 47-13.5 89.5t-41 74.5-69 51-96.5 19q-62 0-112.5-22T264 526.5t-57-87T187 336z"/><glyph glyph-name="oe" unicode="œ" horiz-adv-x="984" d="M694 97q38 0 70.5 14t55.5 38l74-75q-39-38-93-60T684-8q-67 0-116 26t-78 68q-39-44-93.5-69T276-8q-57 0-101 19.5t-74.5 52-46 75T39 227q0 58 21.5 109.5t60 89.5 90.5 60 113 22q66 0 115-26t79-68q38 44 93 69t121 25q59 0 101-20.5t68.5-53.5 38.5-74 12-82q0-31-6-58H562q3-30 14-52.5t29-38.5 40.5-24 48.5-8zM153 237q0-33 10.5-59t28.5-44 42.5-27.5T286 97q34 0 63.5 12.5T401 144t34 53 12 67q0 33-10.5 59T408 366.5t-42.5 27T314 403q-35 0-64-12.5T199 356t-34-52.5-12-66.5zm569 166q-53 0-93-25t-57-73h261q-7 51-36 74.5T722 403z"/><glyph glyph-name="Racute" unicode="Ŕ" horiz-adv-x="637" d="M292 302h-77L151 0H35l151 710h205q52 0 92-13.5t67-38.5 40.5-59 13.5-75q0-91-51.5-145.5T414 308L571 0H442zm49 101q69 0 107 30.5t38 82.5q0 42-27.5 64.5T373 603h-94l-42-200h104zm99 510h134L426 768h-91z"/><glyph glyph-name="racute" unicode="ŕ" horiz-adv-x="363" d="M123 500h110l-10-48q29 29 64.5 42t76.5 13q20 0 35-3l-24-115q-20 7-54 7-35 0-67.5-14.5T198 335L127 0H17zm184 210h133L284 545h-97z"/><glyph glyph-name="uni0156" unicode="Ŗ" horiz-adv-x="637" d="M292 302h-77L151 0H35l151 710h205q52 0 92-13.5t67-38.5 40.5-59 13.5-75q0-91-51.5-145.5T414 308L571 0H442zm49 101q69 0 107 30.5t38 82.5q0 42-27.5 64.5T373 603h-94l-42-200h104zM237-50h114L210-243h-73z"/><glyph glyph-name="uni0157" unicode="ŗ" horiz-adv-x="363" d="M4-50h114L-23-243h-73zm119 550h110l-10-48q29 29 64.5 42t76.5 13q20 0 35-3l-24-115q-20 7-54 7-35 0-67.5-14.5T198 335L127 0H17z"/><glyph glyph-name="Rcaron" unicode="Ř" horiz-adv-x="637" d="M292 302h-77L151 0H35l151 710h205q52 0 92-13.5t67-38.5 40.5-59 13.5-75q0-91-51.5-145.5T414 308L571 0H442zm49 101q69 0 107 30.5t38 82.5q0 42-27.5 64.5T373 603h-94l-42-200h104zm245 447l-193-91-142 99 45 65 104-73 152 73z"/><glyph glyph-name="rcaron" unicode="ř" horiz-adv-x="363" d="M123 500h110l-10-48q29 29 64.5 42t76.5 13q20 0 35-3l-24-115q-20 7-54 7-35 0-67.5-14.5T198 335L127 0H17zm345 158L273 553 130 664l50 64 101-81 150 81z"/><glyph glyph-name="Sacute" unicode="Ś" horiz-adv-x="536" d="M489 198q0-44-18-81.5t-50.5-65T342 8 241-8Q158-8 96 30.5T2 132l105 66q9-19 22.5-36t30.5-30.5 39.5-21.5 49.5-8q54 0 86.5 23.5T368 188q0 35-21 59.5T288 299l-50 37q-60 45-91 90t-31 105q0 43 18 77.5t48.5 59 71 37.5 85.5 13q66 0 122-27.5t91-85.5l-105-66q-38 69-117 69-40 0-68.5-21T233 530q0-31 20.5-54t58.5-52l50-37q25-19 48.5-39t40.5-43 27.5-49.5T489 198zm-91 715h134L384 768h-91z"/><glyph glyph-name="sacute" unicode="ś" horiz-adv-x="430" d="M375 146q0-35-15-63.5T320.5 34t-57-31T197-8Q123-8 75.5 22T5 118l97 43q14-39 38.5-55.5T202 89q23 0 43.5 11.5T266 135q0 20-14 34t-46 32l-34 20q-21 12-39.5 26.5t-32.5 32T77.5 317 69 360q0 33 13 60.5t36 47 54 30 67 10.5q54 0 98.5-25t67.5-82l-99-44q-11 29-29 41t-44 12q-23 0-39-10.5T178 368q0-17 11.5-30.5T227 309l34-20q21-12 41-26t36.5-31 26.5-38.5 10-47.5zm-52 564h133L300 545h-97z"/><glyph glyph-name="Scircumflex" unicode="Ŝ" horiz-adv-x="536" d="M489 198q0-44-18-81.5t-50.5-65T342 8 241-8Q158-8 96 30.5T2 132l105 66q9-19 22.5-36t30.5-30.5 39.5-21.5 49.5-8q54 0 86.5 23.5T368 188q0 35-21 59.5T288 299l-50 37q-60 45-91 90t-31 105q0 43 18 77.5t48.5 59 71 37.5 85.5 13q66 0 122-27.5t91-85.5l-105-66q-38 69-117 69-40 0-68.5-21T233 530q0-31 20.5-54t58.5-52l50-37q25-19 48.5-39t40.5-43 27.5-49.5T489 198zM178 833l193 91 142-99-45-65-104 73-152-73z"/><glyph glyph-name="scircumflex" unicode="ŝ" horiz-adv-x="430" d="M98 613l195 105 143-111-50-64-101 81-150-81zm277-467q0-35-15-63.5T320.5 34t-57-31T197-8Q123-8 75.5 22T5 118l97 43q14-39 38.5-55.5T202 89q23 0 43.5 11.5T266 135q0 20-14 34t-46 32l-34 20q-21 12-39.5 26.5t-32.5 32T77.5 317 69 360q0 33 13 60.5t36 47 54 30 67 10.5q54 0 98.5-25t67.5-82l-99-44q-11 29-29 41t-44 12q-23 0-39-10.5T178 368q0-17 11.5-30.5T227 309l34-20q21-12 41-26t36.5-31 26.5-38.5 10-47.5z"/><glyph glyph-name="Scedilla" unicode="Ş" horiz-adv-x="536" d="M197-5Q130 5 80 41.5T2 132l105 66q9-19 22.5-36t30.5-30.5 39.5-21.5 49.5-8q54 0 86.5 23.5T368 188q0 35-21 59.5T288 299l-50 37q-60 45-91 90t-31 105q0 43 18 77.5t48.5 59 71 37.5 85.5 13q66 0 122-27.5t91-85.5l-105-66q-38 69-117 69-40 0-68.5-21T233 530q0-31 20.5-54t58.5-52l50-37q25-19 48.5-39t40.5-43 27.5-49.5T489 198q0-39-14.5-73.5T433 63t-65-44.5T284-5l-65-127H114z"/><glyph glyph-name="scedilla" unicode="ş" horiz-adv-x="430" d="M154-5Q42 9 5 118l97 43q14-39 38.5-55.5T202 89q23 0 43.5 11.5T266 135q0 20-14 34t-46 32l-34 20q-21 12-39.5 26.5t-32.5 32T77.5 317 69 360q0 33 13 60.5t36 47 54 30 67 10.5q54 0 98.5-25t67.5-82l-99-44q-11 29-29 41t-44 12q-23 0-39-10.5T178 368q0-17 11.5-30.5T227 309l34-20q21-12 41-26t36.5-31 26.5-38.5 10-47.5q0-30-11-55t-29.5-44.5-43.5-32T238-4l-66-128H72z"/><glyph glyph-name="Scaron" unicode="Š" horiz-adv-x="536" d="M489 198q0-44-18-81.5t-50.5-65T342 8 241-8Q158-8 96 30.5T2 132l105 66q9-19 22.5-36t30.5-30.5 39.5-21.5 49.5-8q54 0 86.5 23.5T368 188q0 35-21 59.5T288 299l-50 37q-60 45-91 90t-31 105q0 43 18 77.5t48.5 59 71 37.5 85.5 13q66 0 122-27.5t91-85.5l-105-66q-38 69-117 69-40 0-68.5-21T233 530q0-31 20.5-54t58.5-52l50-37q25-19 48.5-39t40.5-43 27.5-49.5T489 198zm52 652l-193-91-142 99 45 65 104-73 152 73z"/><glyph glyph-name="scaron" unicode="š" horiz-adv-x="430" d="M445 658L250 553 107 664l50 64 101-81 150 81zm-70-512q0-35-15-63.5T320.5 34t-57-31T197-8Q123-8 75.5 22T5 118l97 43q14-39 38.5-55.5T202 89q23 0 43.5 11.5T266 135q0 20-14 34t-46 32l-34 20q-21 12-39.5 26.5t-32.5 32T77.5 317 69 360q0 33 13 60.5t36 47 54 30 67 10.5q54 0 98.5-25t67.5-82l-99-44q-11 29-29 41t-44 12q-23 0-39-10.5T178 368q0-17 11.5-30.5T227 309l34-20q21-12 41-26t36.5-31 26.5-38.5 10-47.5z"/><glyph glyph-name="uni0162" unicode="Ţ" horiz-adv-x="516" d="M273 596H90l24 114h483l-24-114H389L262 0H146zM137-50h114L110-243H37z"/><glyph glyph-name="uni0163" unicode="ţ" horiz-adv-x="382" d="M63 500h95l20 94 123 56-32-150h131l-21-98H248l-48-227q-2-9-3-17t-1-14q0-23 13-33t46-10h68L302 0h-75Q82 0 82 117q0 13 2 27t5 30l48 228H63v98zm50-550h114L86-243H13z"/><glyph glyph-name="Tcaron" unicode="Ť" horiz-adv-x="516" d="M273 596H90l24 114h483l-24-114H389L262 0H146zm286 254l-193-91-142 99 45 65 104-73 152 73z"/><glyph glyph-name="tcaron" unicode="ť" horiz-adv-x="382" d="M63 500h95l20 94 123 56-32-150h131l-21-98H248l-48-227q-2-9-3-17t-1-14q0-23 13-33t46-10h68L302 0h-75Q82 0 82 117q0 13 2 27t5 30l48 228H63v98zm332 210h109l-91-163h-75z"/><glyph glyph-name="Utilde" unicode="Ũ" horiz-adv-x="730" d="M656 276q-14-68-39.5-120.5t-65.5-89T456 11 328-8Q273-8 227 7t-79 43.5T96.5 120 78 212q0 15 1.5 31t5.5 33l92 434h116l-93-437q-3-13-4-24t-1-22q0-61 37-93t102-32q38 0 71.5 11t60.5 33 45.5 54 27.5 73l93 437h116l-92-434zM296 778q7 33 21 56.5t33 38.5 40.5 22 43.5 7q21 0 37.5-6.5t30-14.5 25.5-14.5 24-6.5q39 0 56 43h77q-6-34-20-57.5T631.5 807t-41-21.5T546 779t-38.5 6.5T477 800t-25.5 14.5T428 821q-39 0-55-43h-77z"/><glyph glyph-name="utilde" unicode="ũ" horiz-adv-x="578" d="M357 35q-32-24-67-33.5T220-8q-36 0-67 12T99 38.5t-36 55T50 167q0 26 6 56l59 277h110l-56-265q-6-29-6-50 0-46 24.5-67T259 97q70 0 118 56l74 347h110L455 0H350zM171 562q7 33 21 56.5t33 38.5 40.5 22 43.5 7q21 0 37.5-6.5t30-14.5 25.5-14.5 24-6.5q39 0 56 43h77q-6-34-20-57.5T506.5 591t-41-21.5T421 563t-38.5 6.5T352 584t-25.5 14.5T303 605q-39 0-55-43h-77z"/><glyph glyph-name="Umacron" unicode="Ū" horiz-adv-x="730" d="M656 276q-14-68-39.5-120.5t-65.5-89T456 11 328-8Q273-8 227 7t-79 43.5T96.5 120 78 212q0 15 1.5 31t5.5 33l92 434h116l-93-437q-3-13-4-24t-1-22q0-61 37-93t102-32q38 0 71.5 11t60.5 33 45.5 54 27.5 73l93 437h116l-92-434zM345 875h306l-16-76H329z"/><glyph glyph-name="umacron" unicode="ū" horiz-adv-x="578" d="M357 35q-32-24-67-33.5T220-8q-36 0-67 12T99 38.5t-36 55T50 167q0 26 6 56l59 277h110l-56-265q-6-29-6-50 0-46 24.5-67T259 97q70 0 118 56l74 347h110L455 0H350zM223 677h306l-16-76H207z"/><glyph glyph-name="Ubreve" unicode="Ŭ" horiz-adv-x="730" d="M656 276q-14-68-39.5-120.5t-65.5-89T456 11 328-8Q273-8 227 7t-79 43.5T96.5 120 78 212q0 15 1.5 31t5.5 33l92 434h116l-93-437q-3-13-4-24t-1-22q0-61 37-93t102-32q38 0 71.5 11t60.5 33 45.5 54 27.5 73l93 437h116l-92-434zm3 641q-6-33-22-61t-40.5-49-56-32.5T474 763q-38 0-67 13t-49 34-30.5 49-10.5 58h75q3-40 28-62.5t60-22.5q39 0 67 23.5t36 61.5h76z"/><glyph glyph-name="ubreve" unicode="ŭ" horiz-adv-x="578" d="M357 35q-32-24-67-33.5T220-8q-36 0-67 12T99 38.5t-36 55T50 167q0 26 6 56l59 277h110l-56-265q-6-29-6-50 0-46 24.5-67T259 97q70 0 118 56l74 347h110L455 0H350zm178 675q-6-33-22-61t-40.5-49-56-32.5T350 556q-38 0-67 13t-49 34-30.5 49-10.5 58h75q3-40 28-62.5t60-22.5q39 0 67 23.5t36 61.5h76z"/><glyph glyph-name="Uring" unicode="Ů" horiz-adv-x="730" d="M656 276q-14-68-39.5-120.5t-65.5-89T456 11 328-8Q273-8 227 7t-79 43.5T96.5 120 78 212q0 15 1.5 31t5.5 33l92 434h116l-93-437q-3-13-4-24t-1-22q0-61 37-93t102-32q38 0 71.5 11t60.5 33 45.5 54 27.5 73l93 437h116l-92-434zM446 854q0-21 14-34t34-13 33.5 13 13.5 34q0 20-13.5 34T494 902t-34-14-14-34zm155 0q0-22-8.5-41t-23-33-34-22-41.5-8q-23 0-42.5 8T418 780t-22.5 33-8.5 41q0 45 31 74.5t76 29.5q22 0 41.5-8t34-22 23-33 8.5-41z"/><glyph glyph-name="uring" unicode="ů" horiz-adv-x="578" d="M357 35q-32-24-67-33.5T220-8q-36 0-67 12T99 38.5t-36 55T50 167q0 26 6 56l59 277h110l-56-265q-6-29-6-50 0-46 24.5-67T259 97q70 0 118 56l74 347h110L455 0H350zm-33 620q0-20 14-33.5t34-13.5 33.5 13.5T419 655t-13.5 33.5T372 702t-34-13.5-14-33.5zm155 0q0-22-8.5-41t-23-33-34-22-41.5-8q-23 0-42.5 8T296 581t-22.5 33-8.5 41 8.5 41 23 33 34 22 41.5 8 41.5-8 34-22 23-33 8.5-41z"/><glyph glyph-name="Uhungarumlaut" unicode="Ű" horiz-adv-x="730" d="M656 276q-14-68-39.5-120.5t-65.5-89T456 11 328-8Q273-8 227 7t-79 43.5T96.5 120 78 212q0 15 1.5 31t5.5 33l92 434h116l-93-437q-3-13-4-24t-1-22q0-61 37-93t102-32q38 0 71.5 11t60.5 33 45.5 54 27.5 73l93 437h116l-92-434zm-17 637h124L615 768h-81zm-203 0h124L412 768h-81z"/><glyph glyph-name="uhungarumlaut" unicode="ű" horiz-adv-x="578" d="M506 710h118L468 545h-82zm-179 0h118L289 545h-82zm30-675q-32-24-67-33.5T220-8q-36 0-67 12T99 38.5t-36 55T50 167q0 26 6 56l59 277h110l-56-265q-6-29-6-50 0-46 24.5-67T259 97q70 0 118 56l74 347h110L455 0H350z"/><glyph glyph-name="Uogonek" unicode="Ų" horiz-adv-x="730" d="M312-189q-41 0-67 26t-25 61q0 31 18.5 55.5T287-5q-47 5-85 22t-66 45-43 65.5T78 212q0 15 1.5 31t5.5 33l92 434h116l-93-437q-3-13-4-24t-1-22q0-61 37-93t102-32q38 0 71.5 11t60.5 33 45.5 54 27.5 73l93 437h116l-92-434q-24-113-81.5-184.5T414 0q-47-19-65-41.5T331-82q2-28 36-28 13 0 24 4l-14-70q-16-7-32.5-10t-32.5-3z"/><glyph glyph-name="uogonek" unicode="ų" horiz-adv-x="578" d="M357 35q-32-24-67-33.5T220-8q-36 0-67 12T99 38.5t-36 55T50 167q0 26 6 56l59 277h110l-56-265q-6-29-6-50 0-46 24.5-67T259 97q70 0 118 56l74 347h110L455 0q-45-22-61-41.5T378-76q0-12 9-19.5t26-7.5q12 0 21 3l-15-70q-14-7-29-9.5t-31-2.5q-38 0-63 22t-25 57q0 18 7 33t18 27.5 25 23T350 0z"/><glyph glyph-name="Wcircumflex" unicode="Ŵ" horiz-adv-x="874" d="M99 710h115l52-412 265 420 86-425 229 417h124L572-8l-93 458L190-8zm271 123l193 91 142-99-45-65-104 73-152-73z"/><glyph glyph-name="wcircumflex" unicode="ŵ" horiz-adv-x="709" d="M59 500h111l30-327 205 335 61-338 171 330h119L492 0h-82l-51 261L196 0h-85zm183 113l195 105 143-111-50-64-101 81-150-81z"/><glyph glyph-name="Ycircumflex" unicode="Ŷ" horiz-adv-x="644" d="M275 299L100 710h123l122-300 247 300h147L391 299 327 0H211zm-26 534l193 91 142-99-45-65-104 73-152-73z"/><glyph glyph-name="ycircumflex" unicode="ŷ" horiz-adv-x="512" d="M150 37L56 500h111l65-344 208 344h125L133-184H10zm-5 576l195 105 143-111-50-64-101 81-150-81z"/><glyph glyph-name="Ydieresis" unicode="Ÿ" horiz-adv-x="644" d="M275 299L100 710h123l122-300 247 300h147L391 299 327 0H211zm115 543q0-29-19.5-48.5T322 774q-27 0-47.5 19.5T254 842q0 28 20.5 48t47.5 20q29 0 48.5-20t19.5-48zm230 0q0-29-19.5-48.5T552 774q-28 0-48 19.5T484 842q0 28 20 48t48 20q29 0 48.5-20t19.5-48z"/><glyph glyph-name="Zacute" unicode="Ź" horiz-adv-x="606" d="M445 596H126l24 114h528L190 114h354L520 0H-43zm5 317h134L436 768h-91z"/><glyph glyph-name="zacute" unicode="ź" horiz-adv-x="502" d="M316 402H80l21 98h430L178 98h254L411 0H-37zm46 308h133L339 545h-97z"/><glyph glyph-name="Zdotaccent" unicode="Ż" horiz-adv-x="606" d="M445 596H126l24 114h528L190 114h354L520 0H-43zm69 246q0-30-21-51t-51-21q-29 0-50.5 21T370 842t21.5 51 50.5 21q30 0 51-21t21-51z"/><glyph glyph-name="zdotaccent" unicode="ż" horiz-adv-x="502" d="M316 402H80l21 98h430L178 98h254L411 0H-37zm100 227q0-30-21-50.5T344 558q-29 0-50 20.5T273 629t21 50.5 50 20.5q30 0 51-20.5t21-50.5z"/><glyph glyph-name="Zcaron" unicode="Ž" horiz-adv-x="606" d="M445 596H126l24 114h528L190 114h354L520 0H-43zm172 254l-193-91-142 99 45 65 104-73 152 73z"/><glyph glyph-name="zcaron" unicode="ž" horiz-adv-x="502" d="M316 402H80l21 98h430L178 98h254L411 0H-37zm207 256L328 553 185 664l50 64 101-81 150 81z"/><glyph glyph-name="uni0218" unicode="Ș" horiz-adv-x="536" d="M489 198q0-44-18-81.5t-50.5-65T342 8 241-8Q158-8 96 30.5T2 132l105 66q9-19 22.5-36t30.5-30.5 39.5-21.5 49.5-8q54 0 86.5 23.5T368 188q0 35-21 59.5T288 299l-50 37q-60 45-91 90t-31 105q0 43 18 77.5t48.5 59 71 37.5 85.5 13q66 0 122-27.5t91-85.5l-105-66q-38 69-117 69-40 0-68.5-21T233 530q0-31 20.5-54t58.5-52l50-37q25-19 48.5-39t40.5-43 27.5-49.5T489 198zM179-50h114L152-243H79z"/><glyph glyph-name="uni0219" unicode="ș" horiz-adv-x="430" d="M375 146q0-35-15-63.5T320.5 34t-57-31T197-8Q123-8 75.5 22T5 118l97 43q14-39 38.5-55.5T202 89q23 0 43.5 11.5T266 135q0 20-14 34t-46 32l-34 20q-21 12-39.5 26.5t-32.5 32T77.5 317 69 360q0 33 13 60.5t36 47 54 30 67 10.5q54 0 98.5-25t67.5-82l-99-44q-11 29-29 41t-44 12q-23 0-39-10.5T178 368q0-17 11.5-30.5T227 309l34-20q21-12 41-26t36.5-31 26.5-38.5 10-47.5zM131-50h114L104-243H31z"/><glyph glyph-name="uni021A" unicode="Ț" horiz-adv-x="516" d="M273 596H90l24 114h483l-24-114H389L262 0H146zM137-50h114L110-243H37z"/><glyph glyph-name="uni021B" unicode="ț" horiz-adv-x="382" d="M63 500h95l20 94 123 56-32-150h131l-21-98H248l-48-227q-2-9-3-17t-1-14q0-23 13-33t46-10h68L302 0h-75Q82 0 82 117q0 13 2 27t5 30l48 228H63v98zm50-550h114L86-243H13z"/><glyph glyph-name="uni0232" unicode="Ȳ" horiz-adv-x="644" d="M275 299L100 710h123l122-300 247 300h147L391 299 327 0H211zm16 576h306l-16-76H275z"/><glyph glyph-name="uni0233" unicode="ȳ" horiz-adv-x="512" d="M150 37L56 500h111l65-344 208 344h125L133-184H10zm40 640h306l-16-76H174z"/><glyph glyph-name="uni0237" unicode="ȷ" horiz-adv-x="258" d="M-98-80h40q38 0 55 15t25 53l109 512h110L131-18q-10-45-25.5-77T67-146.5 11.5-175t-76.5-9h-55z"/><glyph glyph-name="circumflex" unicode="ˆ" horiz-adv-x="429" d="M175 613l195 105 143-111-50-64-101 81-150-81z"/><glyph glyph-name="caron" unicode="ˇ" horiz-adv-x="435" d="M523 658L328 553 185 664l50 64 101-81 150 81z"/><glyph glyph-name="breve" unicode="˘" horiz-adv-x="426" d="M535 710q-6-33-22-61t-40.5-49-56-32.5T350 556q-38 0-67 13t-49 34-30.5 49-10.5 58h75q3-40 28-62.5t60-22.5q39 0 67 23.5t36 61.5h76z"/><glyph glyph-name="dotaccent" unicode="˙" horiz-adv-x="232" d="M321 629q0-30-21-50.5T249 558q-29 0-50 20.5T178 629t21 50.5 50 20.5q30 0 51-20.5t21-50.5z"/><glyph glyph-name="ring" unicode="˚" horiz-adv-x="309" d="M246 655q0-20 14-33.5t34-13.5 33.5 13.5T341 655t-13.5 33.5T294 702t-34-13.5-14-33.5zm155 0q0-22-8.5-41t-23-33-34-22-41.5-8q-23 0-42.5 8T218 581t-22.5 33-8.5 41 8.5 41 23 33 34 22 41.5 8 41.5-8 34-22 23-33 8.5-41z"/><glyph glyph-name="ogonek" unicode="˛" horiz-adv-x="276" d="M127-182q-38 0-63 22t-25 57q0 36 22.5 61T113 0h110q-45-22-61-41.5T146-76q0-12 9-19.5t26-7.5q12 0 21 3l-15-70q-14-7-29-9.5t-31-2.5z"/><glyph glyph-name="tilde" unicode="˜" horiz-adv-x="472" d="M174 562q7 33 21 56.5t33 38.5 40.5 22 43.5 7q21 0 37.5-6.5t30-14.5 25.5-14.5 24-6.5q39 0 56 43h77q-6-34-20-57.5T509.5 591t-41-21.5T424 563t-38.5 6.5T355 584t-25.5 14.5T306 605q-39 0-55-43h-77z"/><glyph glyph-name="hungarumlaut" unicode="˝" horiz-adv-x="487" d="M470 710h118L432 545h-82zm-179 0h118L253 545h-82z"/><glyph glyph-name="Wgrave" unicode="Ẁ" horiz-adv-x="874" d="M99 710h115l52-412 265 420 86-425 229 417h124L572-8l-93 458L190-8zm313 203h115l55-145h-82z"/><glyph glyph-name="wgrave" unicode="ẁ" horiz-adv-x="709" d="M59 500h111l30-327 205 335 61-338 171 330h119L492 0h-82l-51 261L196 0h-85zm210 210h133l49-165h-75z"/><glyph glyph-name="Wacute" unicode="Ẃ" horiz-adv-x="874" d="M99 710h115l52-412 265 420 86-425 229 417h124L572-8l-93 458L190-8zm501 203h134L586 768h-91z"/><glyph glyph-name="wacute" unicode="ẃ" horiz-adv-x="709" d="M59 500h111l30-327 205 335 61-338 171 330h119L492 0h-82l-51 261L196 0h-85zm426 210h133L462 545h-97z"/><glyph glyph-name="Wdieresis" unicode="Ẅ" horiz-adv-x="874" d="M99 710h115l52-412 265 420 86-425 229 417h124L572-8l-93 458L190-8zm413 132q0-29-19.5-48.5T444 774q-27 0-47.5 19.5T376 842q0 28 20.5 48t47.5 20q29 0 48.5-20t19.5-48zm230 0q0-29-19.5-48.5T674 774q-28 0-48 19.5T606 842q0 28 20 48t48 20q29 0 48.5-20t19.5-48z"/><glyph glyph-name="wdieresis" unicode="ẅ" horiz-adv-x="709" d="M59 500h111l30-327 205 335 61-338 171 330h119L492 0h-82l-51 261L196 0h-85zm324 129q0-28-20-47.5T315 562t-48 19.5-20 47.5 20 48 48 20 48-20 20-48zm229 0q0-28-19.5-47.5T545 562q-29 0-48 19.5T478 629t19 48 48 20q28 0 47.5-20t19.5-48z"/><glyph glyph-name="uni1ECA" unicode="Ị" horiz-adv-x="292" d="M186 710h116L151 0H35zm-47-833q0-30-21-50.5T67-194q-29 0-50 20.5T-4-123t21 50.5T67-52q30 0 51-20.5t21-50.5z"/><glyph glyph-name="uni1ECB" unicode="ị" horiz-adv-x="250" d="M144 596q-13 20-13 43 0 31 22 55t60 24q32 0 49.5-21.5T280 649q0-15-6.5-29T253 596H144zm-21-96h110L127 0H17zm-6-623q0-30-21-50.5T45-194q-29 0-50 20.5T-26-123t21 50.5T45-52q30 0 51-20.5t21-50.5z"/><glyph glyph-name="uni1ECC" unicode="Ọ" horiz-adv-x="826" d="M187 336q0-47 13.5-89.5t41-74.5 69-51 96.5-19q61 0 112 22t88 59.5 57 87T684 374q0 47-13.5 89.5t-41 74.5-69 51-96.5 19q-62 0-112.5-22T264 526.5t-57-87T187 336zm618 49q0-75-27-146t-78.5-125.5-127.5-88T397-8q-80 0-141.5 28T152 94.5 88 201 66 325q0 75 27 146t78.5 125.5 127.5 88T474 718q79 0 141-28t104-74.5T783 509t22-124zM445-123q0-30-21-50.5T373-194q-29 0-50 20.5T302-123t21 50.5T373-52q30 0 51-20.5t21-50.5z"/><glyph glyph-name="uni1ECD" unicode="ọ" horiz-adv-x="599" d="M153 237q0-33 10.5-59t28.5-44 42.5-27.5T286 97q34 0 63.5 12.5T401 144t34 53 12 67q0 33-10.5 59T408 366.5t-42.5 27T314 403q-35 0-64-12.5T199 356t-34-52.5-12-66.5zm408 37q0-59-22-110.5T479 74t-90-60T276-8q-57 0-101 19.5t-74.5 52-46 75T39 227q0 58 21.5 109.5t60 89.5 90.5 60 113 22q57 0 101-19.5t74.5-52 46-74.5 15.5-88zM292-123q0-30-21-50.5T220-194q-29 0-50 20.5T149-123t21 50.5T220-52q30 0 51-20.5t21-50.5z"/><glyph glyph-name="uni1EE4" unicode="Ụ" horiz-adv-x="730" d="M656 276q-14-68-39.5-120.5t-65.5-89T456 11 328-8Q273-8 227 7t-79 43.5T96.5 120 78 212q0 15 1.5 31t5.5 33l92 434h116l-93-437q-3-13-4-24t-1-22q0-61 37-93t102-32q38 0 71.5 11t60.5 33 45.5 54 27.5 73l93 437h116l-92-434zM356-123q0-30-21-50.5T284-194q-29 0-50 20.5T213-123t21 50.5T284-52q30 0 51-20.5t21-50.5z"/><glyph glyph-name="uni1EE5" unicode="ụ" horiz-adv-x="578" d="M357 35q-32-24-67-33.5T220-8q-36 0-67 12T99 38.5t-36 55T50 167q0 26 6 56l59 277h110l-56-265q-6-29-6-50 0-46 24.5-67T259 97q70 0 118 56l74 347h110L455 0H350zm-80-158q0-30-21-50.5T205-194q-29 0-50 20.5T134-123t21 50.5T205-52q30 0 51-20.5t21-50.5z"/><glyph glyph-name="Ygrave" unicode="Ỳ" horiz-adv-x="644" d="M275 299L100 710h123l122-300 247 300h147L391 299 327 0H211zm34 614h115l55-145h-82z"/><glyph glyph-name="ygrave" unicode="ỳ" horiz-adv-x="512" d="M150 37L56 500h111l65-344 208 344h125L133-184H10zm44 673h133l49-165h-75z"/><glyph glyph-name="endash" unicode="–" horiz-adv-x="579" d="M79 329h453l-22-105H57z"/><glyph glyph-name="emdash" unicode="—" horiz-adv-x="879" d="M79 329h753l-22-105H57z"/><glyph glyph-name="quoteleft" unicode="‘" horiz-adv-x="254" d="M205 564h58l-30-141H92l30 141 90 146h68z"/><glyph glyph-name="quoteright" unicode="’" horiz-adv-x="244" d="M179 569h-58l30 141h141l-30-141-90-146h-68z"/><glyph glyph-name="quotesinglbase" unicode="‚" horiz-adv-x="269" d="M76 0H18l30 141h141L159 0 69-146H1z"/><glyph glyph-name="quotedblleft" unicode="“" horiz-adv-x="460" d="M205 564h58l-30-141H92l30 141 90 146h68zm206 0h58l-30-141H298l30 141 90 146h68z"/><glyph glyph-name="quotedblright" unicode="”" horiz-adv-x="451" d="M179 568h-58l30 141h141l-30-141-90-146h-68zm206 0h-58l30 141h141l-30-141-90-146h-68z"/><glyph glyph-name="quotedblbase" unicode="„" horiz-adv-x="475" d="M76 0H18l30 141h141L159 0 69-146H1zm206 0h-58l30 141h141L365 0l-90-146h-68z"/><glyph glyph-name="bullet" unicode="•" horiz-adv-x="413" d="M216 166q-28 0-53 10.5t-43.5 29-29 43.5T80 302t10.5 53 29 43.5 43.5 29 53 10.5 53-10.5 43.5-29 29-43.5 10.5-53-10.5-53-29-43.5-43.5-29-53-10.5z"/><glyph glyph-name="ellipsis" unicode="…" horiz-adv-x="741" d="M191 79q0-36-25-61.5T105-8 43.5 17.5 18 79q0 18 7 33.5t18.5 27T71 158t34 7 33.5-7 27.5-18.5 18.5-27T191 79zm239 0q0-36-25-61.5T344-8t-61.5 25.5T257 79q0 18 7 33.5t18.5 27T310 158t34 7 33.5-7 27.5-18.5 18.5-27T430 79zm239 0q0-36-25-61.5T583-8t-61.5 25.5T496 79q0 18 7 33.5t18.5 27T549 158t34 7 33.5-7 27.5-18.5 18.5-27T669 79z"/><glyph glyph-name="guilsinglleft" unicode="‹" horiz-adv-x="319" d="M40 256l202 219 66-60-160-170 83-183-84-37z"/><glyph glyph-name="guilsinglright" unicode="›" horiz-adv-x="318" d="M279 244L77 25 11 85l160 170-83 183 84 37z"/><glyph glyph-name="Euro" unicode="€" horiz-adv-x="741" d="M104 459h74q20 54 55 101t84 82.5T428 698t135 20q75 0 130.5-23t96.5-63l-61-101q-29 35-74 56t-102 21q-92 0-155.5-41.5T303 459h383l-38-62H282q-6-30-6-61v-22h322l-38-62H288q10-32 28-59.5t44-47.5 60-31.5 76-11.5q38 0 69.5 7.5T625 130L596 8q-23-8-51.5-12T490-8q-69 0-125 20.5t-97.5 56-68 82.5T162 252H35l38 62h82v11q0 36 6 72H66z"/><glyph glyph-name="minus" unicode="−" horiz-adv-x="590" d="M82 321h437v-88H82v88z"/><glyph glyph-name="uniFB01" unicode="ﬁ" horiz-adv-x="620" d="M84 500h85q-11 15-17 34.5t-6 41.5q0 58 46.5 96T326 710h121l-21-98h-99q-35 0-58-14t-23-46q0-22 12.5-36t36.5-16h107l-21-98H251L166 0H56l85 402H63zm430 96q-13 20-13 43 0 31 22 55t60 24q32 0 49.5-21.5T650 649q0-15-6.5-29T623 596H514zm-21-96h110L497 0H387z"/><glyph glyph-name="uniFB02" unicode="ﬂ" horiz-adv-x="620" d="M84 500h85q-11 15-17 34.5t-6 41.5q0 58 46.5 96T326 710h121l-21-98h-99q-35 0-58-14t-23-46q0-22 12.5-36t36.5-16h107l-21-98H251L166 0H56l85 402H63zm454 210h110L497 0H387z"/><glyph glyph-name="glyph332" horiz-adv-x="232" d="M161-123q0-30-21-50.5T89-194q-29 0-50 20.5T18-123t21 50.5T89-52q30 0 51-20.5t21-50.5z"/><glyph glyph-name="glyph334" horiz-adv-x="283" d="M103-50h114L76-243H3z"/><glyph glyph-name="glyph338" horiz-adv-x="500" d="M369 710h109l-91-163h-75z"/><glyph glyph-name="glyph339" horiz-adv-x="323" d="M332 913h134L318 768h-91z"/><glyph glyph-name="glyph340" horiz-adv-x="427" d="M580 917q-6-33-22-61t-40.5-49-56-32.5T395 763q-38 0-67 13t-49 34-30.5 49-10.5 58h75q3-40 28-62.5t60-22.5q39 0 67 23.5t36 61.5h76z"/><glyph glyph-name="glyph341" horiz-adv-x="425" d="M561 850l-193-91-142 99 45 65 104-73 152 73z"/><glyph glyph-name="glyph342" horiz-adv-x="423" d="M220 833l193 91 142-99-45-65-104 73-152-73z"/><glyph glyph-name="glyph343" horiz-adv-x="468" d="M365 842q0-29-19.5-48.5T297 774q-27 0-47.5 19.5T229 842q0 28 20.5 48t47.5 20q29 0 48.5-20t19.5-48zm230 0q0-29-19.5-48.5T527 774q-28 0-48 19.5T459 842q0 28 20 48t48 20q29 0 48.5-20t19.5-48z"/><glyph glyph-name="glyph344" horiz-adv-x="233" d="M368 842q0-30-21-51t-51-21q-29 0-50.5 21T224 842t21.5 51 50.5 21q30 0 51-21t21-51z"/><glyph glyph-name="glyph345" horiz-adv-x="315" d="M245 913h115l55-145h-82z"/><glyph glyph-name="glyph346" horiz-adv-x="514" d="M535 913h124L511 768h-81zm-203 0h124L308 768h-81z"/><glyph glyph-name="glyph347" horiz-adv-x="406" d="M236 875h306l-16-76H220z"/><glyph glyph-name="glyph348" horiz-adv-x="309" d="M288 854q0-21 14-34t34-13 33.5 13 13.5 34q0 20-13.5 34T336 902t-34-14-14-34zm155 0q0-22-8.5-41t-23-33-34-22-41.5-8q-23 0-42.5 8T260 780t-22.5 33-8.5 41q0 45 31 74.5t76 29.5q22 0 41.5-8t34-22 23-33 8.5-41z"/><glyph glyph-name="glyph349" horiz-adv-x="472" d="M220 778q7 33 21 56.5t33 38.5 40.5 22 43.5 7q21 0 37.5-6.5t30-14.5 25.5-14.5 24-6.5q39 0 56 43h77q-6-34-20-57.5T555.5 807t-41-21.5T470 779t-38.5 6.5T401 800t-25.5 14.5T352 821q-39 0-55-43h-77z"/></font>
</defs>
</svg>
