<svg xmlns="http://www.w3.org/2000/svg" version="1.1"><defs><font id="Font" horiz-adv-x="590"><font-face font-family="Font" font-weight="400" font-style="italic" font-stretch="normal" units-per-em="1000" panose-1="2 11 5 0 3 0 0 0 0 0" ascent="800" descent="-200" x-height="500" cap-height="710" bbox="-118 -229 1132 940" underline-thickness="75" underline-position="-164" slope="-12" unicode-range="U+000D-FB02"/><glyph glyph-name=".notdef" horiz-adv-x="496"/><glyph glyph-name="glyph1" horiz-adv-x="0"/><glyph glyph-name="uni000D" horiz-adv-x="240"/><glyph glyph-name="space" horiz-adv-x="240"/><glyph glyph-name="exclam" unicode="!" horiz-adv-x="268" d="M159 120q6-7 9.5-20t3.5-24q0-38-25-61T87-8Q61-8 42.5 9.5T24 52q0 23 9.5 39T59 120h100zm-31 326l56 264h88l-56-264-66-231H96z"/><glyph glyph-name="quotedbl" unicode="&quot;" horiz-adv-x="416" d="M133 710h76V456h-76v254zm202 0h76V456h-76v254z"/><glyph glyph-name="numbersign" unicode="#" horiz-adv-x="704" d="M417 201H237L174 0H97l63 201H41v70h141l54 173H115v70h143l61 196h77l-61-196h180l61 196h76l-61-196h119v-70H569l-54-173h120v-70H493L430 0h-76zm-158 70h180l54 173H313z"/><glyph glyph-name="dollar" unicode="$" horiz-adv-x="533" d="M177-1Q118 13 74.5 47.5T7 130l77 47q9-20 24-39t35-33.5T189.5 81t59.5-9q36 0 63.5 9.5t45.5 25 27.5 36T395 185q0 39-22 68.5T306 310l-69 42q-57 42-87 86t-30 102q0 40 16 73t44.5 56 67 35.5T330 718l18 80h74l-19-88q42-11 77-35.5t61-66.5l-73-46q-23 39-60 58t-81 19q-24 0-46.5-6t-40-18-27.5-31-9-44q2-37 22-63t60-55l69-43q27-19 50-39.5t40-43.5 26.5-49.5T481 189q0-40-15.5-75T421 52 348.5 9 250-8l-17-80h-74z"/><glyph glyph-name="percent" unicode="%" horiz-adv-x="1082" d="M289 388q27 0 50 10t40.5 27.5 27.5 41 10 50.5-10 50.5-27.5 41T339 636t-50 10-50.5-10-40.5-27.5-27-41-10-50.5 10-50.5 27-41 40.5-27.5 50.5-10zm0-68q-41 0-77 15.5T149.5 378t-42 62.5T92 517q0 40 15.5 76t42 63 62.5 42.5 77 15.5q40 0 76-15.5t63-42.5 42.5-63 15.5-76q0-41-15.5-76.5T428 378t-63-42.5-76-15.5zm487 390h85L351 0h-85zm62-646q27 0 50 10t40.5 27.5 27.5 41 10 50.5-10 50.5-27.5 41T888 312t-50 10-50.5-10-40.5-27.5-27-41-10-50.5 10-50.5 27-41T787.5 74 838 64zm0-68q-41 0-77 15.5T698.5 54t-42 62.5T641 193q0 40 15.5 76t42 63 62.5 42.5 77 15.5q40 0 76-15.5t63-42.5 42.5-63 15.5-76q0-41-15.5-76.5T977 54t-63-42.5T838-4z"/><glyph glyph-name="ampersand" unicode="&amp;" horiz-adv-x="732" d="M239-8q-35 0-67.5 11.5t-58 33.5T73 89.5 58 159q0 44 13 77t38 60 62.5 50.5T257 395q-19 27-32.5 59.5T211 529t15 77 42 60 63.5 38.5T411 718q33 0 61-11t49-30 32.5-44.5T565 577q0-32-14-59.5t-39-51-58-44.5-72-40l-6-3 110-150 136 132 52-61-139-137L656 0H548l-77 103q-29-26-56-46.5t-54.5-35T303-.5 239-8zm11 77q48 0 89 28.5t85 70.5L299 337l-7-4q-35-18-62.5-35.5t-46.5-37-28.5-41.5-9.5-49q0-49 31-75t74-26zm43 471q0-32 11.5-55t31.5-51l16 8q58 29 94 57.5t36 67.5q0 35-22 56t-60 21q-20 0-39.5-7.5t-34.5-21-24-33-9-42.5z"/><glyph glyph-name="quotesingle" unicode="'" horiz-adv-x="214" d="M133 710h76V456h-76v254z"/><glyph glyph-name="parenleft" unicode="(" horiz-adv-x="266" d="M78-142Q60-78 50.5-14T41 113q0 161 53.5 318T266 744l69-32Q223 560 171 417.5T119 126q0-57 7.5-118T150-113l-72-29z"/><glyph glyph-name="parenright" unicode=")" horiz-adv-x="266" d="M210 744q18-64 27.5-128t9.5-127q0-161-53.5-318T22-142l-69 32Q65 42 117 184.5T169 476q0 57-7.5 118T138 715l72 29z"/><glyph glyph-name="asterisk" unicode="*" horiz-adv-x="455" d="M287 477l-82-111-52 35 81 112-132 45 19 62 134-45v135h63V576l133 43 19-60-131-44 82-113-53-37z"/><glyph glyph-name="plus" unicode="+" d="M82 310h183v178h71V310h183v-70H336V58h-71v182H82v70z"/><glyph glyph-name="comma" unicode="," horiz-adv-x="257" d="M73 0H22l26 123h122L143-1 56-142H-1z"/><glyph glyph-name="hyphen" unicode="-" horiz-adv-x="374" d="M80 318h243l-19-89H61z"/><glyph glyph-name="period" unicode="." horiz-adv-x="249" d="M169 66q0-31-21.5-52.5T95-8Q65-8 43 13.5T21 66t22 52.5T95 140q31 0 52.5-21.5T169 66z"/><glyph glyph-name="slash" unicode="/" horiz-adv-x="364" d="M336 710h80L75 0H-6z"/><glyph glyph-name="zero" unicode="0" d="M266 76q54 0 94 39.5t66.5 99 39.5 128T479 470q0 86-31 124.5T368 633q-36 0-65.5-18.5t-53-49-41-71-29-84T162 323t-6-83q0-87 31-125.5T266 76zm-6-84q-44 0-79.5 16.5t-61.5 48-40 78T65 240q0 56 8.5 112.5t26 110 43 100 60 81 77 54.5 94.5 20q43 0 79.5-16.5t62-48.5 40-78.5T570 469q0-55-8.5-112t-26-110.5-43.5-100-60.5-81-77.5-54T260-8z"/><glyph glyph-name="one" unicode="1" d="M399 572L145 465l20 97 349 148L363 0h-86z"/><glyph glyph-name="two" unicode="2" d="M320 298q37 34 66.5 62.5T436 415t31 51.5 11 53.5q0 25-9 46.5T444 604t-37.5 24.5T360 637q-30 0-55.5-10T260 599.5 229.5 558 216 506h-85q3 43 22 81.5t49.5 67.5 72.5 46 92 17q47 0 83.5-16t61.5-43 38-62.5 13-73.5q0-34-9-63t-25-54.5-38-49.5-48-48L193 81h297L473 0H-3z"/><glyph glyph-name="three" unicode="3" d="M496 242q0-49-16-94.5t-48-80-80-55T240-8q-72 0-122 30T43 99l78 44q17-33 49.5-51T248 74q36 0 65.5 12.5t50.5 34 32 50.5 11 63q0 30-9.5 55T369 333t-47.5 29.5T256 373h-49l201 256H162l17 81h388L351 435q35-10 62-29t45.5-44.5 28-56T496 242z"/><glyph glyph-name="four" unicode="4" d="M354 179H-18l573 539-99-463h119l-16-76H440L402 0h-86zm16 76l50 239-249-239h199z"/><glyph glyph-name="five" unicode="5" d="M512 242q0-53-17.5-99t-51-79.5-82-52.5T252-8q-69 0-120 31.5T57 103l79 43q15-33 48.5-52.5T260 74q37 0 67.5 12.5t51.5 34 32.5 51T423 235q0 29-9.5 54T387 332.5t-41.5 29T291 372q-72 0-116-47l-55 28 80 357h356l-17-81H267l-42-189q34 12 74 12 51 0 90.5-17.5t67-46.5 41.5-67 14-79z"/><glyph glyph-name="six" unicode="6" d="M531 242q0-52-18-97.5T461.5 65 380 11.5 271-8q-51 0-90.5 17.5T114 56t-41.5 67T58 202q0 53 20.5 98t63.5 99l250 311h107L287 449q8 2 14.5 2.5t16.5.5q51 0 90.5-17.5T475 388t41.5-67 14.5-79zm-384-32q0-60 35.5-98T278 74q38 0 68.5 12.5t51.5 34 32.5 51T442 235q0 29-9.5 54T406 332t-41.5 28.5T310 371q-37 0-67-12.5T191.5 324t-33-51-11.5-63z"/><glyph glyph-name="seven" unicode="7" d="M487 629H154l17 81h469L145 0H47z"/><glyph glyph-name="eight" unicode="8" d="M519 564q0-48-19.5-89T445 408q40-29 61-73t21-92q0-51-17.5-97t-50-80T380 12 275-8q-52 0-92.5 17t-69 45.5-43.5 66T55 199q0 76 38 139t107 93q-34 42-34 96 0 39 13 74t37 61 58.5 41 78.5 15q38 0 69-13t52.5-34 33-49 11.5-58zM144 208q0-60 36.5-97T280 74q36 0 65.5 13t50.5 35 32 51.5 11 62.5q0 29-9.5 54T402 333t-43.5 28-56.5 10q-36 0-65.5-13t-50-35.5-31.5-52-11-62.5zm107 328q0-35 19-58t53-27h13q22 0 40.5 8.5t31 23T427 516t7 40q0 38-23 61t-62 23q-23 0-41-8.5t-30.5-23T258 575t-7-39z"/><glyph glyph-name="nine" unicode="9" d="M488 499q0 60-35.5 98T357 635q-38 0-68.5-12.5t-51.5-34-32.5-51T193 474q0-29 9.5-54t26.5-43 41.5-28.5T325 338q37 0 67 12.5t51.5 34 33 51T488 499zm-384-32q0 52 18 97.5t51.5 79.5 81.5 54 109 20q51 0 90.5-17.5t66.5-47 41.5-67.5 14.5-79q0-53-20.5-98T493 310L244 0H137l211 260q-8-2-14.5-2.5T317 257q-51 0-90.5 17.5T160 321t-41.5 67-14.5 79z"/><glyph glyph-name="colon" unicode=":" horiz-adv-x="284" d="M255 434q0-31-21.5-52.5T181 360q-30 0-52 21.5T107 434t22 52.5 52 21.5q31 0 52.5-21.5T255 434zM177 66q0-31-21.5-52.5T103-8Q73-8 51 13.5T29 66t22 52.5 52 21.5q31 0 52.5-21.5T177 66z"/><glyph glyph-name="semicolon" unicode=";" horiz-adv-x="286" d="M256 434q0-31-21.5-52.5T182 360q-30 0-52 21.5T108 434t22 52.5 52 21.5q31 0 52.5-21.5T256 434zM80 0H29l26 123h122L150-1 63-142H6z"/><glyph glyph-name="equal" unicode="=" d="M77 201h444v-70H77v70zm0 219h444v-70H77v70z"/><glyph glyph-name="question" unicode="?" horiz-adv-x="545" d="M245 356h32q40 0 74 11.5t58.5 32 38 48.5 13.5 60q0 59-35.5 94T330 637q-34 0-62-12t-48.5-32-33-46.5T171 490H86q4 46 23.5 87.5T162 650t77.5 49.5T338 718q47 0 85.5-16t65.5-44 42-65.5 15-80.5q0-47-16.5-88t-47-72-75-50.5T307 277l-12-54h-78zM222-8q-26 0-44.5 17.5T159 52q0 23 9.5 39t25.5 29h100q6-7 9.5-20t3.5-24q0-38-25-61T222-8z"/><glyph glyph-name="at" unicode="@" horiz-adv-x="816" d="M424-8q-81 0-145.5 27t-110 73.5T99 202 75 337q0 85 32 155.5T192.5 613 316 690.5 462 718q73 0 135.5-22T706 633.5t72-98T804 406q0-65-15.5-111.5t-41-75.5-58.5-42.5-67-13.5q-31 0-59 15t-39 39q-23-23-57-37.5T391 165q-36 0-65 13.5t-50 37-32 55-11 66.5q0 45 16.5 85t45.5 70 68.5 47 86.5 17q36 0 63-10t47-28l6 28h72l-51-239q-7-33 4-56t43-23q20 0 38.5 11.5T705 274t22.5 56.5T736 408q0 58-21 104t-58 78-87.5 48.5T461 655q-64 0-121.5-22.5t-100.5-64T170.5 468 145 337q0-59 19-110t54.5-88.5 87.5-59T424 58q45 0 94 10t90 31l25-63Q586 15 529.5 3.5T424-8zm-16 239q28 0 55.5 12.5T510 287l34 157q-17 24-44 35t-54 11-51.5-11-43.5-30.5-30-46-11-58.5q0-54 27-83.5t71-29.5z"/><glyph glyph-name="A" unicode="A" horiz-adv-x="670" d="M435 718L625 0h-95l-48 186H170L43 0H-61zM227 270h234l-64 249z"/><glyph glyph-name="B" unicode="B" horiz-adv-x="642" d="M192 710h208q50 0 88-15t63-39 37.5-55 12.5-64q0-60-30-105.5T487 363q43-18 70-54t27-87q0-107-75.5-164.5T301 0H41zM316 85q84 0 129.5 37.5T491 218q0 22-8.5 41t-25 33.5-42 23T356 324H201L150 85h166zm40 317q72 0 112 35t40 89q0 40-28.5 70T394 626H265l-48-224h139z"/><glyph glyph-name="C" unicode="C" horiz-adv-x="689" d="M643 65Q544-8 403-8q-81 0-143 27.5t-104.5 74T91 200 69 325q0 75 27 146t79.5 125.5 128 88T477 718q85 0 146.5-29.5T727 608l-69-61q-32 38-79 61t-109 23q-69 0-125-24t-96.5-65-62.5-95-22-114q0-50 15.5-95.5t46-81T302 100t106-21q57 0 102.5 16.5T593 140l50-75z"/><glyph glyph-name="D" unicode="D" horiz-adv-x="736" d="M261 85q82 0 149 26.5t114.5 71 73 102.5T623 407q0 46-15.5 86t-45 69.5-72.5 46-98 16.5H265L150 85h111zm-69 625h197q78 0 139.5-23T632 624t64-94 22-116q0-88-34.5-163.5t-95.5-131T443 32 259 0H41z"/><glyph glyph-name="E" unicode="E" horiz-adv-x="555" d="M192 710h413l-19-88H263l-45-215h262l-19-88H199L150 88h323L454 0H41z"/><glyph glyph-name="F" unicode="F" horiz-adv-x="527" d="M192 710h406l-19-88H263l-45-215h248l-19-88H200L132 0H41z"/><glyph glyph-name="G" unicode="G" horiz-adv-x="770" d="M682 77q-58-41-131-63T403-8q-81 0-143 27.5t-104.5 74T91 200 69 325q0 75 27 146t79.5 125.5 128 88T477 718q85 0 153.5-28.5T741 608l-68-61q-32 40-86.5 62T470 631q-69 0-125-24t-96.5-65-62.5-95-22-114q0-50 15.5-95.5t46-81T302 100t106-21q58 0 107 13t87 41l40 186H442l58 88h253L682 77z"/><glyph glyph-name="H" unicode="H" horiz-adv-x="763" d="M192 710h91l-65-303h392l65 303h91L615 0h-91l68 319H200L132 0H41z"/><glyph glyph-name="I" unicode="I" horiz-adv-x="280" d="M192 710h91L132 0H41z"/><glyph glyph-name="J" unicode="J" horiz-adv-x="529" d="M431 202q-12-58-34-98t-52.5-65T275 3 190-8q-39 0-73 10.5T57.5 34 17 85 2 154q0 12 1 23.5T7 203h91q-3-20-3-35 0-48 28-68.5T196 79q53 0 91 30.5t52 93.5l108 507h92L431 202z"/><glyph glyph-name="K" unicode="K" horiz-adv-x="629" d="M192 710h91l-76-354 391 354h115L307 341 586 0H483L204 339 132 0H41z"/><glyph glyph-name="L" unicode="L" horiz-adv-x="519" d="M192 710h91L151 89h319L451 0H41z"/><glyph glyph-name="M" unicode="M" horiz-adv-x="876" d="M194 718l255-384 432 384L728 0h-91l103 483-311-276-191 290L132 0H41z"/><glyph glyph-name="N" unicode="N" horiz-adv-x="782" d="M240 509L132 0H41l153 718 391-521 109 513h91L632-8z"/><glyph glyph-name="O" unicode="O" horiz-adv-x="832" d="M164 333q0-51 15.5-97t46-81T302 99.5 408 79q69 0 125 24t96.5 65 62.5 95 22 114q0 51-15.5 97t-46 81-76.5 55.5T470 631q-69 0-125-24t-96.5-65-62.5-95-22-114zm644 52q0-75-27-146t-79-125.5-128-88T400-8q-80 0-141.5 28T155 94 91 200 69 325q0 75 27 146t79.5 125.5 128 88T477 718q79 0 141-28t104-74 64-106.5T808 385z"/><glyph glyph-name="P" unicode="P" horiz-adv-x="576" d="M192 710h188q54 0 95-14.5t68-40 40.5-60T597 520q0-55-19-100t-56-76.5-92-49T303 277H191L132 0H41zm131-349q85 0 133.5 43.5T505 519q0 48-32 77.5T372 626H265l-56-265h114z"/><glyph glyph-name="Q" unicode="Q" horiz-adv-x="843" d="M808 385q0-75-27-146t-79-126l81-91-65-58-83 94Q587 27 528.5 9.5T400-8q-80 0-141.5 28T155 94 91 200 69 325q0 75 27 146t79.5 125.5 128 88T477 718q79 0 141-28t104-74 64-106.5T808 385zm-644-52q0-51 15.5-97t46-81T302 99.5 408 79q48 0 90.5 12t77.5 34l-87 100 64 57 89-101q35 40 53.5 90.5T714 377q0 51-15.5 97t-46 81-76.5 55.5T470 631q-69 0-125-24t-96.5-65-62.5-95-22-114z"/><glyph glyph-name="R" unicode="R" horiz-adv-x="628" d="M295 315h-96L132 0H41l151 710h199q51 0 89.5-13t64-36.5 38.5-56 13-71.5q0-91-54.5-146.5T390 318L562 0H462zm40 79q82 0 125.5 37t43.5 96q0 47-31 73.5T378 627H265l-49-233h119z"/><glyph glyph-name="S" unicode="S" horiz-adv-x="530" d="M480 189q0-41-16.5-76.5T416 50 340.5 7.5 241-8q-41 0-77.5 10.5T97 31.5 44 75 6 130l83 51q9-20 24-39t34.5-33 45-22.5T248 78q64 0 100.5 29t36.5 74q0 42-23 71.5T296 312l-60 42q-57 42-87 85t-30 101q0 41 16.5 74t46 56 68.5 35.5 84 12.5q62 0 116.5-26t89.5-84l-82-52q-44 76-132 76-48 0-81.5-24T211 540q0-37 21-63t61-55l61-43q27-19 50-39.5t40-43.5 26.5-49.5T480 189z"/><glyph glyph-name="T" unicode="T" horiz-adv-x="506" d="M285 622H92l19 88h478l-19-88H376L244 0h-91z"/><glyph glyph-name="U" unicode="U" horiz-adv-x="730" d="M649 272q-14-67-40-119t-65-88-92.5-54.5T328-8q-54 0-99 14.5t-77 42-50 67T84 206q0 34 7 66l93 438h91l-94-440q-6-29-6-52 0-69 42.5-104T332 79q85 0 145 48.5T557 270l94 440h91l-93-438z"/><glyph glyph-name="V" unicode="V" horiz-adv-x="647" d="M97 710h93l118-514 337 514h102L269-8z"/><glyph glyph-name="W" unicode="W" horiz-adv-x="872" d="M104 710h86l54-470 289 478 82-484 253 476h95L574-8l-82 505L187-8z"/><glyph glyph-name="X" unicode="X" horiz-adv-x="635" d="M292 372L122 710h98l136-269 249 269h112L395 362 578 0h-99L331 293 60 0H-52z"/><glyph glyph-name="Y" unicode="Y" horiz-adv-x="625" d="M278 300L103 710h100l132-322 267 322h114L369 300 305 0h-91z"/><glyph glyph-name="Z" unicode="Z" horiz-adv-x="594" d="M480 622H133l19 88h513L140 89h388L509 0H-45z"/><glyph glyph-name="bracketleft" unicode="[" horiz-adv-x="307" d="M194 741h187l-15-71H258L100-70h108l-15-71H6z"/><glyph glyph-name="bracketright" unicode="]" horiz-adv-x="306" d="M134-141H-53l15 71H70l158 740H120l15 71h187z"/><glyph glyph-name="underscore" unicode="_" horiz-adv-x="553" d="M15 0h424l-16-73H-1z"/><glyph glyph-name="grave" unicode="`" horiz-adv-x="271" d="M193 710h104l56-165h-61z"/><glyph glyph-name="a" unicode="a" horiz-adv-x="610" d="M408 44q-29-23-65.5-37.5T256-8t-90 18-68 49-42.5 72.5T41 219q0 57 21 109.5t59.5 92T213 484t118 24q51 0 91-16t68-43l11 51h87L482 0h-83zM275 74q42 0 81.5 17.5T425 141l45 214q-21 34-60 52.5T328 426q-41 0-76.5-15t-62-42-42-63.5T132 226q0-69 39-110.5T275 74z"/><glyph glyph-name="b" unicode="b" horiz-adv-x="607" d="M173 710h86l-54-251q28 21 64 35t84 14q50 0 90-18t67.5-49 42-72.5T567 281q0-57-21-109.5t-59-92T395.5 16 278-8q-51 0-91 15.5T118 49L108 0H22zm161-284q-42 0-81.5-18T184 358l-46-214q21-34 60.5-52T281 74q41 0 76.5 15t62 42 42 63.5T477 274q0 69-39 110.5T334 426z"/><glyph glyph-name="c" unicode="c" horiz-adv-x="529" d="M475 68q-39-35-87.5-55.5T279-8q-57 0-101 19.5t-74.5 52-46 75T42 227q0 58 21.5 109.5T123 426t90 60 113 22q69 0 118-27.5t78-78.5l-73-49q-20 35-53.5 54T319 426q-40 0-74-14.5t-59-40-39.5-61T132 234q0-38 12.5-68t33.5-50.5 49-31T287 74q40 0 72 14.5t58 39.5l58-60z"/><glyph glyph-name="d" unicode="d" horiz-adv-x="610" d="M407 43q-29-22-65.5-36.5T255-8t-89.5 18T98 59t-42.5 72.5T41 219q0 57 21 109.5t59.5 92T213 484t118 24q51 0 90.5-16t68.5-43l56 261h87L482 0h-83zM275 74q42 0 81.5 17.5T425 141l45 214q-21 34-60 52.5T328 426q-41 0-76.5-15t-62-42-42-63.5T132 226q0-69 39-110.5T275 74z"/><glyph glyph-name="e" unicode="e" horiz-adv-x="570" d="M479 70q-38-36-89-57T279-8q-57 0-101 19.5t-74.5 52-46 75T42 227q0 58 21.5 109.5T123 426t90 60 113 22q55 0 95.5-18.5t67.5-49 40.5-70T543 288q0-31-6-59H132q1-37 13.5-66t33.5-48.5 48.5-30T286 74q41 0 75 15t60 41zM319 429q-63 0-110-33.5T142 304h307q-1 58-37 91.5T319 429z"/><glyph glyph-name="f" unicode="f" horiz-adv-x="348" d="M78 500h96q-13 14-21 35t-8 44q0 57 46 94t127 37h113l-17-78h-94q-43 0-69.5-17.5T224 561q0-25 15-42t44-19h103l-16-78H238L148 0H61l90 422H62z"/><glyph glyph-name="g" unicode="g" horiz-adv-x="599" d="M493 54q0-63-21-109.5T414-133t-87-46-108-15q-27 0-56.5 3.5T105-179t-53 20.5T8-128l54 73q26-26 68.5-41t92.5-15q82 0 131 39.5T403 45q0 11-3 20-28-20-64.5-33.5T253 18q-48 0-86.5 16.5t-65.5 45-42 68T44 232q0 57 20 107t57 87.5 90 59.5 118 22q47 0 84-13.5t64-36.5l9 42h87l-83-391q2-15 2.5-28.5T493 54zm-221 46q39 0 76 16t66 45l44 205q-23 29-59 44.5T324 426t-74-13-60.5-37.5-40.5-59-15-77.5q0-69 37.5-104T272 100z"/><glyph glyph-name="h" unicode="h" horiz-adv-x="584" d="M173 710h86l-54-253q32 26 70 38.5t80 12.5q37 0 69-12t55-34.5 36.5-55T529 334q0-26-6-56L464 0h-87l57 270q2 12 3.5 22.5T439 314q0 54-31 83t-85 29q-41 0-76.5-18T183 356L108 0H22z"/><glyph glyph-name="i" unicode="i" horiz-adv-x="236" d="M152 609q-11 13-11 32 0 33 21.5 55t50.5 22q23 0 38.5-14t15.5-34-8-35-22-26h-85zm-24-109h86L108 0H22z"/><glyph glyph-name="j" unicode="j" horiz-adv-x="245" d="M160 609q-11 13-11 32 0 33 21.5 55t50.5 22q23 0 38.5-14t15.5-34-8-35-22-26h-85zm-261-711h32q24 0 40 4.5T-2.5-83t17 26.5T26-17l110 517h87L111-26q-9-43-23.5-73T51-148t-53-27.5-74-8.5h-42z"/><glyph glyph-name="k" unicode="k" horiz-adv-x="509" d="M173 710h87l-94-439 271 229h111L259 257 462 0h-99L163 253 109 0H22z"/><glyph glyph-name="l" unicode="l" horiz-adv-x="237" d="M173 710h87L109 0H22z"/><glyph glyph-name="m" unicode="m" horiz-adv-x="886" d="M737 274q6 28 6 51 0 49-26 75t-77 26q-39 0-74-22.5T505 343q0-14-1.5-29.5T498 282L438 0h-86l58 274q6 27 6 50 0 49-26.5 75.5T312 426q-75 0-127-69L109 0H22l106 500h83l-9-46q32 28 68 41t76 13q48 0 83.5-20.5T485 430q41 42 89.5 60t98.5 18q73 0 116-45t43-122q0-28-6-59L766 0h-87z"/><glyph glyph-name="n" unicode="n" horiz-adv-x="584" d="M128 500h83l-10-46q66 54 154 54 37 0 69-12t55-34.5 36.5-55T529 334q0-26-6-56L464 0h-87l57 270q2 12 3.5 22.5T439 314q0 54-31 83t-85 29q-41 0-76.5-18T184 356L109 0H22z"/><glyph glyph-name="o" unicode="o" horiz-adv-x="605" d="M132 234q0-38 12.5-67.5t34-50T228 85t60-11q40 0 74 14.5t59 40 39.5 60.5 14.5 77q0 38-12.5 67.5t-34 50-50 31.5-59.5 11q-40 0-74-14.5t-59-40-39.5-60.5-14.5-77zm432 40q0-59-21.5-110.5T483 74t-90-60T281-8q-57 0-101.5 19.5t-75 52-46.5 75T42 227q0 58 21.5 109.5t60 89.5 90.5 60 112 22q57 0 101.5-19.5t74.5-52 46-74.5 16-88z"/><glyph glyph-name="p" unicode="p" horiz-adv-x="609" d="M128 500h83l-9-44q29 23 66 37.5t87 14.5 89.5-18 67.5-49 42.5-72.5T569 281q0-57-21-109.5t-59.5-92T397 16 280-8q-51 0-91.5 15.5T120 50L70-184h-87zm207-74q-42 0-81-17.5T186 359l-46-215q21-34 60-52t82-18q41 0 77 15t62.5 42 41.5 63.5 15 79.5q0 69-39 110.5T335 426z"/><glyph glyph-name="q" unicode="q" horiz-adv-x="610" d="M403 40q-28-21-63.5-34.5T256-8q-50 0-90 18T98 59t-42.5 72.5T41 219q0 57 21 109.5t59.5 92T213 484t118 24q51 0 91-16t68-43l11 51h87L443-184h-87zM275 74q42 0 81.5 17.5T425 141l45 214q-21 34-60 52.5T328 426q-41 0-76.5-15t-62-42-42-63.5T132 226q0-69 39-110.5T275 74z"/><glyph glyph-name="r" unicode="r" horiz-adv-x="352" d="M128 500h87l-13-61q28 32 67.5 50t86.5 18q9 0 17.5-.5T390 505l-19-91q-20 6-48 6-43 0-79.5-19.5T182 343L109 0H22z"/><glyph glyph-name="s" unicode="s" horiz-adv-x="422" d="M364 138q0-33-14-59.5t-37.5-46-54.5-30T192-8Q118-8 72 23.5T6 114l76 34q28-79 114-79 33 0 57.5 16t24.5 44q0 26-17 43.5T210 210l-39 23q-40 23-68.5 57T74 369q0 31 12 56.5t33.5 44T171 498t65 10q54 0 96-25t62-75l-78-35q-11 27-32 42t-53 15q-31 0-51-14.5T160 374q0-22 14-38.5t42-33.5l39-24q21-12 40.5-25.5t34.5-31 24.5-38T364 138z"/><glyph glyph-name="t" unicode="t" horiz-adv-x="357" d="M60 500h98l23 105 98 45-32-150h133l-18-78H230l-54-249q-4-17-5-27t-1-18q0-25 14.5-37.5T236 78h59L278 0h-63Q80 0 80 108q0 13 2 26.5t5 29.5l55 258H60v78z"/><glyph glyph-name="u" unicode="u" horiz-adv-x="578" d="M377 46q-32-27-71-40.5T226-8q-38 0-69 11.5T103 37 67.5 90.5 55 162q0 26 6 56l60 282h87l-58-274q-6-29-6-50 0-51 28.5-76.5T255 74q41 0 76.5 17.5T394 144l75 356h87L450 0h-83z"/><glyph glyph-name="v" unicode="v" horiz-adv-x="511" d="M49 500h94l91-333 228 333h106L201-8z"/><glyph glyph-name="w" unicode="w" horiz-adv-x="687" d="M62 500h85l34-363 214 371 58-373 188 365h86L474 0h-73l-45 298L187 0h-74z"/><glyph glyph-name="x" unicode="x" horiz-adv-x="519" d="M214 262L78 500h91l103-180 180 180h106L310 252 455 0h-92L252 194 59 0H-48z"/><glyph glyph-name="y" unicode="y" horiz-adv-x="513" d="M161 30L58 500h89l80-377 239 377h98L120-184H22z"/><glyph glyph-name="z" unicode="z" horiz-adv-x="496" d="M349 422H86l16 78h421L137 78h285L405 0H-37z"/><glyph glyph-name="braceleft" unicode="{" horiz-adv-x="313" d="M152-141q-54 0-80.5 24T45-42q0 29 7 61l37 175q4 15 4 31 0 20-10.5 31T45 267H35l14 67h11q38 0 53 20.5t22 53.5l42 196q9 40 22 66t32.5 42 45.5 22.5 61 6.5h49l-15-68h-32q-22 0-37-4t-25-13.5-16.5-25T250 593l-39-184q-10-45-27.5-71T134 300q36-16 36-62 0-10-1-21t-4-25L127 13q-2-12-3.5-22T122-27q0-24 13.5-35T181-73h33l-15-68h-47z"/><glyph glyph-name="bar" unicode="|" horiz-adv-x="316" d="M123 710h77v-894h-77v894z"/><glyph glyph-name="braceright" unicode="}" horiz-adv-x="313" d="M183 741q54 0 80.5-24t26.5-75q0-29-7-61l-37-175q-4-15-4-31 0-20 10.5-31t37.5-11h10l-14-67h-11q-38 0-53-20.5T200 192L158-4q-9-40-22-66.5t-32.5-42-46-22T-3-141h-49l15 68h32q43 0 61.5 18T85 7l39 184q10 45 27.5 71t49.5 38q-36 16-36 62 0 10 1 21t4 25l38 179q2 12 3.5 22t1.5 18q0 24-13.5 35T154 673h-33l15 68h47z"/><glyph glyph-name="uni00A0" horiz-adv-x="240"/><glyph glyph-name="exclamdown" unicode="¡" horiz-adv-x="254" d="M103 380q-6 7-9.5 20T90 424q0 38 25 61t60 23q26 0 44.5-17.5T238 448q0-23-9.5-39T203 380H103zm35-298L82-182H-6L50 82l66 231h54z"/><glyph glyph-name="sterling" unicode="£" horiz-adv-x="576" d="M20 81h101l47 224H68l16 73h108q-21 20-32 53t-11 67q0 46 18 86.5t49 70 73.5 46.5 92.5 17q47 0 83.5-16t61-42.5 37-61.5 12.5-73v-10h-84v3q0 28-9.5 50.5t-26 37.5-38 23-44.5 8q-29 0-55-10t-45.5-28-30.5-43-11-54 9.5-52 26-39 38-24.5T351 378h86l-16-73H256L208 81h297L488 0H3z"/><glyph glyph-name="yen" unicode="¥" horiz-adv-x="664" d="M149 345h130L123 710h95l135-322 270 322h108L421 345h129l-15-73H377l-16-74h158l-16-73H345L319 0h-85l26 125H102l16 73h158l16 74H134z"/><glyph glyph-name="dieresis" unicode="¨" horiz-adv-x="407" d="M286 631q0-26-17.5-43T225 571q-24 0-42 17t-18 43q0 25 18 42t42 17q26 0 43.5-17t17.5-42zm224 0q0-26-17-43t-43-17q-25 0-42.5 17T390 631q0 25 17.5 42t42.5 17q26 0 43-17t17-42z"/><glyph glyph-name="copyright" unicode="©" horiz-adv-x="829" d="M436 61q61 0 114.5 23t93.5 63 63 93.5T730 354q0 61-23 114.5T644 562t-93.5 63T436 648q-60 0-113.5-23T229 562t-63-93.5T143 354q0-60 23-113.5t63-93.5 93.5-63T436 61zm1-70q-75 0-141 28.5t-115.5 78-78 115.5T74 354t28.5 141 78 115.5T296 689t141 29 141-29 115.5-78.5 78-115.5T800 354t-28.5-141-78-115.5-115.5-78T437-9zm11 170q-41 0-76.5 15T310 217t-40.5 61.5T255 356t14.5 77.5T310 495t61.5 41 76.5 15q20 0 42-4.5t43-14.5 39.5-25 32.5-36l-51-46q-19 26-46.5 41.5T451 482q-56 0-89-35.5T329 356t33-90.5 89-35.5q29 0 56.5 15.5T554 287l51-46q-14-21-32.5-36T533 180t-43-14.5-42-4.5z"/><glyph glyph-name="guillemotleft" unicode="«" horiz-adv-x="519" d="M252 255l200 217 52-48-166-178 87-188-67-30zm-208 0l200 217 52-48-166-178 87-188-67-30z"/><glyph glyph-name="uni00AD" unicode="­" horiz-adv-x="374" d="M80 318h243l-19-89H61z"/><glyph glyph-name="macron" unicode="¯" horiz-adv-x="365" d="M182 679h292l-14-65H168z"/><glyph glyph-name="degree" unicode="°" horiz-adv-x="332" d="M235 470q-25 0-47.5 9.5t-39 26-26 39T113 592t9.5 47.5 26 39 39 26T235 714t47.5-9.5 39-26 26-39T357 592t-9.5-47.5-26-39-39-26T235 470zm0 55q28 0 47 20t19 47-19 46.5-47 19.5q-27 0-47-19.5T168 592t20-47 47-20z"/><glyph glyph-name="acute" unicode="´" horiz-adv-x="267" d="M275 710h100L222 545h-73z"/><glyph glyph-name="periodcentered" unicode="·" horiz-adv-x="269" d="M212 268q0-31-21.5-52.5T138 194q-30 0-52 21.5T64 268t22 52.5 52 21.5q31 0 52.5-21.5T212 268z"/><glyph glyph-name="cedilla" unicode="¸" horiz-adv-x="197" d="M100 0h59L93-135H-5z"/><glyph glyph-name="guillemotright" unicode="»" horiz-adv-x="519" d="M475 245L275 28l-52 48 166 178-87 188 67 30zm-208 0L67 28 15 76l166 178-87 188 67 30z"/><glyph glyph-name="questiondown" unicode="¿" horiz-adv-x="539" d="M249 380q-6 7-9.5 20t-3.5 24q0 38 25 61t60 23q26 0 44.5-17.5T384 448q0-23-9.5-39T349 380H249zm77-96l-24-116h-32q-40 0-74-11.5t-58.5-32-38-48.5T86 16q0-59 35.5-94t95.5-35q34 0 62 12t48.5 32 33 46.5T376 34h85q-4-46-23.5-87.5T385-126t-77.5-49.5T209-194q-47 0-85.5 16T58-134 16-68.5 1 12q0 47 16 88t47 72 75.5 50.5T240 247l8 37h78z"/><glyph glyph-name="Agrave" unicode="À" horiz-adv-x="670" d="M435 718L625 0h-95l-48 186H170L43 0H-61zM227 270h234l-64 249zm99 643h90l61-145h-65z"/><glyph glyph-name="Aacute" unicode="Á" horiz-adv-x="670" d="M435 718L625 0h-95l-48 186H170L43 0H-61zM227 270h234l-64 249zm295 643h105L481 768h-73z"/><glyph glyph-name="Acircumflex" unicode="Â" horiz-adv-x="670" d="M435 718L625 0h-95l-48 186H170L43 0H-61zM227 270h234l-64 249zm77 496l-31 61 195 99 150-103-39-57-117 80z"/><glyph glyph-name="Atilde" unicode="Ã" horiz-adv-x="670" d="M435 718L625 0h-95l-48 186H170L43 0H-61zM227 270h234l-64 249zm49 514l7 19q19 45 45 69.5t68 24.5q21 0 39-7t33.5-15 29-15 25.5-7q21 0 32.5 11t21.5 33h69l-7-18q-17-42-42.5-68T526 785q-21 0-39 7t-33.5 15-29 15-26.5 7q-20 0-31.5-11T345 784h-69z"/><glyph glyph-name="Adieresis" unicode="Ä" horiz-adv-x="670" d="M435 718L625 0h-95l-48 186H170L43 0H-61zM227 270h234l-64 249zm184 574q0-26-18-44t-44-18q-24 0-42.5 18T288 844q0 25 18.5 42.5T349 904q26 0 44-17.5t18-42.5zm225 0q0-26-18-44t-44-18q-25 0-43 18t-18 44q0 25 18 42.5t43 17.5q26 0 44-17.5t18-42.5z"/><glyph glyph-name="Aring" unicode="Å" horiz-adv-x="670" d="M435 718L625 0h-95l-48 186H170L43 0H-61zM227 270h234l-64 249zm234 481q-42 0-70.5 26.5T362 845q0 42 29 68.5t70 26.5 70-26.5 29-68.5q0-41-28.5-67.5T461 751zm0 47q20 0 34 13t14 34-14 34.5-34 13.5-34-13.5-14-34.5 14-34 34-13z"/><glyph glyph-name="AE" unicode="Æ" horiz-adv-x="985" d="M377 623l-22 87h395l23-88H467l57-215h260l23-88H547l61-231h306l24-88H537l-48 186H177L50 0H-54zM234 270h234l-64 249z"/><glyph glyph-name="Ccedilla" unicode="Ç" horiz-adv-x="689" d="M643 65Q555-1 428-7l-62-128h-98L368-6q-72 6-128 35.5T146 104 88.5 206 69 325q0 75 27 146t79.5 125.5 128 88T477 718q85 0 146.5-29.5T727 608l-69-61q-32 38-79 61t-109 23q-69 0-125-24t-96.5-65-62.5-95-22-114q0-50 15.5-95.5t46-81T302 100t106-21q57 0 102.5 16.5T593 140l50-75z"/><glyph glyph-name="Egrave" unicode="È" horiz-adv-x="555" d="M309 913h90l61-145h-65zM192 710h413l-19-88H263l-45-215h262l-19-88H199L150 88h323L454 0H41z"/><glyph glyph-name="Eacute" unicode="É" horiz-adv-x="555" d="M192 710h413l-19-88H263l-45-215h262l-19-88H199L150 88h323L454 0H41zm259 203h105L410 768h-73z"/><glyph glyph-name="Ecircumflex" unicode="Ê" horiz-adv-x="555" d="M269 766l-31 61 195 99 150-103-39-57-117 80zm-77-56h413l-19-88H263l-45-215h262l-19-88H199L150 88h323L454 0H41z"/><glyph glyph-name="Edieresis" unicode="Ë" horiz-adv-x="555" d="M192 710h413l-19-88H263l-45-215h262l-19-88H199L150 88h323L454 0H41zm184 134q0-26-18-44t-44-18q-24 0-42.5 18T253 844q0 25 18.5 42.5T314 904q26 0 44-17.5t18-42.5zm225 0q0-26-18-44t-44-18q-25 0-43 18t-18 44q0 25 18 42.5t43 17.5q26 0 44-17.5t18-42.5z"/><glyph glyph-name="Igrave" unicode="Ì" horiz-adv-x="280" d="M192 710h91L132 0H41zm-41 203h90l61-145h-65z"/><glyph glyph-name="Iacute" unicode="Í" horiz-adv-x="280" d="M192 710h91L132 0H41zm100 203h105L251 768h-73z"/><glyph glyph-name="Icircumflex" unicode="Î" horiz-adv-x="280" d="M192 710h91L132 0H41zm-82 56l-31 61 195 99 150-103-39-57-117 80z"/><glyph glyph-name="Idieresis" unicode="Ï" horiz-adv-x="280" d="M192 710h91L132 0H41zm24 134q0-26-18-44t-44-18q-24 0-42.5 18T93 844q0 25 18.5 42.5T154 904q26 0 44-17.5t18-42.5zm225 0q0-26-18-44t-44-18q-25 0-43 18t-18 44q0 25 18 42.5t43 17.5q26 0 44-17.5t18-42.5z"/><glyph glyph-name="Eth" unicode="Ð" horiz-adv-x="763" d="M45 399h108l66 311h197q78 0 139.5-23T659 624t64-94 22-116q0-88-34.5-163.5t-95.5-131T470 32 286 0H68l66 312H28zM288 85q82 0 149 26.5t114.5 71 73 102.5T650 407q0 46-15.5 86t-45 69.5-72.5 46-98 16.5H292l-48-226h134l-17-87H225L177 85h111z"/><glyph glyph-name="Ntilde" unicode="Ñ" horiz-adv-x="782" d="M332 784l7 19q19 45 45 69.5t68 24.5q21 0 39-7t33.5-15 29-15 25.5-7q21 0 32.5 11t21.5 33h69l-7-18q-17-42-42.5-68T582 785q-21 0-39 7t-33.5 15-29 15-26.5 7q-20 0-31.5-11T401 784h-69zm-92-275L132 0H41l153 718 391-521 109 513h91L632-8z"/><glyph glyph-name="Ograve" unicode="Ò" horiz-adv-x="832" d="M427 913h90l61-145h-65zM164 333q0-51 15.5-97t46-81T302 99.5 408 79q69 0 125 24t96.5 65 62.5 95 22 114q0 51-15.5 97t-46 81-76.5 55.5T470 631q-69 0-125-24t-96.5-65-62.5-95-22-114zm644 52q0-75-27-146t-79-125.5-128-88T400-8q-80 0-141.5 28T155 94 91 200 69 325q0 75 27 146t79.5 125.5 128 88T477 718q79 0 141-28t104-74 64-106.5T808 385z"/><glyph glyph-name="Oacute" unicode="Ó" horiz-adv-x="832" d="M567 913h105L526 768h-73zM164 333q0-51 15.5-97t46-81T302 99.5 408 79q69 0 125 24t96.5 65 62.5 95 22 114q0 51-15.5 97t-46 81-76.5 55.5T470 631q-69 0-125-24t-96.5-65-62.5-95-22-114zm644 52q0-75-27-146t-79-125.5-128-88T400-8q-80 0-141.5 28T155 94 91 200 69 325q0 75 27 146t79.5 125.5 128 88T477 718q79 0 141-28t104-74 64-106.5T808 385z"/><glyph glyph-name="Ocircumflex" unicode="Ô" horiz-adv-x="832" d="M386 766l-31 61 195 99 150-103-39-57-117 80zM164 333q0-51 15.5-97t46-81T302 99.5 408 79q69 0 125 24t96.5 65 62.5 95 22 114q0 51-15.5 97t-46 81-76.5 55.5T470 631q-69 0-125-24t-96.5-65-62.5-95-22-114zm644 52q0-75-27-146t-79-125.5-128-88T400-8q-80 0-141.5 28T155 94 91 200 69 325q0 75 27 146t79.5 125.5 128 88T477 718q79 0 141-28t104-74 64-106.5T808 385z"/><glyph glyph-name="Otilde" unicode="Õ" horiz-adv-x="832" d="M164 333q0-51 15.5-97t46-81T302 99.5 408 79q69 0 125 24t96.5 65 62.5 95 22 114q0 51-15.5 97t-46 81-76.5 55.5T470 631q-69 0-125-24t-96.5-65-62.5-95-22-114zm644 52q0-75-27-146t-79-125.5-128-88T400-8q-80 0-141.5 28T155 94 91 200 69 325q0 75 27 146t79.5 125.5 128 88T477 718q79 0 141-28t104-74 64-106.5T808 385zM348 784l7 19q19 45 45 69.5t68 24.5q21 0 39-7t33.5-15 29-15 25.5-7q21 0 32.5 11t21.5 33h69l-7-18q-17-42-42.5-68T598 785q-21 0-39 7t-33.5 15-29 15-26.5 7q-20 0-31.5-11T417 784h-69z"/><glyph glyph-name="Odieresis" unicode="Ö" horiz-adv-x="832" d="M164 333q0-51 15.5-97t46-81T302 99.5 408 79q69 0 125 24t96.5 65 62.5 95 22 114q0 51-15.5 97t-46 81-76.5 55.5T470 631q-69 0-125-24t-96.5-65-62.5-95-22-114zm644 52q0-75-27-146t-79-125.5-128-88T400-8q-80 0-141.5 28T155 94 91 200 69 325q0 75 27 146t79.5 125.5 128 88T477 718q79 0 141-28t104-74 64-106.5T808 385zM478 844q0-26-18-44t-44-18q-24 0-42.5 18T355 844q0 25 18.5 42.5T416 904q26 0 44-17.5t18-42.5zm225 0q0-26-18-44t-44-18q-25 0-43 18t-18 44q0 25 18 42.5t43 17.5q26 0 44-17.5t18-42.5z"/><glyph glyph-name="multiply" unicode="×" d="M101 119l148 147L99 416l50 49 149-150 148 148 49-49-148-148 150-149-49-49-150 149L151 70z"/><glyph glyph-name="Oslash" unicode="Ø" horiz-adv-x="832" d="M105 36l51 57q-43 47-65 106.5T69 325q0 75 27 146t79.5 125.5 128 88T477 718q56 0 103-14t85-39l58 65 54-51-56-63q43-47 65-106.5T808 385q0-75-27-146t-79-125.5-128-88T400-8Q343-8 296 5.5T211 45l-53-60zm609 341q0 48-14 91.5T659 547L273 114q27-17 60.5-26t74.5-9q69 0 125 24t96.5 65 62.5 95 22 114zm-550-44q0-48 13.5-91.5T218 163l385 433q-27 17-60 26t-73 9q-69 0-125-24t-96.5-65-62.5-95-22-114z"/><glyph glyph-name="Ugrave" unicode="Ù" horiz-adv-x="730" d="M375 913h90l61-145h-65zm274-641q-14-67-40-119t-65-88-92.5-54.5T328-8q-54 0-99 14.5t-77 42-50 67T84 206q0 34 7 66l93 438h91l-94-440q-6-29-6-52 0-69 42.5-104T332 79q85 0 145 48.5T557 270l94 440h91l-93-438z"/><glyph glyph-name="Uacute" unicode="Ú" horiz-adv-x="730" d="M649 272q-14-67-40-119t-65-88-92.5-54.5T328-8q-54 0-99 14.5t-77 42-50 67T84 206q0 34 7 66l93 438h91l-94-440q-6-29-6-52 0-69 42.5-104T332 79q85 0 145 48.5T557 270l94 440h91l-93-438zM516 913h105L475 768h-73z"/><glyph glyph-name="Ucircumflex" unicode="Û" horiz-adv-x="730" d="M334 766l-31 61 195 99 150-103-39-57-117 80zm315-494q-14-67-40-119t-65-88-92.5-54.5T328-8q-54 0-99 14.5t-77 42-50 67T84 206q0 34 7 66l93 438h91l-94-440q-6-29-6-52 0-69 42.5-104T332 79q85 0 145 48.5T557 270l94 440h91l-93-438z"/><glyph glyph-name="Udieresis" unicode="Ü" horiz-adv-x="730" d="M649 272q-14-67-40-119t-65-88-92.5-54.5T328-8q-54 0-99 14.5t-77 42-50 67T84 206q0 34 7 66l93 438h91l-94-440q-6-29-6-52 0-69 42.5-104T332 79q85 0 145 48.5T557 270l94 440h91l-93-438zM440 844q0-26-18-44t-44-18q-24 0-42.5 18T317 844q0 25 18.5 42.5T378 904q26 0 44-17.5t18-42.5zm225 0q0-26-18-44t-44-18q-25 0-43 18t-18 44q0 25 18 42.5t43 17.5q26 0 44-17.5t18-42.5z"/><glyph glyph-name="Yacute" unicode="Ý" horiz-adv-x="625" d="M278 300L103 710h100l132-322 267 322h114L369 300 305 0h-91zm179 613h105L416 768h-73z"/><glyph glyph-name="Thorn" unicode="Þ" horiz-adv-x="585" d="M192 710h91l-29-136h105q52 0 91.5-14.5t66-40 40-60.5 13.5-76q0-55-21-100t-59.5-76.5-92-48.5T279 141H162L132 0H41zm101-484q86 0 134.5 42T476 379q0 48-32.5 79T342 489H236l-55-263h112z"/><glyph glyph-name="germandbls" unicode="ß" horiz-adv-x="558" d="M128 500q23 109 86 163.5T372 718q37 0 69-12t54.5-33 35.5-49 13-61q0-32-10.5-60.5t-29.5-52-45-41.5-57-29q52-15 80.5-52.5T511 240q0-46-19-89.5t-55-77T348 20 228 0h-46l17 79h45q42 0 76 14t57 35.5 35.5 49T425 232q0 51-34.5 80T295 341h-40l16 77h23q33 0 62.5 11t52 29.5 36 43T458 552q0 42-26 65t-70 23q-55 0-94-35.5T215 500L108 0H22z"/><glyph glyph-name="agrave" unicode="à" horiz-adv-x="610" d="M408 44q-29-23-65.5-37.5T256-8t-90 18-68 49-42.5 72.5T41 219q0 57 21 109.5t59.5 92T213 484t118 24q51 0 91-16t68-43l11 51h87L482 0h-83zM275 74q42 0 81.5 17.5T425 141l45 214q-21 34-60 52.5T328 426q-41 0-76.5-15t-62-42-42-63.5T132 226q0-69 39-110.5T275 74zm-27 636h104l56-165h-61z"/><glyph glyph-name="aacute" unicode="á" horiz-adv-x="610" d="M408 44q-29-23-65.5-37.5T256-8t-90 18-68 49-42.5 72.5T41 219q0 57 21 109.5t59.5 92T213 484t118 24q51 0 91-16t68-43l11 51h87L482 0h-83zM275 74q42 0 81.5 17.5T425 141l45 214q-21 34-60 52.5T328 426q-41 0-76.5-15t-62-42-42-63.5T132 226q0-69 39-110.5T275 74zm155 636h100L377 545h-73z"/><glyph glyph-name="acircumflex" unicode="â" horiz-adv-x="610" d="M408 44q-29-23-65.5-37.5T256-8t-90 18-68 49-42.5 72.5T41 219q0 57 21 109.5t59.5 92T213 484t118 24q51 0 91-16t68-43l11 51h87L482 0h-83zM275 74q42 0 81.5 17.5T425 141l45 214q-21 34-60 52.5T328 426q-41 0-76.5-15t-62-42-42-63.5T132 226q0-69 39-110.5T275 74zm-89 538l196 106 148-113-40-52-114 87-158-87z"/><glyph glyph-name="atilde" unicode="ã" horiz-adv-x="610" d="M408 44q-29-23-65.5-37.5T256-8t-90 18-68 49-42.5 72.5T41 219q0 57 21 109.5t59.5 92T213 484t118 24q51 0 91-16t68-43l11 51h87L482 0h-83zM275 74q42 0 81.5 17.5T425 141l45 214q-21 34-60 52.5T328 426q-41 0-76.5-15t-62-42-42-63.5T132 226q0-69 39-110.5T275 74zm-89 492l7 19q19 45 45 69.5t68 24.5q21 0 39-7t33.5-15 29-15 25.5-7q21 0 32.5 11t21.5 33h69l-7-18q-17-42-42.5-68T436 567q-21 0-39 7t-33.5 15-29 15-26.5 7q-20 0-31.5-11T255 566h-69z"/><glyph glyph-name="adieresis" unicode="ä" horiz-adv-x="610" d="M408 44q-29-23-65.5-37.5T256-8t-90 18-68 49-42.5 72.5T41 219q0 57 21 109.5t59.5 92T213 484t118 24q51 0 91-16t68-43l11 51h87L482 0h-83zM275 74q42 0 81.5 17.5T425 141l45 214q-21 34-60 52.5T328 426q-41 0-76.5-15t-62-42-42-63.5T132 226q0-69 39-110.5T275 74zm45 557q0-26-17.5-43T259 571q-24 0-42 17t-18 43q0 25 18 42t42 17q26 0 43.5-17t17.5-42zm224 0q0-26-17-43t-43-17q-25 0-42.5 17T424 631q0 25 17.5 42t42.5 17q26 0 43-17t17-42z"/><glyph glyph-name="aring" unicode="å" horiz-adv-x="610" d="M408 44q-29-23-65.5-37.5T256-8t-90 18-68 49-42.5 72.5T41 219q0 57 21 109.5t59.5 92T213 484t118 24q51 0 91-16t68-43l11 51h87L482 0h-83zM275 74q42 0 81.5 17.5T425 141l45 214q-21 34-60 52.5T328 426q-41 0-76.5-15t-62-42-42-63.5T132 226q0-69 39-110.5T275 74zm203 586q0-20-7.5-37t-21-30-31.5-20-39-7-39 7-31.5 20-21 30-7.5 37q0 42 29 68.5t70 26.5 70-26.5 29-68.5zm-99-47q20 0 34 13t14 34q0 22-14 35t-34 13-34-13-14-35q0-21 14-34t34-13z"/><glyph glyph-name="ae" unicode="æ" horiz-adv-x="919" d="M828 70q-38-36-89-57T628-8q-67 0-114.5 26T437 87q-52-45-107-70T201-8q-50 0-85.5 11.5T57 35 23 82t-11 57q0 39 15.5 72t46 58 76.5 39 106 14q51 0 85.5-12.5T400 282q5 27 7.5 39t2.5 19q0 26-9.5 43T375 409.5 338 423t-44 4q-44 0-83.5-14.5T141 376l-29 78q43 25 87.5 39.5T301 508q29 0 56-5t49-15.5 38.5-27T470 420q37 41 89.5 64.5T675 508q55 0 95.5-18.5t67.5-49 40.5-70T892 288q0-31-6-59H481q1-37 13.5-66t33.5-48.5 48.5-30T635 74q41 0 75 15t60 41zm-627 3q56 0 100.5 22t71.5 55l12 56q-22 20-54.5 31.5T248 249q-29 0-55.5-6.5t-46.5-19-31.5-31.5-11.5-43q0-22 8-36.5T132.5 89t31-12.5T201 73zm467 356q-63 0-110-33.5T491 304h307q-1 58-37 91.5T668 429z"/><glyph glyph-name="ccedilla" unicode="ç" horiz-adv-x="529" d="M239-5q-48 7-84.5 28T93 75.5 55 146t-13 81q0 58 21.5 109.5T123 426t90 60 113 22q69 0 118-27.5t78-78.5l-73-49q-20 35-53.5 54T319 426q-40 0-74-14.5t-59-40-39.5-61T132 234q0-38 12.5-68t33.5-50.5 49-31T287 74q40 0 72 14.5t58 39.5l58-60q-36-32-79.5-52T298-7l-62-128h-98z"/><glyph glyph-name="egrave" unicode="è" horiz-adv-x="570" d="M479 70q-38-36-89-57T279-8q-57 0-101 19.5t-74.5 52-46 75T42 227q0 58 21.5 109.5T123 426t90 60 113 22q55 0 95.5-18.5t67.5-49 40.5-70T543 288q0-31-6-59H132q1-37 13.5-66t33.5-48.5 48.5-30T286 74q41 0 75 15t60 41zM319 429q-63 0-110-33.5T142 304h307q-1 58-37 91.5T319 429zm-92 281h104l56-165h-61z"/><glyph glyph-name="eacute" unicode="é" horiz-adv-x="570" d="M384 710h100L331 545h-73zm95-640q-38-36-89-57T279-8q-57 0-101 19.5t-74.5 52-46 75T42 227q0 58 21.5 109.5T123 426t90 60 113 22q55 0 95.5-18.5t67.5-49 40.5-70T543 288q0-31-6-59H132q1-37 13.5-66t33.5-48.5 48.5-30T286 74q41 0 75 15t60 41zM319 429q-63 0-110-33.5T142 304h307q-1 58-37 91.5T319 429z"/><glyph glyph-name="ecircumflex" unicode="ê" horiz-adv-x="570" d="M164 612l196 106 148-113-40-52-114 87-158-87zM479 70q-38-36-89-57T279-8q-57 0-101 19.5t-74.5 52-46 75T42 227q0 58 21.5 109.5T123 426t90 60 113 22q55 0 95.5-18.5t67.5-49 40.5-70T543 288q0-31-6-59H132q1-37 13.5-66t33.5-48.5 48.5-30T286 74q41 0 75 15t60 41zM319 429q-63 0-110-33.5T142 304h307q-1 58-37 91.5T319 429z"/><glyph glyph-name="edieresis" unicode="ë" horiz-adv-x="570" d="M300 631q0-26-17.5-43T239 571q-24 0-42 17t-18 43q0 25 18 42t42 17q26 0 43.5-17t17.5-42zm224 0q0-26-17-43t-43-17q-25 0-42.5 17T404 631q0 25 17.5 42t42.5 17q26 0 43-17t17-42zM479 70q-38-36-89-57T279-8q-57 0-101 19.5t-74.5 52-46 75T42 227q0 58 21.5 109.5T123 426t90 60 113 22q55 0 95.5-18.5t67.5-49 40.5-70T543 288q0-31-6-59H132q1-37 13.5-66t33.5-48.5 48.5-30T286 74q41 0 75 15t60 41zM319 429q-63 0-110-33.5T142 304h307q-1 58-37 91.5T319 429z"/><glyph glyph-name="igrave" unicode="ì" horiz-adv-x="237" d="M128 500h87L109 0H22zM75 710h104l56-165h-61z"/><glyph glyph-name="iacute" unicode="í" horiz-adv-x="237" d="M232 710h100L179 545h-73zM128 500h87L109 0H22z"/><glyph glyph-name="icircumflex" unicode="î" horiz-adv-x="237" d="M21 612l196 106 148-113-40-52-114 87-158-87zm107-112h87L109 0H22z"/><glyph glyph-name="idieresis" unicode="ï" horiz-adv-x="237" d="M147 631q0-26-17.5-43T86 571q-24 0-42 17t-18 43q0 25 18 42t42 17q26 0 43.5-17t17.5-42zm224 0q0-26-17-43t-43-17q-25 0-42.5 17T251 631q0 25 17.5 42t42.5 17q26 0 43-17t17-42zM128 500h87L109 0H22z"/><glyph glyph-name="eth" unicode="ð" horiz-adv-x="606" d="M246 629h88l-38 81h91l38-81h126l-15-67h-80l69-148q19-41 29-72t10-68q0-59-21.5-110.5T483 74t-90-60T281-8q-57 0-101.5 19.5t-75 52-46.5 75T42 227q0 58 21.5 109.5t60 89.5 90.5 60 112 22q18 0 38.5-4t34.5-12l-33 70H231zM132 234q0-38 12.5-67.5t34-50 49.5-31T288 75q40 0 74 14t59 39.5 39.5 60.5 14.5 77q0 38-12.5 67.5t-34 50-50 31T319 425q-40 0-74-14t-59-39.5-39.5-60.5-14.5-77z"/><glyph glyph-name="ntilde" unicode="ñ" horiz-adv-x="584" d="M128 500h83l-10-46q66 54 154 54 37 0 69-12t55-34.5 36.5-55T529 334q0-26-6-56L464 0h-87l57 270q2 12 3.5 22.5T439 314q0 54-31 83t-85 29q-41 0-76.5-18T184 356L109 0H22zm61 66l7 19q19 45 45 69.5t68 24.5q21 0 39-7t33.5-15 29-15 25.5-7q21 0 32.5 11t21.5 33h69l-7-18q-17-42-42.5-68T439 567q-21 0-39 7t-33.5 15-29 15-26.5 7q-20 0-31.5-11T258 566h-69z"/><glyph glyph-name="ograve" unicode="ò" horiz-adv-x="605" d="M132 234q0-38 12.5-67.5t34-50T228 85t60-11q40 0 74 14.5t59 40 39.5 60.5 14.5 77q0 38-12.5 67.5t-34 50-50 31.5-59.5 11q-40 0-74-14.5t-59-40-39.5-60.5-14.5-77zm432 40q0-59-21.5-110.5T483 74t-90-60T281-8q-57 0-101.5 19.5t-75 52-46.5 75T42 227q0 58 21.5 109.5t60 89.5 90.5 60 112 22q57 0 101.5-19.5t74.5-52 46-74.5 16-88zM259 710h104l56-165h-61z"/><glyph glyph-name="oacute" unicode="ó" horiz-adv-x="605" d="M416 710h100L363 545h-73zM132 234q0-38 12.5-67.5t34-50T228 85t60-11q40 0 74 14.5t59 40 39.5 60.5 14.5 77q0 38-12.5 67.5t-34 50-50 31.5-59.5 11q-40 0-74-14.5t-59-40-39.5-60.5-14.5-77zm432 40q0-59-21.5-110.5T483 74t-90-60T281-8q-57 0-101.5 19.5t-75 52-46.5 75T42 227q0 58 21.5 109.5t60 89.5 90.5 60 112 22q57 0 101.5-19.5t74.5-52 46-74.5 16-88z"/><glyph glyph-name="ocircumflex" unicode="ô" horiz-adv-x="605" d="M196 612l196 106 148-113-40-52-114 87-158-87zm-64-378q0-38 12.5-67.5t34-50T228 85t60-11q40 0 74 14.5t59 40 39.5 60.5 14.5 77q0 38-12.5 67.5t-34 50-50 31.5-59.5 11q-40 0-74-14.5t-59-40-39.5-60.5-14.5-77zm432 40q0-59-21.5-110.5T483 74t-90-60T281-8q-57 0-101.5 19.5t-75 52-46.5 75T42 227q0 58 21.5 109.5t60 89.5 90.5 60 112 22q57 0 101.5-19.5t74.5-52 46-74.5 16-88z"/><glyph glyph-name="otilde" unicode="õ" horiz-adv-x="605" d="M132 234q0-38 12.5-67.5t34-50T228 85t60-11q40 0 74 14.5t59 40 39.5 60.5 14.5 77q0 38-12.5 67.5t-34 50-50 31.5-59.5 11q-40 0-74-14.5t-59-40-39.5-60.5-14.5-77zm432 40q0-59-21.5-110.5T483 74t-90-60T281-8q-57 0-101.5 19.5t-75 52-46.5 75T42 227q0 58 21.5 109.5t60 89.5 90.5 60 112 22q57 0 101.5-19.5t74.5-52 46-74.5 16-88zM197 566l7 19q19 45 45 69.5t68 24.5q21 0 39-7t33.5-15 29-15 25.5-7q21 0 32.5 11t21.5 33h69l-7-18q-17-42-42.5-68T447 567q-21 0-39 7t-33.5 15-29 15-26.5 7q-20 0-31.5-11T266 566h-69z"/><glyph glyph-name="odieresis" unicode="ö" horiz-adv-x="605" d="M332 631q0-26-17.5-43T271 571q-24 0-42 17t-18 43q0 25 18 42t42 17q26 0 43.5-17t17.5-42zm224 0q0-26-17-43t-43-17q-25 0-42.5 17T436 631q0 25 17.5 42t42.5 17q26 0 43-17t17-42zM132 234q0-38 12.5-67.5t34-50T228 85t60-11q40 0 74 14.5t59 40 39.5 60.5 14.5 77q0 38-12.5 67.5t-34 50-50 31.5-59.5 11q-40 0-74-14.5t-59-40-39.5-60.5-14.5-77zm432 40q0-59-21.5-110.5T483 74t-90-60T281-8q-57 0-101.5 19.5t-75 52-46.5 75T42 227q0 58 21.5 109.5t60 89.5 90.5 60 112 22q57 0 101.5-19.5t74.5-52 46-74.5 16-88z"/><glyph glyph-name="divide" unicode="÷" d="M301 69q-27 0-47 19t-20 47 20 47 47 19q28 0 47-19t19-47-19-47-47-19zm0 279q-27 0-47 19.5T234 415q0 27 20 46.5t47 19.5q28 0 47-19.5t19-46.5q0-28-19-47.5T301 348zM82 310h438v-70H82v70z"/><glyph glyph-name="oslash" unicode="ø" horiz-adv-x="605" d="M41 34l47 48q-46 63-46 145 0 58 21.5 109.5t60 89.5 90.5 60 112 22q42 0 77-11t63-30l47 48 50-50-46-47q23-30 35-67.5t12-76.5q0-59-21.5-110.5T483 74t-90-60T281-8q-43 0-78 10.5T139 33L91-16zm434 232q0 50-22 86L202 97q38-23 86-23 40 0 74 14.5t59 40 39.5 60.5 14.5 77zm-343-32q0-26 5.5-47t15.5-39l250 255q-37 23-84 23-40 0-74-14.5t-59-40-39.5-60.5-14.5-77z"/><glyph glyph-name="ugrave" unicode="ù" horiz-adv-x="578" d="M377 46q-32-27-71-40.5T226-8q-38 0-69 11.5T103 37 67.5 90.5 55 162q0 26 6 56l60 282h87l-58-274q-6-29-6-50 0-51 28.5-76.5T255 74q41 0 76.5 17.5T394 144l75 356h87L450 0h-83zM241 710h104l56-165h-61z"/><glyph glyph-name="uacute" unicode="ú" horiz-adv-x="578" d="M398 710h100L345 545h-73zM377 46q-32-27-71-40.5T226-8q-38 0-69 11.5T103 37 67.5 90.5 55 162q0 26 6 56l60 282h87l-58-274q-6-29-6-50 0-51 28.5-76.5T255 74q41 0 76.5 17.5T394 144l75 356h87L450 0h-83z"/><glyph glyph-name="ucircumflex" unicode="û" horiz-adv-x="578" d="M178 612l196 106 148-113-40-52-114 87-158-87zM377 46q-32-27-71-40.5T226-8q-38 0-69 11.5T103 37 67.5 90.5 55 162q0 26 6 56l60 282h87l-58-274q-6-29-6-50 0-51 28.5-76.5T255 74q41 0 76.5 17.5T394 144l75 356h87L450 0h-83z"/><glyph glyph-name="udieresis" unicode="ü" horiz-adv-x="578" d="M314 631q0-26-17.5-43T253 571q-24 0-42 17t-18 43q0 25 18 42t42 17q26 0 43.5-17t17.5-42zm224 0q0-26-17-43t-43-17q-25 0-42.5 17T418 631q0 25 17.5 42t42.5 17q26 0 43-17t17-42zM377 46q-32-27-71-40.5T226-8q-38 0-69 11.5T103 37 67.5 90.5 55 162q0 26 6 56l60 282h87l-58-274q-6-29-6-50 0-51 28.5-76.5T255 74q41 0 76.5 17.5T394 144l75 356h87L450 0h-83z"/><glyph glyph-name="yacute" unicode="ý" horiz-adv-x="513" d="M161 30L58 500h89l80-377 239 377h98L120-184H22zm205 680h100L313 545h-73z"/><glyph glyph-name="thorn" unicode="þ" horiz-adv-x="609" d="M173 710h83l-54-254q29 23 66 37.5t87 14.5 89.5-18 67.5-49 42.5-72.5T569 281q0-57-21-109.5t-59.5-92T397 16 280-8q-51 0-91.5 15.5T120 50L70-184h-87zm162-284q-42 0-81-17.5T186 359l-46-215q21-34 60-52t82-18q41 0 77 15t62.5 42 41.5 63.5 15 79.5q0 69-39 110.5T335 426z"/><glyph glyph-name="ydieresis" unicode="ÿ" horiz-adv-x="513" d="M161 30L58 500h89l80-377 239 377h98L120-184H22zm122 601q0-26-17.5-43T222 571q-24 0-42 17t-18 43q0 25 18 42t42 17q26 0 43.5-17t17.5-42zm224 0q0-26-17-43t-43-17q-25 0-42.5 17T387 631q0 25 17.5 42t42.5 17q26 0 43-17t17-42z"/><glyph glyph-name="Amacron" unicode="Ā" horiz-adv-x="670" d="M435 718L625 0h-95l-48 186H170L43 0H-61zM227 270h234l-64 249zm94 598h292l-14-65H307z"/><glyph glyph-name="amacron" unicode="ā" horiz-adv-x="610" d="M408 44q-29-23-65.5-37.5T256-8t-90 18-68 49-42.5 72.5T41 219q0 57 21 109.5t59.5 92T213 484t118 24q51 0 91-16t68-43l11 51h87L482 0h-83zM275 74q42 0 81.5 17.5T425 141l45 214q-21 34-60 52.5T328 426q-41 0-76.5-15t-62-42-42-63.5T132 226q0-69 39-110.5T275 74zm-37 605h292l-14-65H224z"/><glyph glyph-name="Abreve" unicode="Ă" horiz-adv-x="670" d="M435 718L625 0h-95l-48 186H170L43 0H-61zM227 270h234l-64 249zm394 639q-11-62-55.5-99.5T445 772q-71 0-109.5 39.5T295 909h63q2-42 29-60.5t63-18.5q42 0 71.5 20t37.5 59h62z"/><glyph glyph-name="abreve" unicode="ă" horiz-adv-x="610" d="M408 44q-29-23-65.5-37.5T256-8t-90 18-68 49-42.5 72.5T41 219q0 57 21 109.5t59.5 92T213 484t118 24q51 0 91-16t68-43l11 51h87L482 0h-83zM275 74q42 0 81.5 17.5T425 141l45 214q-21 34-60 52.5T328 426q-41 0-76.5-15t-62-42-42-63.5T132 226q0-69 39-110.5T275 74zm262 636q-11-62-55.5-99.5T361 573q-71 0-109.5 39.5T211 710h63q2-42 29-60.5t63-18.5q42 0 71.5 20t37.5 59h62z"/><glyph glyph-name="Aogonek" unicode="Ą" horiz-adv-x="670" d="M435 718L625 0q-53-21-78.5-47T521-93q0-17 11-24t32-7q11 0 20.5 2.5T600-117l-13-62q-10-5-29-7.5t-36-2.5q-19 0-35.5 6.5t-29 17.5-19.5 25.5-7 31.5q0 22 8.5 38.5t23 29.5 32 22.5T530 0l-48 186H170L43 0H-61zM227 270h234l-64 249z"/><glyph glyph-name="aogonek" unicode="ą" horiz-adv-x="610" d="M446-169q-14-5-30-7t-33-2q-37 0-62.5 21T295-103q0 39 31 64t73 39l9 44q-29-23-65.5-37.5T256-8t-90 18-68 49-42.5 72.5T41 219q0 57 21 109.5t59.5 92T213 484t118 24q51 0 91-16t68-43l11 51h87L482 0q-99-46-99-85 0-28 43-28 20 0 34 9zM275 74q42 0 81.5 17.5T425 141l45 214q-21 34-60 52.5T328 426q-41 0-76.5-15t-62-42-42-63.5T132 226q0-69 39-110.5T275 74z"/><glyph glyph-name="Cacute" unicode="Ć" horiz-adv-x="689" d="M643 65Q544-8 403-8q-81 0-143 27.5t-104.5 74T91 200 69 325q0 75 27 146t79.5 125.5 128 88T477 718q85 0 146.5-29.5T727 608l-69-61q-32 38-79 61t-109 23q-69 0-125-24t-96.5-65-62.5-95-22-114q0-50 15.5-95.5t46-81T302 100t106-21q57 0 102.5 16.5T593 140l50-75zM527 913h105L486 768h-73z"/><glyph glyph-name="cacute" unicode="ć" horiz-adv-x="529" d="M386 710h100L333 545h-73zm89-642q-39-35-87.5-55.5T279-8q-57 0-101 19.5t-74.5 52-46 75T42 227q0 58 21.5 109.5T123 426t90 60 113 22q69 0 118-27.5t78-78.5l-73-49q-20 35-53.5 54T319 426q-40 0-74-14.5t-59-40-39.5-61T132 234q0-38 12.5-68t33.5-50.5 49-31T287 74q40 0 72 14.5t58 39.5l58-60z"/><glyph glyph-name="Ccircumflex" unicode="Ĉ" horiz-adv-x="689" d="M643 65Q544-8 403-8q-81 0-143 27.5t-104.5 74T91 200 69 325q0 75 27 146t79.5 125.5 128 88T477 718q85 0 146.5-29.5T727 608l-69-61q-32 38-79 61t-109 23q-69 0-125-24t-96.5-65-62.5-95-22-114q0-50 15.5-95.5t46-81T302 100t106-21q57 0 102.5 16.5T593 140l50-75zM345 766l-31 61 195 99 150-103-39-57-117 80z"/><glyph glyph-name="ccircumflex" unicode="ĉ" horiz-adv-x="529" d="M166 612l196 106 148-113-40-52-114 87-158-87zM475 68q-39-35-87.5-55.5T279-8q-57 0-101 19.5t-74.5 52-46 75T42 227q0 58 21.5 109.5T123 426t90 60 113 22q69 0 118-27.5t78-78.5l-73-49q-20 35-53.5 54T319 426q-40 0-74-14.5t-59-40-39.5-61T132 234q0-38 12.5-68t33.5-50.5 49-31T287 74q40 0 72 14.5t58 39.5l58-60z"/><glyph glyph-name="Cdotaccent" unicode="Ċ" horiz-adv-x="689" d="M567 844q0-27-18.5-45.5T503 780q-25 0-43.5 18.5T441 844q0 26 18.5 44t43.5 18q27 0 45.5-18t18.5-44zm76-779Q544-8 403-8q-81 0-143 27.5t-104.5 74T91 200 69 325q0 75 27 146t79.5 125.5 128 88T477 718q85 0 146.5-29.5T727 608l-69-61q-32 38-79 61t-109 23q-69 0-125-24t-96.5-65-62.5-95-22-114q0-50 15.5-95.5t46-81T302 100t106-21q57 0 102.5 16.5T593 140l50-75z"/><glyph glyph-name="cdotaccent" unicode="ċ" horiz-adv-x="529" d="M475 68q-39-35-87.5-55.5T279-8q-57 0-101 19.5t-74.5 52-46 75T42 227q0 58 21.5 109.5T123 426t90 60 113 22q69 0 118-27.5t78-78.5l-73-49q-20 35-53.5 54T319 426q-40 0-74-14.5t-59-40-39.5-61T132 234q0-38 12.5-68t33.5-50.5 49-31T287 74q40 0 72 14.5t58 39.5l58-60zm-59 563q0-26-18-44t-44-18-44 18-18 44 18 43.5 44 17.5 44-17.5 18-43.5z"/><glyph glyph-name="Ccaron" unicode="Č" horiz-adv-x="689" d="M643 65Q544-8 403-8q-81 0-143 27.5t-104.5 74T91 200 69 325q0 75 27 146t79.5 125.5 128 88T477 718q85 0 146.5-29.5T727 608l-69-61q-32 38-79 61t-109 23q-69 0-125-24t-96.5-65-62.5-95-22-114q0-50 15.5-95.5t46-81T302 100t106-21q57 0 102.5 16.5T593 140l50-75zm7 861l31-61-195-99-150 103 39 57 117-80z"/><glyph glyph-name="ccaron" unicode="č" horiz-adv-x="529" d="M537 675L341 569 193 682l40 52 114-87 158 87zM475 68q-39-35-87.5-55.5T279-8q-57 0-101 19.5t-74.5 52-46 75T42 227q0 58 21.5 109.5T123 426t90 60 113 22q69 0 118-27.5t78-78.5l-73-49q-20 35-53.5 54T319 426q-40 0-74-14.5t-59-40-39.5-61T132 234q0-38 12.5-68t33.5-50.5 49-31T287 74q40 0 72 14.5t58 39.5l58-60z"/><glyph glyph-name="Dcaron" unicode="Ď" horiz-adv-x="736" d="M261 85q82 0 149 26.5t114.5 71 73 102.5T623 407q0 46-15.5 86t-45 69.5-72.5 46-98 16.5H265L150 85h111zm-69 625h197q78 0 139.5-23T632 624t64-94 22-116q0-88-34.5-163.5t-95.5-131T443 32 259 0H41zm418 216l31-61-195-99-150 103 39 57 117-80z"/><glyph glyph-name="dcaron" unicode="ď" horiz-adv-x="634" d="M407 43q-29-22-65.5-36.5T255-8t-89.5 18T98 59t-42.5 72.5T41 219q0 57 21 109.5t59.5 92T213 484t118 24q51 0 90.5-16t68.5-43l56 261h87L482 0h-83zM275 74q42 0 81.5 17.5T425 141l45 214q-21 34-60 52.5T328 426q-41 0-76.5-15t-62-42-42-63.5T132 226q0-69 39-110.5T275 74zm441 471h-60l59 165h85z"/><glyph glyph-name="Dcroat" unicode="Đ" horiz-adv-x="763" d="M45 399h108l66 311h197q78 0 139.5-23T659 624t64-94 22-116q0-88-34.5-163.5t-95.5-131T470 32 286 0H68l66 312H28zM288 85q82 0 149 26.5t114.5 71 73 102.5T650 407q0 46-15.5 86t-45 69.5-72.5 46-98 16.5H292l-48-226h134l-17-87H225L177 85h111z"/><glyph glyph-name="dcroat" unicode="đ" horiz-adv-x="610" d="M362 642h169l15 68h87l-15-68h71l-17-74h-69L482 0h-83l8 43q-29-22-65.5-36.5T255-8t-89.5 18T98 59t-42.5 72.5T41 219q0 57 21 109.5t59.5 92T213 484t118 24q51 0 90.5-16t68.5-43l25 119H345zM275 74q42 0 81.5 17.5T425 141l45 214q-21 34-60 52.5T328 426q-41 0-76.5-15t-62-42-42-63.5T132 226q0-69 39-110.5T275 74z"/><glyph glyph-name="Emacron" unicode="Ē" horiz-adv-x="555" d="M192 710h413l-19-88H263l-45-215h262l-19-88H199L150 88h323L454 0H41zm94 158h292l-14-65H272z"/><glyph glyph-name="emacron" unicode="ē" horiz-adv-x="570" d="M479 70q-38-36-89-57T279-8q-57 0-101 19.5t-74.5 52-46 75T42 227q0 58 21.5 109.5T123 426t90 60 113 22q55 0 95.5-18.5t67.5-49 40.5-70T543 288q0-31-6-59H132q1-37 13.5-66t33.5-48.5 48.5-30T286 74q41 0 75 15t60 41zM319 429q-63 0-110-33.5T142 304h307q-1 58-37 91.5T319 429zM217 679h292l-14-65H203z"/><glyph glyph-name="Ebreve" unicode="Ĕ" horiz-adv-x="555" d="M192 710h413l-19-88H263l-45-215h262l-19-88H199L150 88h323L454 0H41zm393 199q-11-62-55.5-99.5T409 772q-71 0-109.5 39.5T259 909h63q2-42 29-60.5t63-18.5q42 0 71.5 20t37.5 59h62z"/><glyph glyph-name="ebreve" unicode="ĕ" horiz-adv-x="570" d="M479 70q-38-36-89-57T279-8q-57 0-101 19.5t-74.5 52-46 75T42 227q0 58 21.5 109.5T123 426t90 60 113 22q55 0 95.5-18.5t67.5-49 40.5-70T543 288q0-31-6-59H132q1-37 13.5-66t33.5-48.5 48.5-30T286 74q41 0 75 15t60 41zM319 429q-63 0-110-33.5T142 304h307q-1 58-37 91.5T319 429zm195 281q-11-62-55.5-99.5T338 573q-71 0-109.5 39.5T188 710h63q2-42 29-60.5t63-18.5q42 0 71.5 20t37.5 59h62z"/><glyph glyph-name="Edotaccent" unicode="Ė" horiz-adv-x="555" d="M192 710h413l-19-88H263l-45-215h262l-19-88H199L150 88h323L454 0H41zm298 134q0-27-18.5-45.5T426 780q-25 0-43.5 18.5T364 844q0 26 18.5 44t43.5 18q27 0 45.5-18t18.5-44z"/><glyph glyph-name="edotaccent" unicode="ė" horiz-adv-x="570" d="M479 70q-38-36-89-57T279-8q-57 0-101 19.5t-74.5 52-46 75T42 227q0 58 21.5 109.5T123 426t90 60 113 22q55 0 95.5-18.5t67.5-49 40.5-70T543 288q0-31-6-59H132q1-37 13.5-66t33.5-48.5 48.5-30T286 74q41 0 75 15t60 41zM319 429q-63 0-110-33.5T142 304h307q-1 58-37 91.5T319 429zm95 202q0-26-18-44t-44-18-44 18-18 44 18 43.5 44 17.5 44-17.5 18-43.5z"/><glyph glyph-name="Eogonek" unicode="Ę" horiz-adv-x="555" d="M192 710h413l-19-88H263l-45-215h262l-19-88H199L150 88h323L454 0q-53-21-78.5-47T350-93q0-17 11-24t32-7q11 0 20.5 2.5T429-117l-13-62q-10-5-29-7.5t-36-2.5q-19 0-35.5 6.5t-29 17.5-19.5 25.5-7 31.5q0 22 9 39t23.5 30 33 22.5T363 0H41z"/><glyph glyph-name="eogonek" unicode="ę" horiz-adv-x="570" d="M312-169q-14-5-30-7t-33-2q-37 0-62.5 21T161-103q0 35 25 59t60 38q-49 6-87 27T95 73.5t-39.5 71T42 227q0 58 21.5 109.5T123 426t90 60 113 22q55 0 95.5-18.5t67.5-49 40.5-70T543 288q0-31-6-59H132q1-37 13.5-66t33.5-48.5 48.5-30T286 74q41 0 75 15t60 41l58-60q-27-26-60.5-44T347 0q-51-23-74.5-44T249-85q0-28 43-28 20 0 34 9zm7 598q-63 0-110-33.5T142 304h307q-1 58-37 91.5T319 429z"/><glyph glyph-name="Ecaron" unicode="Ě" horiz-adv-x="555" d="M192 710h413l-19-88H263l-45-215h262l-19-88H199L150 88h323L454 0H41zm382 216l31-61-195-99-150 103 39 57 117-80z"/><glyph glyph-name="ecaron" unicode="ě" horiz-adv-x="570" d="M535 675L339 569 191 682l40 52 114-87 158 87zM479 70q-38-36-89-57T279-8q-57 0-101 19.5t-74.5 52-46 75T42 227q0 58 21.5 109.5T123 426t90 60 113 22q55 0 95.5-18.5t67.5-49 40.5-70T543 288q0-31-6-59H132q1-37 13.5-66t33.5-48.5 48.5-30T286 74q41 0 75 15t60 41zM319 429q-63 0-110-33.5T142 304h307q-1 58-37 91.5T319 429z"/><glyph glyph-name="Gcircumflex" unicode="Ĝ" horiz-adv-x="770" d="M347 766l-31 61 195 99 150-103-39-57-117 80zM682 77q-58-41-131-63T403-8q-81 0-143 27.5t-104.5 74T91 200 69 325q0 75 27 146t79.5 125.5 128 88T477 718q85 0 153.5-28.5T741 608l-68-61q-32 40-86.5 62T470 631q-69 0-125-24t-96.5-65-62.5-95-22-114q0-50 15.5-95.5t46-81T302 100t106-21q58 0 107 13t87 41l40 186H442l58 88h253L682 77z"/><glyph glyph-name="gcircumflex" unicode="ĝ" horiz-adv-x="599" d="M177 612l196 106 148-113-40-52-114 87-158-87zM493 54q0-63-21-109.5T414-133t-87-46-108-15q-27 0-56.5 3.5T105-179t-53 20.5T8-128l54 73q26-26 68.5-41t92.5-15q82 0 131 39.5T403 45q0 11-3 20-28-20-64.5-33.5T253 18q-48 0-86.5 16.5t-65.5 45-42 68T44 232q0 57 20 107t57 87.5 90 59.5 118 22q47 0 84-13.5t64-36.5l9 42h87l-83-391q2-15 2.5-28.5T493 54zm-221 46q39 0 76 16t66 45l44 205q-23 29-59 44.5T324 426t-74-13-60.5-37.5-40.5-59-15-77.5q0-69 37.5-104T272 100z"/><glyph glyph-name="Gbreve" unicode="Ğ" horiz-adv-x="770" d="M682 77q-58-41-131-63T403-8q-81 0-143 27.5t-104.5 74T91 200 69 325q0 75 27 146t79.5 125.5 128 88T477 718q85 0 153.5-28.5T741 608l-68-61q-32 40-86.5 62T470 631q-69 0-125-24t-96.5-65-62.5-95-22-114q0-50 15.5-95.5t46-81T302 100t106-21q58 0 107 13t87 41l40 186H442l58 88h253L682 77zm-18 832q-11-62-55.5-99.5T488 772q-71 0-109.5 39.5T338 909h63q2-42 29-60.5t63-18.5q42 0 71.5 20t37.5 59h62z"/><glyph glyph-name="gbreve" unicode="ğ" horiz-adv-x="599" d="M493 54q0-63-21-109.5T414-133t-87-46-108-15q-27 0-56.5 3.5T105-179t-53 20.5T8-128l54 73q26-26 68.5-41t92.5-15q82 0 131 39.5T403 45q0 11-3 20-28-20-64.5-33.5T253 18q-48 0-86.5 16.5t-65.5 45-42 68T44 232q0 57 20 107t57 87.5 90 59.5 118 22q47 0 84-13.5t64-36.5l9 42h87l-83-391q2-15 2.5-28.5T493 54zm-221 46q39 0 76 16t66 45l44 205q-23 29-59 44.5T324 426t-74-13-60.5-37.5-40.5-59-15-77.5q0-69 37.5-104T272 100zm256 610q-11-62-55.5-99.5T352 573q-71 0-109.5 39.5T202 710h63q2-42 29-60.5t63-18.5q42 0 71.5 20t37.5 59h62z"/><glyph glyph-name="Gdotaccent" unicode="Ġ" horiz-adv-x="770" d="M555 844q0-27-18.5-45.5T491 780q-25 0-43.5 18.5T429 844q0 26 18.5 44t43.5 18q27 0 45.5-18t18.5-44zM682 77q-58-41-131-63T403-8q-81 0-143 27.5t-104.5 74T91 200 69 325q0 75 27 146t79.5 125.5 128 88T477 718q85 0 153.5-28.5T741 608l-68-61q-32 40-86.5 62T470 631q-69 0-125-24t-96.5-65-62.5-95-22-114q0-50 15.5-95.5t46-81T302 100t106-21q58 0 107 13t87 41l40 186H442l58 88h253L682 77z"/><glyph glyph-name="gdotaccent" unicode="ġ" horiz-adv-x="599" d="M493 54q0-63-21-109.5T414-133t-87-46-108-15q-27 0-56.5 3.5T105-179t-53 20.5T8-128l54 73q26-26 68.5-41t92.5-15q82 0 131 39.5T403 45q0 11-3 20-28-20-64.5-33.5T253 18q-48 0-86.5 16.5t-65.5 45-42 68T44 232q0 57 20 107t57 87.5 90 59.5 118 22q47 0 84-13.5t64-36.5l9 42h87l-83-391q2-15 2.5-28.5T493 54zm-221 46q39 0 76 16t66 45l44 205q-23 29-59 44.5T324 426t-74-13-60.5-37.5-40.5-59-15-77.5q0-69 37.5-104T272 100zm155 531q0-26-18-44t-44-18-44 18-18 44 18 43.5 44 17.5 44-17.5 18-43.5z"/><glyph glyph-name="uni0122" unicode="Ģ" horiz-adv-x="770" d="M367-50h100L320-229h-65zM682 77q-58-41-131-63T403-8q-81 0-143 27.5t-104.5 74T91 200 69 325q0 75 27 146t79.5 125.5 128 88T477 718q85 0 153.5-28.5T741 608l-68-61q-32 40-86.5 62T470 631q-69 0-125-24t-96.5-65-62.5-95-22-114q0-50 15.5-95.5t46-81T302 100t106-21q58 0 107 13t87 41l40 186H442l58 88h253L682 77z"/><glyph glyph-name="uni0123" unicode="ģ" horiz-adv-x="599" d="M493 54q0-63-21-109.5T414-133t-87-46-108-15q-27 0-56.5 3.5T105-179t-53 20.5T8-128l54 73q26-26 68.5-41t92.5-15q82 0 131 39.5T403 45q0 11-3 20-28-20-64.5-33.5T253 18q-48 0-86.5 16.5t-65.5 45-42 68T44 232q0 57 20 107t57 87.5 90 59.5 118 22q47 0 84-13.5t64-36.5l9 42h87l-83-391q2-15 2.5-28.5T493 54zm-221 46q39 0 76 16t66 45l44 205q-23 29-59 44.5T324 426t-74-13-60.5-37.5-40.5-59-15-77.5q0-69 37.5-104T272 100zm104.006 443.997h-99.994l146.99 178.989H488z"/><glyph glyph-name="Hcircumflex" unicode="Ĥ" horiz-adv-x="763" d="M192 710h91l-65-303h392l65 303h91L615 0h-91l68 319H200L132 0H41zm158 56l-31 61 195 99 150-103-39-57-117 80z"/><glyph glyph-name="hcircumflex" unicode="ĥ" horiz-adv-x="584" d="M173 710h86l-54-253q32 26 70 38.5t80 12.5q37 0 69-12t55-34.5 36.5-55T529 334q0-26-6-56L464 0h-87l57 270q2 12 3.5 22.5T439 314q0 54-31 83t-85 29q-41 0-76.5-18T183 356L108 0H22zm92 56l-31 61 195 99 150-103-39-57-117 80z"/><glyph glyph-name="Hbar" unicode="Ħ" horiz-adv-x="769" d="M110 602h62l23 108h91l-23-108h392l23 108h91l-23-108h63l-19-88h-63L618 0h-91l68 319H203L135 0H44l109 514H91zm503-195l23 107H244l-23-107h392z"/><glyph glyph-name="hbar" unicode="ħ" horiz-adv-x="584" d="M90 642h68l15 68h86l-15-68h173l-17-74H228l-23-111q32 26 70 38.5t80 12.5q37 0 69-12t55-34.5 36.5-55T529 334q0-26-6-56L464 0h-87l57 270q2 12 3.5 22.5T439 314q0 54-31 83t-85 29q-41 0-76.5-18T183 356L108 0H22l121 568H73z"/><glyph glyph-name="Itilde" unicode="Ĩ" horiz-adv-x="280" d="M192 710h91L132 0H41zM82 784l7 19q19 45 45 69.5t68 24.5q21 0 39-7t33.5-15 29-15 25.5-7q21 0 32.5 11t21.5 33h69l-7-18q-17-42-42.5-68T332 785q-21 0-39 7t-33.5 15-29 15-26.5 7q-20 0-31.5-11T151 784H82z"/><glyph glyph-name="itilde" unicode="ĩ" horiz-adv-x="237" d="M128 500h87L109 0H22zM13 566l7 19q19 45 45 69.5t68 24.5q21 0 39-7t33.5-15 29-15 25.5-7q21 0 32.5 11t21.5 33h69l-7-18q-17-42-42.5-68T263 567q-21 0-39 7t-33.5 15-29 15-26.5 7q-20 0-31.5-11T82 566H13z"/><glyph glyph-name="Imacron" unicode="Ī" horiz-adv-x="280" d="M192 710h91L132 0H41zm-65 158h292l-14-65H113z"/><glyph glyph-name="imacron" unicode="ī" horiz-adv-x="237" d="M128 500h87L109 0H22zM65 679h292l-14-65H51z"/><glyph glyph-name="Ibreve" unicode="Ĭ" horiz-adv-x="280" d="M192 710h91L132 0H41zm235 199q-11-62-55.5-99.5T251 772q-71 0-109.5 39.5T101 909h63q2-42 29-60.5t63-18.5q42 0 71.5 20t37.5 59h62z"/><glyph glyph-name="ibreve" unicode="ĭ" horiz-adv-x="237" d="M128 500h87L109 0H22zm247 210q-11-62-55.5-99.5T199 573q-71 0-109.5 39.5T49 710h63q2-42 29-60.5t63-18.5q42 0 71.5 20t37.5 59h62z"/><glyph glyph-name="Iogonek" unicode="Į" horiz-adv-x="280" d="M29-189q-19 0-35.5 6.5t-29 17.5-19.5 25.5-7 31.5q0 22 9 39t23.5 30 33 22.5T41 0l151 710h91L132 0Q79-21 53.5-47T28-93q0-17 11-24t32-7q11 0 20.5 2.5T107-117l-13-62q-10-5-29-7.5T29-189z"/><glyph glyph-name="iogonek" unicode="į" horiz-adv-x="236" d="M72-169q-14-5-30-7t-33-2q-37 0-62.5 21T-79-103q0 19 8.5 35T-48-39t32 22.5T22 0l106 500h86L108 0Q9-46 9-85q0-28 43-28 20 0 34 9zm80 778q-11 13-11 32 0 33 21.5 55t50.5 22q23 0 38.5-14t15.5-34-8-35-22-26h-85z"/><glyph glyph-name="Idotaccent" unicode="İ" horiz-adv-x="280" d="M192 710h91L132 0H41zm138 134q0-27-18.5-45.5T266 780q-25 0-43.5 18.5T204 844q0 26 18.5 44t43.5 18q27 0 45.5-18t18.5-44z"/><glyph glyph-name="dotlessi" unicode="ı" horiz-adv-x="237" d="M128 500h87L109 0H22z"/><glyph glyph-name="Jcircumflex" unicode="Ĵ" horiz-adv-x="529" d="M431 202q-12-58-34-98t-52.5-65T275 3 190-8q-39 0-73 10.5T57.5 34 17 85 2 154q0 12 1 23.5T7 203h91q-3-20-3-35 0-48 28-68.5T196 79q53 0 91 30.5t52 93.5l108 507h92L431 202zm-67 564l-31 61 195 99 150-103-39-57-117 80z"/><glyph glyph-name="jcircumflex" unicode="ĵ" horiz-adv-x="244" d="M-101-102h32q24 0 40 4.5T-2.5-83t17 26.5T26-17l110 517h86L111-26q-9-43-23.5-73T51-148t-53-27.5-74-8.5h-42zM30 612l196 106 148-113-40-52-114 87-158-87z"/><glyph glyph-name="uni0136" unicode="Ķ" horiz-adv-x="629" d="M224-50h100L177-229h-65zm-32 760h91l-76-354 391 354h115L307 341 586 0H483L204 339 132 0H41z"/><glyph glyph-name="uni0137" unicode="ķ" horiz-adv-x="509" d="M178-50h100L131-229H66zm-5 760h87l-94-439 271 229h111L259 257 462 0h-99L163 253 109 0H22z"/><glyph glyph-name="Lacute" unicode="Ĺ" horiz-adv-x="519" d="M327 913h105L286 768h-73zM192 710h91L151 89h319L451 0H41z"/><glyph glyph-name="lacute" unicode="ĺ" horiz-adv-x="237" d="M267 913h105L226 768h-73zm-94-203h87L109 0H22z"/><glyph glyph-name="uni013B" unicode="Ļ" horiz-adv-x="519" d="M206-50h100L159-229H94zm-14 760h91L151 89h319L451 0H41z"/><glyph glyph-name="uni013C" unicode="ļ" horiz-adv-x="237" d="M5-50h100L-42-229h-65zm168 760h87L109 0H22z"/><glyph glyph-name="Lcaron" unicode="Ľ" horiz-adv-x="521" d="M192 710h91L151 89h319L451 0H41zm197-165h-60l59 165h85z"/><glyph glyph-name="lcaron" unicode="ľ" horiz-adv-x="261" d="M173 710h87L109 0H22zm171-165h-60l59 165h85z"/><glyph glyph-name="Ldot" unicode="Ŀ" horiz-adv-x="525" d="M192 710h91L151 89h319L451 0H41zm293-309q0-26-18-44t-44-18-44 18-18 44 18 43.5 44 17.5 44-17.5 18-43.5z"/><glyph glyph-name="ldot" unicode="ŀ" horiz-adv-x="306" d="M355 353q0-26-18-44t-44-18-44 18-18 44 18 43.5 44 17.5 44-17.5 18-43.5zM173 710h87L109 0H22z"/><glyph glyph-name="Lslash" unicode="Ł" horiz-adv-x="570" d="M13 276l153 83 75 351h91l-63-295 184 100 41-76-249-136-45-214h319L500 0H90l52 247-87-47z"/><glyph glyph-name="lslash" unicode="ł" horiz-adv-x="352" d="M22 320l141 76 67 314h87l-56-260 88 47 37-68-146-79L166 0H79l63 297-83-45z"/><glyph glyph-name="Nacute" unicode="Ń" horiz-adv-x="782" d="M541 913h105L500 768h-73zM240 509L132 0H41l153 718 391-521 109 513h91L632-8z"/><glyph glyph-name="nacute" unicode="ń" horiz-adv-x="584" d="M408 710h100L355 545h-73zM128 500h83l-10-46q66 54 154 54 37 0 69-12t55-34.5 36.5-55T529 334q0-26-6-56L464 0h-87l57 270q2 12 3.5 22.5T439 314q0 54-31 83t-85 29q-41 0-76.5-18T184 356L109 0H22z"/><glyph glyph-name="uni0145" unicode="Ņ" horiz-adv-x="782" d="M298-50h100L251-229h-65zm-58 559L132 0H41l153 718 391-521 109 513h91L632-8z"/><glyph glyph-name="uni0146" unicode="ņ" horiz-adv-x="584" d="M203-50h100L156-229H91zm-75 550h83l-10-46q66 54 154 54 37 0 69-12t55-34.5 36.5-55T529 334q0-26-6-56L464 0h-87l57 270q2 12 3.5 22.5T439 314q0 54-31 83t-85 29q-41 0-76.5-18T184 356L109 0H22z"/><glyph glyph-name="Ncaron" unicode="Ň" horiz-adv-x="782" d="M240 509L132 0H41l153 718 391-521 109 513h91L632-8zm425 417l31-61-195-99-150 103 39 57 117-80z"/><glyph glyph-name="ncaron" unicode="ň" horiz-adv-x="584" d="M559 675L363 569 215 682l40 52 114-87 158 87zM128 500h83l-10-46q66 54 154 54 37 0 69-12t55-34.5 36.5-55T529 334q0-26-6-56L464 0h-87l57 270q2 12 3.5 22.5T439 314q0 54-31 83t-85 29q-41 0-76.5-18T184 356L109 0H22z"/><glyph glyph-name="Omacron" unicode="Ō" horiz-adv-x="832" d="M164 333q0-51 15.5-97t46-81T302 99.5 408 79q69 0 125 24t96.5 65 62.5 95 22 114q0 51-15.5 97t-46 81-76.5 55.5T470 631q-69 0-125-24t-96.5-65-62.5-95-22-114zm644 52q0-75-27-146t-79-125.5-128-88T400-8q-80 0-141.5 28T155 94 91 200 69 325q0 75 27 146t79.5 125.5 128 88T477 718q79 0 141-28t104-74 64-106.5T808 385zM393 868h292l-14-65H379z"/><glyph glyph-name="omacron" unicode="ō" horiz-adv-x="605" d="M249 679h292l-14-65H235zM132 234q0-38 12.5-67.5t34-50T228 85t60-11q40 0 74 14.5t59 40 39.5 60.5 14.5 77q0 38-12.5 67.5t-34 50-50 31.5-59.5 11q-40 0-74-14.5t-59-40-39.5-60.5-14.5-77zm432 40q0-59-21.5-110.5T483 74t-90-60T281-8q-57 0-101.5 19.5t-75 52-46.5 75T42 227q0 58 21.5 109.5t60 89.5 90.5 60 112 22q57 0 101.5-19.5t74.5-52 46-74.5 16-88z"/><glyph glyph-name="Obreve" unicode="Ŏ" horiz-adv-x="832" d="M164 333q0-51 15.5-97t46-81T302 99.5 408 79q69 0 125 24t96.5 65 62.5 95 22 114q0 51-15.5 97t-46 81-76.5 55.5T470 631q-69 0-125-24t-96.5-65-62.5-95-22-114zm644 52q0-75-27-146t-79-125.5-128-88T400-8q-80 0-141.5 28T155 94 91 200 69 325q0 75 27 146t79.5 125.5 128 88T477 718q79 0 141-28t104-74 64-106.5T808 385zM703 909q-11-62-55.5-99.5T527 772q-71 0-109.5 39.5T377 909h63q2-42 29-60.5t63-18.5q42 0 71.5 20t37.5 59h62z"/><glyph glyph-name="obreve" unicode="ŏ" horiz-adv-x="605" d="M132 234q0-38 12.5-67.5t34-50T228 85t60-11q40 0 74 14.5t59 40 39.5 60.5 14.5 77q0 38-12.5 67.5t-34 50-50 31.5-59.5 11q-40 0-74-14.5t-59-40-39.5-60.5-14.5-77zm432 40q0-59-21.5-110.5T483 74t-90-60T281-8q-57 0-101.5 19.5t-75 52-46.5 75T42 227q0 58 21.5 109.5t60 89.5 90.5 60 112 22q57 0 101.5-19.5t74.5-52 46-74.5 16-88zm-16 436q-11-62-55.5-99.5T372 573q-71 0-109.5 39.5T222 710h63q2-42 29-60.5t63-18.5q42 0 71.5 20t37.5 59h62z"/><glyph glyph-name="Ohungarumlaut" unicode="Ő" horiz-adv-x="832" d="M670 913h100L624 768h-68zm-195 0h100L429 768h-68zM164 333q0-51 15.5-97t46-81T302 99.5 408 79q69 0 125 24t96.5 65 62.5 95 22 114q0 51-15.5 97t-46 81-76.5 55.5T470 631q-69 0-125-24t-96.5-65-62.5-95-22-114zm644 52q0-75-27-146t-79-125.5-128-88T400-8q-80 0-141.5 28T155 94 91 200 69 325q0 75 27 146t79.5 125.5 128 88T477 718q79 0 141-28t104-74 64-106.5T808 385z"/><glyph glyph-name="ohungarumlaut" unicode="ő" horiz-adv-x="605" d="M500 710h91L438 545h-64zm-159 0h91L279 545h-64zM132 234q0-38 12.5-67.5t34-50T228 85t60-11q40 0 74 14.5t59 40 39.5 60.5 14.5 77q0 38-12.5 67.5t-34 50-50 31.5-59.5 11q-40 0-74-14.5t-59-40-39.5-60.5-14.5-77zm432 40q0-59-21.5-110.5T483 74t-90-60T281-8q-57 0-101.5 19.5t-75 52-46.5 75T42 227q0 58 21.5 109.5t60 89.5 90.5 60 112 22q57 0 101.5-19.5t74.5-52 46-74.5 16-88z"/><glyph glyph-name="OE" unicode="Œ" horiz-adv-x="1082" d="M573 25Q535 9 492 .5T400-8q-80 0-141.5 28T155 94 91 200 69 325q0 75 27 146t79.5 125.5 128 88T477 718q71 0 127.5-22.5T703 635l16 75h413l-19-88H791l-17-84q14-30 22.5-63t10.5-68h200l-19-88H802q-11-66-42.5-125T677 90v-2h323L981 0H568zM164 333q0-51 15.5-97t46-81T302 99.5 408 79q69 0 125 24t96.5 65 62.5 95 22 114q0 51-15.5 97t-46 81-76.5 55.5T470 631q-69 0-125-24t-96.5-65-62.5-95-22-114z"/><glyph glyph-name="oe" unicode="œ" horiz-adv-x="1003" d="M508 103q-38-51-96.5-81T281-8q-57 0-101.5 19.5t-75 52-46.5 75T42 227q0 58 21.5 109.5t60 89.5 90.5 60 112 22q73 0 124.5-31t80.5-80q38 51 97 81t131 30q55 0 95.5-18.5t67.5-49 40.5-70T976 288q0-31-6-59H565q1-37 13.5-66t33.5-48.5 48.5-30T719 74q41 0 75 15t60 41l58-60q-38-36-89-57T712-8q-73 0-124.5 31T508 103zM288 75q40 0 74 14t59 39.5 39.5 60.5 14.5 77q0 38-12.5 67.5t-34 50-50 31T319 425q-40 0-74-14t-59-39.5-39.5-60.5-14.5-77q0-38 12.5-67.5t34-50 49.5-31T288 75zm594 229q-1 58-37 91.5T752 429q-63 0-110-33.5T575 304h307z"/><glyph glyph-name="Racute" unicode="Ŕ" horiz-adv-x="628" d="M295 315h-96L132 0H41l151 710h199q51 0 89.5-13t64-36.5 38.5-56 13-71.5q0-91-54.5-146.5T390 318L562 0H462zm40 79q82 0 125.5 37t43.5 96q0 47-31 73.5T378 627H265l-49-233h119zm99 519h105L393 768h-73z"/><glyph glyph-name="racute" unicode="ŕ" horiz-adv-x="352" d="M318 710h100L265 545h-73zM128 500h87l-13-61q28 32 67.5 50t86.5 18q9 0 17.5-.5T390 505l-19-91q-20 6-48 6-43 0-79.5-19.5T182 343L109 0H22z"/><glyph glyph-name="uni0156" unicode="Ŗ" horiz-adv-x="628" d="M236-50h100L189-229h-65zm59 365h-96L132 0H41l151 710h199q51 0 89.5-13t64-36.5 38.5-56 13-71.5q0-91-54.5-146.5T390 318L562 0H462zm40 79q82 0 125.5 37t43.5 96q0 47-31 73.5T378 627H265l-49-233h119z"/><glyph glyph-name="uni0157" unicode="ŗ" horiz-adv-x="352" d="M5-50h100L-42-229h-65zm123 550h87l-13-61q28 32 67.5 50t86.5 18q9 0 17.5-.5T390 505l-19-91q-20 6-48 6-43 0-79.5-19.5T182 343L109 0H22z"/><glyph glyph-name="Rcaron" unicode="Ř" horiz-adv-x="628" d="M295 315h-96L132 0H41l151 710h199q51 0 89.5-13t64-36.5 38.5-56 13-71.5q0-91-54.5-146.5T390 318L562 0H462zm40 79q82 0 125.5 37t43.5 96q0 47-31 73.5T378 627H265l-49-233h119zm226 532l31-61-195-99-150 103 39 57 117-80z"/><glyph glyph-name="rcaron" unicode="ř" horiz-adv-x="352" d="M470 675L274 569 126 682l40 52 114-87 158 87zM128 500h87l-13-61q28 32 67.5 50t86.5 18q9 0 17.5-.5T390 505l-19-91q-20 6-48 6-43 0-79.5-19.5T182 343L109 0H22z"/><glyph glyph-name="Sacute" unicode="Ś" horiz-adv-x="530" d="M480 189q0-41-16.5-76.5T416 50 340.5 7.5 241-8q-41 0-77.5 10.5T97 31.5 44 75 6 130l83 51q9-20 24-39t34.5-33 45-22.5T248 78q64 0 100.5 29t36.5 74q0 42-23 71.5T296 312l-60 42q-57 42-87 85t-30 101q0 41 16.5 74t46 56 68.5 35.5 84 12.5q62 0 116.5-26t89.5-84l-82-52q-44 76-132 76-48 0-81.5-24T211 540q0-37 21-63t61-55l61-43q27-19 50-39.5t40-43.5 26.5-49.5T480 189zm-70 724h105L369 768h-73z"/><glyph glyph-name="sacute" unicode="ś" horiz-adv-x="422" d="M334 710h100L281 545h-73zm30-572q0-33-14-59.5t-37.5-46-54.5-30T192-8Q118-8 72 23.5T6 114l76 34q28-79 114-79 33 0 57.5 16t24.5 44q0 26-17 43.5T210 210l-39 23q-40 23-68.5 57T74 369q0 31 12 56.5t33.5 44T171 498t65 10q54 0 96-25t62-75l-78-35q-11 27-32 42t-53 15q-31 0-51-14.5T160 374q0-22 14-38.5t42-33.5l39-24q21-12 40.5-25.5t34.5-31 24.5-38T364 138z"/><glyph glyph-name="Scircumflex" unicode="Ŝ" horiz-adv-x="530" d="M480 189q0-41-16.5-76.5T416 50 340.5 7.5 241-8q-41 0-77.5 10.5T97 31.5 44 75 6 130l83 51q9-20 24-39t34.5-33 45-22.5T248 78q64 0 100.5 29t36.5 74q0 42-23 71.5T296 312l-60 42q-57 42-87 85t-30 101q0 41 16.5 74t46 56 68.5 35.5 84 12.5q62 0 116.5-26t89.5-84l-82-52q-44 76-132 76-48 0-81.5-24T211 540q0-37 21-63t61-55l61-43q27-19 50-39.5t40-43.5 26.5-49.5T480 189zM224 766l-31 61 195 99 150-103-39-57-117 80z"/><glyph glyph-name="scircumflex" unicode="ŝ" horiz-adv-x="422" d="M86 612l196 106 148-113-40-52-114 87-158-87zm278-474q0-33-14-59.5t-37.5-46-54.5-30T192-8Q118-8 72 23.5T6 114l76 34q28-79 114-79 33 0 57.5 16t24.5 44q0 26-17 43.5T210 210l-39 23q-40 23-68.5 57T74 369q0 31 12 56.5t33.5 44T171 498t65 10q54 0 96-25t62-75l-78-35q-11 27-32 42t-53 15q-31 0-51-14.5T160 374q0-22 14-38.5t42-33.5l39-24q21-12 40.5-25.5t34.5-31 24.5-38T364 138z"/><glyph glyph-name="Scedilla" unicode="Ş" horiz-adv-x="530" d="M480 189q0-38-14.5-72t-42-60-67-43T268-7l-62-128h-98L208-6Q137 2 85 39T6 130l83 51q9-20 24-39t34.5-33 45-22.5T248 78q64 0 100.5 29t36.5 74q0 42-23 71.5T296 312l-60 42q-57 42-87 85t-30 101q0 41 16.5 74t46 56 68.5 35.5 84 12.5q62 0 116.5-26t89.5-84l-82-52q-44 76-132 76-48 0-81.5-24T211 540q0-37 21-63t61-55l61-43q27-19 50-39.5t40-43.5 26.5-49.5T480 189z"/><glyph glyph-name="scedilla" unicode="ş" horiz-adv-x="422" d="M152-5Q95 3 59 33T6 114l76 34q28-79 114-79 33 0 57.5 16t24.5 44q0 26-17 43.5T210 210l-39 23q-40 23-68.5 57T74 369q0 31 12 56.5t33.5 44T171 498t65 10q54 0 96-25t62-75l-78-35q-11 27-32 42t-53 15q-31 0-51-14.5T160 374q0-22 14-38.5t42-33.5l39-24q21-12 40.5-25.5t34.5-31 24.5-38T364 138q0-30-12-55.5T319.5 38 271 7.5 211-7l-62-128H51z"/><glyph glyph-name="Scaron" unicode="Š" horiz-adv-x="530" d="M480 189q0-41-16.5-76.5T416 50 340.5 7.5 241-8q-41 0-77.5 10.5T97 31.5 44 75 6 130l83 51q9-20 24-39t34.5-33 45-22.5T248 78q64 0 100.5 29t36.5 74q0 42-23 71.5T296 312l-60 42q-57 42-87 85t-30 101q0 41 16.5 74t46 56 68.5 35.5 84 12.5q62 0 116.5-26t89.5-84l-82-52q-44 76-132 76-48 0-81.5-24T211 540q0-37 21-63t61-55l61-43q27-19 50-39.5t40-43.5 26.5-49.5T480 189zm29 737l31-61-195-99-150 103 39 57 117-80z"/><glyph glyph-name="scaron" unicode="š" horiz-adv-x="422" d="M447 675L251 569 103 682l40 52 114-87 158 87zm-83-537q0-33-14-59.5t-37.5-46-54.5-30T192-8Q118-8 72 23.5T6 114l76 34q28-79 114-79 33 0 57.5 16t24.5 44q0 26-17 43.5T210 210l-39 23q-40 23-68.5 57T74 369q0 31 12 56.5t33.5 44T171 498t65 10q54 0 96-25t62-75l-78-35q-11 27-32 42t-53 15q-31 0-51-14.5T160 374q0-22 14-38.5t42-33.5l39-24q21-12 40.5-25.5t34.5-31 24.5-38T364 138z"/><glyph glyph-name="uni0162" unicode="Ţ" horiz-adv-x="506" d="M138-50h100L91-229H26zm147 672H92l19 88h478l-19-88H376L244 0h-91z"/><glyph glyph-name="uni0163" unicode="ţ" horiz-adv-x="357" d="M126-50h100L79-229H14zM60 500h98l23 105 98 45-32-150h133l-18-78H230l-54-249q-4-17-5-27t-1-18q0-25 14.5-37.5T236 78h59L278 0h-63Q80 0 80 108q0 13 2 26.5t5 29.5l55 258H60v78z"/><glyph glyph-name="Tcaron" unicode="Ť" horiz-adv-x="506" d="M285 622H92l19 88h478l-19-88H376L244 0h-91zm241 304l31-61-195-99-150 103 39 57 117-80z"/><glyph glyph-name="tcaron" unicode="ť" horiz-adv-x="357" d="M60 500h98l23 105 98 45-32-150h133l-18-78H230l-54-249q-4-17-5-27t-1-18q0-25 14.5-37.5T236 78h59L278 0h-63Q80 0 80 108q0 13 2 26.5t5 29.5l55 258H60v78zm322 45h-60l59 165h85z"/><glyph glyph-name="Utilde" unicode="Ũ" horiz-adv-x="730" d="M649 272q-14-67-40-119t-65-88-92.5-54.5T328-8q-54 0-99 14.5t-77 42-50 67T84 206q0 34 7 66l93 438h91l-94-440q-6-29-6-52 0-69 42.5-104T332 79q85 0 145 48.5T557 270l94 440h91l-93-438zM306 784l7 19q19 45 45 69.5t68 24.5q21 0 39-7t33.5-15 29-15 25.5-7q21 0 32.5 11t21.5 33h69l-7-18q-17-42-42.5-68T556 785q-21 0-39 7t-33.5 15-29 15-26.5 7q-20 0-31.5-11T375 784h-69z"/><glyph glyph-name="utilde" unicode="ũ" horiz-adv-x="578" d="M377 46q-32-27-71-40.5T226-8q-38 0-69 11.5T103 37 67.5 90.5 55 162q0 26 6 56l60 282h87l-58-274q-6-29-6-50 0-51 28.5-76.5T255 74q41 0 76.5 17.5T394 144l75 356h87L450 0h-83zM179 566l7 19q19 45 45 69.5t68 24.5q21 0 39-7t33.5-15 29-15 25.5-7q21 0 32.5 11t21.5 33h69l-7-18q-17-42-42.5-68T429 567q-21 0-39 7t-33.5 15-29 15-26.5 7q-20 0-31.5-11T248 566h-69z"/><glyph glyph-name="Umacron" unicode="Ū" horiz-adv-x="730" d="M649 272q-14-67-40-119t-65-88-92.5-54.5T328-8q-54 0-99 14.5t-77 42-50 67T84 206q0 34 7 66l93 438h91l-94-440q-6-29-6-52 0-69 42.5-104T332 79q85 0 145 48.5T557 270l94 440h91l-93-438zM351 868h292l-14-65H337z"/><glyph glyph-name="umacron" unicode="ū" horiz-adv-x="578" d="M377 46q-32-27-71-40.5T226-8q-38 0-69 11.5T103 37 67.5 90.5 55 162q0 26 6 56l60 282h87l-58-274q-6-29-6-50 0-51 28.5-76.5T255 74q41 0 76.5 17.5T394 144l75 356h87L450 0h-83zM231 679h292l-14-65H217z"/><glyph glyph-name="Ubreve" unicode="Ŭ" horiz-adv-x="730" d="M649 272q-14-67-40-119t-65-88-92.5-54.5T328-8q-54 0-99 14.5t-77 42-50 67T84 206q0 34 7 66l93 438h91l-94-440q-6-29-6-52 0-69 42.5-104T332 79q85 0 145 48.5T557 270l94 440h91l-93-438zm2 637q-11-62-55.5-99.5T475 772q-71 0-109.5 39.5T325 909h63q2-42 29-60.5t63-18.5q42 0 71.5 20t37.5 59h62z"/><glyph glyph-name="ubreve" unicode="ŭ" horiz-adv-x="578" d="M377 46q-32-27-71-40.5T226-8q-38 0-69 11.5T103 37 67.5 90.5 55 162q0 26 6 56l60 282h87l-58-274q-6-29-6-50 0-51 28.5-76.5T255 74q41 0 76.5 17.5T394 144l75 356h87L450 0h-83zm152 664q-11-62-55.5-99.5T353 573q-71 0-109.5 39.5T203 710h63q2-42 29-60.5t63-18.5q42 0 71.5 20t37.5 59h62z"/><glyph glyph-name="Uring" unicode="Ů" horiz-adv-x="730" d="M492 751q-42 0-70.5 26.5T393 845q0 42 29 68.5t70 26.5 70-26.5 29-68.5q0-41-28.5-67.5T492 751zm0 47q20 0 34 13t14 34-14 34.5-34 13.5-34-13.5-14-34.5 14-34 34-13zm157-526q-14-67-40-119t-65-88-92.5-54.5T328-8q-54 0-99 14.5t-77 42-50 67T84 206q0 34 7 66l93 438h91l-94-440q-6-29-6-52 0-69 42.5-104T332 79q85 0 145 48.5T557 270l94 440h91l-93-438z"/><glyph glyph-name="uring" unicode="ů" horiz-adv-x="578" d="M471 660q0-20-7.5-37t-21-30-31.5-20-39-7-39 7-31.5 20-21 30-7.5 37q0 42 29 68.5t70 26.5 70-26.5 29-68.5zm-99-47q20 0 34 13t14 34q0 22-14 35t-34 13-34-13-14-35q0-21 14-34t34-13zm5-567q-32-27-71-40.5T226-8q-38 0-69 11.5T103 37 67.5 90.5 55 162q0 26 6 56l60 282h87l-58-274q-6-29-6-50 0-51 28.5-76.5T255 74q41 0 76.5 17.5T394 144l75 356h87L450 0h-83z"/><glyph glyph-name="Uhungarumlaut" unicode="Ű" horiz-adv-x="730" d="M648 913h100L602 768h-68zm-195 0h100L407 768h-68zm196-641q-14-67-40-119t-65-88-92.5-54.5T328-8q-54 0-99 14.5t-77 42-50 67T84 206q0 34 7 66l93 438h91l-94-440q-6-29-6-52 0-69 42.5-104T332 79q85 0 145 48.5T557 270l94 440h91l-93-438z"/><glyph glyph-name="uhungarumlaut" unicode="ű" horiz-adv-x="578" d="M377 46q-32-27-71-40.5T226-8q-38 0-69 11.5T103 37 67.5 90.5 55 162q0 26 6 56l60 282h87l-58-274q-6-29-6-50 0-51 28.5-76.5T255 74q41 0 76.5 17.5T394 144l75 356h87L450 0h-83zm130 664h91L445 545h-64zm-159 0h91L286 545h-64z"/><glyph glyph-name="Uogonek" unicode="Ų" horiz-adv-x="730" d="M309-189q-19 0-35.5 6.5t-29 17.5-19.5 25.5-7 31.5q0 38 26 62.5T303-7q-49 3-89.5 19t-69 43-44.5 65-16 86q0 34 7 66l93 438h91l-94-440q-6-29-6-52 0-69 42.5-104T332 79q85 0 145 48.5T557 270l94 440h91l-93-438q-24-112-81-182T411 0q-52-21-77.5-47T308-93q0-17 11-24t32-7q11 0 20.5 2.5T387-117l-13-62q-10-5-29-7.5t-36-2.5z"/><glyph glyph-name="uogonek" unicode="ų" horiz-adv-x="578" d="M414-169q-14-5-30-7t-33-2q-37 0-62.5 21T263-103q0 39 30.5 63.5T367 0l10 46q-32-27-71-40.5T226-8q-38 0-69 11.5T103 37 67.5 90.5 55 162q0 26 6 56l60 282h87l-58-274q-6-29-6-50 0-51 28.5-76.5T255 74q41 0 76.5 17.5T394 144l75 356h87L450 0q-99-46-99-85 0-28 43-28 20 0 34 9l-14-65z"/><glyph glyph-name="Wcircumflex" unicode="Ŵ" horiz-adv-x="872" d="M402 766l-31 61 195 99 150-103-39-57-117 80zm-298-56h86l54-470 289 478 82-484 253 476h95L574-8l-82 505L187-8z"/><glyph glyph-name="wcircumflex" unicode="ŵ" horiz-adv-x="687" d="M234 612l196 106 148-113-40-52-114 87-158-87zM62 500h85l34-363 214 371 58-373 188 365h86L474 0h-73l-45 298L187 0h-74z"/><glyph glyph-name="Ycircumflex" unicode="Ŷ" horiz-adv-x="625" d="M278 300L103 710h100l132-322 267 322h114L369 300 305 0h-91zm-3 466l-31 61 195 99 150-103-39-57-117 80z"/><glyph glyph-name="ycircumflex" unicode="ŷ" horiz-adv-x="513" d="M161 30L58 500h89l80-377 239 377h98L120-184H22zm-14 582l196 106 148-113-40-52-114 87-158-87z"/><glyph glyph-name="Ydieresis" unicode="Ÿ" horiz-adv-x="625" d="M278 300L103 710h100l132-322 267 322h114L369 300 305 0h-91zm103 544q0-26-18-44t-44-18q-24 0-42.5 18T258 844q0 25 18.5 42.5T319 904q26 0 44-17.5t18-42.5zm225 0q0-26-18-44t-44-18q-25 0-43 18t-18 44q0 25 18 42.5t43 17.5q26 0 44-17.5t18-42.5z"/><glyph glyph-name="Zacute" unicode="Ź" horiz-adv-x="594" d="M480 622H133l19 88h513L140 89h388L509 0H-45zm-20 291h105L419 768h-73z"/><glyph glyph-name="zacute" unicode="ź" horiz-adv-x="496" d="M371 710h100L318 545h-73zm-22-288H86l16 78h421L137 78h285L405 0H-37z"/><glyph glyph-name="Zdotaccent" unicode="Ż" horiz-adv-x="594" d="M498 844q0-27-18.5-45.5T434 780q-25 0-43.5 18.5T372 844q0 26 18.5 44t43.5 18q27 0 45.5-18t18.5-44zm-18-222H133l19 88h513L140 89h388L509 0H-45z"/><glyph glyph-name="zdotaccent" unicode="ż" horiz-adv-x="496" d="M349 422H86l16 78h421L137 78h285L405 0H-37zm51 209q0-26-18-44t-44-18-44 18-18 44 18 43.5 44 17.5 44-17.5 18-43.5z"/><glyph glyph-name="Zcaron" unicode="Ž" horiz-adv-x="594" d="M480 622H133l19 88h513L140 89h388L509 0H-45zm103 304l31-61-195-99-150 103 39 57 117-80z"/><glyph glyph-name="zcaron" unicode="ž" horiz-adv-x="496" d="M522 675L326 569 178 682l40 52 114-87 158 87zM349 422H86l16 78h421L137 78h285L405 0H-37z"/><glyph glyph-name="uni0218" unicode="Ș" horiz-adv-x="530" d="M183-50h100L136-229H71zm297 239q0-41-16.5-76.5T416 50 340.5 7.5 241-8q-41 0-77.5 10.5T97 31.5 44 75 6 130l83 51q9-20 24-39t34.5-33 45-22.5T248 78q64 0 100.5 29t36.5 74q0 42-23 71.5T296 312l-60 42q-57 42-87 85t-30 101q0 41 16.5 74t46 56 68.5 35.5 84 12.5q62 0 116.5-26t89.5-84l-82-52q-44 76-132 76-48 0-81.5-24T211 540q0-37 21-63t61-55l61-43q27-19 50-39.5t40-43.5 26.5-49.5T480 189z"/><glyph glyph-name="uni0219" unicode="ș" horiz-adv-x="422" d="M132-50h100L85-229H20zm232 188q0-33-14-59.5t-37.5-46-54.5-30T192-8Q118-8 72 23.5T6 114l76 34q28-79 114-79 33 0 57.5 16t24.5 44q0 26-17 43.5T210 210l-39 23q-40 23-68.5 57T74 369q0 31 12 56.5t33.5 44T171 498t65 10q54 0 96-25t62-75l-78-35q-11 27-32 42t-53 15q-31 0-51-14.5T160 374q0-22 14-38.5t42-33.5l39-24q21-12 40.5-25.5t34.5-31 24.5-38T364 138z"/><glyph glyph-name="uni021A" unicode="Ț" horiz-adv-x="506" d="M138-50h100L91-229H26zm147 672H92l19 88h478l-19-88H376L244 0h-91z"/><glyph glyph-name="uni021B" unicode="ț" horiz-adv-x="357" d="M126-50h100L79-229H14zM60 500h98l23 105 98 45-32-150h133l-18-78H230l-54-249q-4-17-5-27t-1-18q0-25 14.5-37.5T236 78h59L278 0h-63Q80 0 80 108q0 13 2 26.5t5 29.5l55 258H60v78z"/><glyph glyph-name="uni0232" unicode="Ȳ" horiz-adv-x="625" d="M278 300L103 710h100l132-322 267 322h114L369 300 305 0h-91zm14 568h292l-14-65H278z"/><glyph glyph-name="uni0233" unicode="ȳ" horiz-adv-x="513" d="M161 30L58 500h89l80-377 239 377h98L120-184H22zm38 649h292l-14-65H185z"/><glyph glyph-name="uni0237" unicode="ȷ" horiz-adv-x="244" d="M-101-102h32q24 0 40 4.5T-2.5-83t17 26.5T26-17l110 517h86L111-26q-9-43-23.5-73T51-148t-53-27.5-74-8.5h-42z"/><glyph glyph-name="circumflex" unicode="ˆ" horiz-adv-x="405" d="M160 612l196 106 148-113-40-52-114 87-158-87z"/><glyph glyph-name="caron" unicode="ˇ" horiz-adv-x="405" d="M519 675L323 569 175 682l40 52 114-87 158 87z"/><glyph glyph-name="breve" unicode="˘" horiz-adv-x="386" d="M507 710q-11-62-55.5-99.5T331 573q-71 0-109.5 39.5T181 710h63q2-42 29-60.5t63-18.5q42 0 71.5 20t37.5 59h62z"/><glyph glyph-name="dotaccent" unicode="˙" horiz-adv-x="187" d="M289 631q0-26-18-44t-44-18-44 18-18 44 18 43.5 44 17.5 44-17.5 18-43.5z"/><glyph glyph-name="ring" unicode="˚" horiz-adv-x="262" d="M370 660q0-20-7.5-37t-21-30-31.5-20-39-7-39 7-31.5 20-21 30-7.5 37q0 42 29 68.5t70 26.5 70-26.5 29-68.5zm-99-47q20 0 34 13t14 34q0 22-14 35t-34 13-34-13-14-35q0-21 14-34t34-13z"/><glyph glyph-name="ogonek" unicode="˛" horiz-adv-x="238" d="M166-169q-14-5-30-7t-33-2q-37 0-62.5 21T15-103q0 19 8.5 35T46-39t32 22.5T116 0h86q-99-46-99-85 0-28 43-28 20 0 34 9l-14-65z"/><glyph glyph-name="tilde" unicode="˜" horiz-adv-x="436" d="M165 566l7 19q19 45 45 69.5t68 24.5q21 0 39-7t33.5-15 29-15 25.5-7q21 0 32.5 11t21.5 33h69l-7-18q-17-42-42.5-68T415 567q-21 0-39 7t-33.5 15-29 15-26.5 7q-20 0-31.5-11T234 566h-69z"/><glyph glyph-name="hungarumlaut" unicode="˝" horiz-adv-x="417" d="M434 710h91L372 545h-64zm-159 0h91L213 545h-64z"/><glyph glyph-name="Wgrave" unicode="Ẁ" horiz-adv-x="872" d="M424 913h90l61-145h-65zM104 710h86l54-470 289 478 82-484 253 476h95L574-8l-82 505L187-8z"/><glyph glyph-name="wgrave" unicode="ẁ" horiz-adv-x="687" d="M62 500h85l34-363 214 371 58-373 188 365h86L474 0h-73l-45 298L187 0h-74zm211 210h104l56-165h-61z"/><glyph glyph-name="Wacute" unicode="Ẃ" horiz-adv-x="872" d="M620 913h105L579 768h-73zM104 710h86l54-470 289 478 82-484 253 476h95L574-8l-82 505L187-8z"/><glyph glyph-name="wacute" unicode="ẃ" horiz-adv-x="687" d="M493 710h100L440 545h-73zM62 500h85l34-363 214 371 58-373 188 365h86L474 0h-73l-45 298L187 0h-74z"/><glyph glyph-name="Wdieresis" unicode="Ẅ" horiz-adv-x="872" d="M104 710h86l54-470 289 478 82-484 253 476h95L574-8l-82 505L187-8zm405 134q0-26-18-44t-44-18q-24 0-42.5 18T386 844q0 25 18.5 42.5T447 904q26 0 44-17.5t18-42.5zm225 0q0-26-18-44t-44-18q-25 0-43 18t-18 44q0 25 18 42.5t43 17.5q26 0 44-17.5t18-42.5z"/><glyph glyph-name="wdieresis" unicode="ẅ" horiz-adv-x="687" d="M368 631q0-26-17.5-43T307 571q-24 0-42 17t-18 43q0 25 18 42t42 17q26 0 43.5-17t17.5-42zm224 0q0-26-17-43t-43-17q-25 0-42.5 17T472 631q0 25 17.5 42t42.5 17q26 0 43-17t17-42zM62 500h85l34-363 214 371 58-373 188 365h86L474 0h-73l-45 298L187 0h-74z"/><glyph glyph-name="uni1ECA" unicode="Ị" horiz-adv-x="280" d="M192 710h91L132 0H41zm-69-840q0-26-18-44t-44-18-44 18-18 44 18 43.5T61-69t44-17.5 18-43.5z"/><glyph glyph-name="uni1ECB" unicode="ị" horiz-adv-x="236" d="M152 609q-11 13-11 32 0 33 21.5 55t50.5 22q23 0 38.5-14t15.5-34-8-35-22-26h-85zm-24-109h86L108 0H22zm-26-630q0-26-18-44t-44-18-44 18-18 44 18 43.5T40-69t44-17.5 18-43.5z"/><glyph glyph-name="uni1ECC" unicode="Ọ" horiz-adv-x="832" d="M398-130q0-26-18-44t-44-18-44 18-18 44 18 43.5T336-69t44-17.5 18-43.5zM164 333q0-51 15.5-97t46-81T302 99.5 408 79q69 0 125 24t96.5 65 62.5 95 22 114q0 51-15.5 97t-46 81-76.5 55.5T470 631q-69 0-125-24t-96.5-65-62.5-95-22-114zm644 52q0-75-27-146t-79-125.5-128-88T400-8q-80 0-141.5 28T155 94 91 200 69 325q0 75 27 146t79.5 125.5 128 88T477 718q79 0 141-28t104-74 64-106.5T808 385z"/><glyph glyph-name="uni1ECD" unicode="ọ" horiz-adv-x="605" d="M285-130q0-26-18-44t-44-18-44 18-18 44 18 43.5T223-69t44-17.5 18-43.5zM132 234q0-38 12.5-67.5t34-50T228 85t60-11q40 0 74 14.5t59 40 39.5 60.5 14.5 77q0 38-12.5 67.5t-34 50-50 31.5-59.5 11q-40 0-74-14.5t-59-40-39.5-60.5-14.5-77zm432 40q0-59-21.5-110.5T483 74t-90-60T281-8q-57 0-101.5 19.5t-75 52-46.5 75T42 227q0 58 21.5 109.5t60 89.5 90.5 60 112 22q57 0 101.5-19.5t74.5-52 46-74.5 16-88z"/><glyph glyph-name="uni1EE4" unicode="Ụ" horiz-adv-x="730" d="M347-130q0-26-18-44t-44-18-44 18-18 44 18 43.5T285-69t44-17.5 18-43.5zm302 402q-14-67-40-119t-65-88-92.5-54.5T328-8q-54 0-99 14.5t-77 42-50 67T84 206q0 34 7 66l93 438h91l-94-440q-6-29-6-52 0-69 42.5-104T332 79q85 0 145 48.5T557 270l94 440h91l-93-438z"/><glyph glyph-name="uni1EE5" unicode="ụ" horiz-adv-x="578" d="M267-130q0-26-18-44t-44-18-44 18-18 44 18 43.5T205-69t44-17.5 18-43.5zM377 46q-32-27-71-40.5T226-8q-38 0-69 11.5T103 37 67.5 90.5 55 162q0 26 6 56l60 282h87l-58-274q-6-29-6-50 0-51 28.5-76.5T255 74q41 0 76.5 17.5T394 144l75 356h87L450 0h-83z"/><glyph glyph-name="Ygrave" unicode="Ỳ" horiz-adv-x="625" d="M278 300L103 710h100l132-322 267 322h114L369 300 305 0h-91zm37 613h90l61-145h-65z"/><glyph glyph-name="ygrave" unicode="ỳ" horiz-adv-x="513" d="M161 30L58 500h89l80-377 239 377h98L120-184H22zm48 680h104l56-165h-61z"/><glyph glyph-name="endash" unicode="–" horiz-adv-x="570" d="M82 314h434l-19-81H63z"/><glyph glyph-name="emdash" unicode="—" horiz-adv-x="867" d="M82 314h731l-19-81H63z"/><glyph glyph-name="quoteleft" unicode="‘" horiz-adv-x="244" d="M197 568h51l-26-123H100l27 124 87 141h57z"/><glyph glyph-name="quoteright" unicode="’" horiz-adv-x="233" d="M182 587h-51l26 123h122l-27-124-87-141h-57z"/><glyph glyph-name="quotesinglbase" unicode="‚" horiz-adv-x="257" d="M73 0H22l26 123h122L143-1 56-142H-1z"/><glyph glyph-name="quotedblleft" unicode="“" horiz-adv-x="444" d="M197 568h51l-26-123H100l27 124 87 141h57zm200 0h51l-26-123H300l27 124 87 141h57z"/><glyph glyph-name="quotedblright" unicode="”" horiz-adv-x="434" d="M182 587h-51l26 123h122l-27-124-87-141h-57zm200 0h-51l26 123h122l-27-124-87-141h-57z"/><glyph glyph-name="quotedblbase" unicode="„" horiz-adv-x="457" d="M73 0H22l26 123h122L143-1 56-142H-1zm200 0h-51l26 123h122L343-1l-87-141h-57z"/><glyph glyph-name="bullet" unicode="•" horiz-adv-x="421" d="M220 166q-28 0-53 10.5t-43.5 29-29 43.5T84 302t10.5 53 29 43.5 43.5 29 53 10.5 53-10.5 43.5-29 29-43.5 10.5-53-10.5-53-29-43.5-43.5-29-53-10.5z"/><glyph glyph-name="ellipsis" unicode="…" horiz-adv-x="685" d="M169 66q0-31-21.5-52.5T95-8Q65-8 43 13.5T21 66t22 52.5T95 140q31 0 52.5-21.5T169 66zm218 0q0-31-21.5-52.5T313-8q-30 0-52 21.5T239 66t22 52.5 52 21.5q31 0 52.5-21.5T387 66zm218 0q0-31-21.5-52.5T531-8q-30 0-52 21.5T457 66t22 52.5 52 21.5q31 0 52.5-21.5T605 66z"/><glyph glyph-name="guilsinglleft" unicode="‹" horiz-adv-x="311" d="M44 255l200 217 52-48-166-178 87-188-67-30z"/><glyph glyph-name="guilsinglright" unicode="›" horiz-adv-x="311" d="M267 245L67 28 15 76l166 178-87 188 67 30z"/><glyph glyph-name="Euro" unicode="€" horiz-adv-x="745" d="M103 458h99q19 54 54.5 101.5t84 83T451 698t136 20q66 0 117-19t89-53l-47-79q-29 29-71.5 47T580 632t-96-13-79.5-36-62.5-55-43-70h383l-36-61H280q-6-32-6-64v-19h323l-36-60H284q10-37 30-69t49-56 68-37.5T518 78q34 0 63 6.5t55 17.5L615 6q-23-7-50-10.5T513-8q-69 0-125 20.5T290.5 69t-68 83.5T186 254H38l35 60h106v11q0 36 6 72H67z"/><glyph glyph-name="minus" unicode="−" d="M80 310h438v-70H80v70z"/><glyph glyph-name="uniFB01" unicode="ﬁ" horiz-adv-x="594" d="M78 500h96q-13 14-21 35t-8 44q0 57 46 94t127 37h113l-17-78h-94q-43 0-69.5-17.5T224 561q0-25 15-42t44-19h103l-16-78H238L148 0H61l90 422H62zm432 109q-11 13-11 32 0 33 21.5 55t50.5 22q23 0 38.5-14t15.5-34-8-35-22-26h-85zm-24-109h86L466 0h-86z"/><glyph glyph-name="uniFB02" unicode="ﬂ" horiz-adv-x="595" d="M78 500h96q-13 14-21 35t-8 44q0 57 46 94t127 37h113l-17-78h-94q-43 0-69.5-17.5T224 561q0-25 15-42t44-19h103l-16-78H238L148 0H61l90 422H62zm453 210h87L467 0h-87z"/><glyph glyph-name="glyph332" horiz-adv-x="187" d="M128-130q0-26-18-44t-44-18-44 18-18 44 18 43.5T66-69t44-17.5 18-43.5z"/><glyph glyph-name="glyph334" horiz-adv-x="249" d="M95-50h100L48-229h-65z"/><glyph glyph-name="glyph338" horiz-adv-x="500" d="M384 545h-60l59 165h85z"/><glyph glyph-name="glyph339" horiz-adv-x="270" d="M323 913h105L282 768h-73z"/><glyph glyph-name="glyph340" horiz-adv-x="386" d="M549 909q-11-62-55.5-99.5T373 772q-71 0-109.5 39.5T223 909h63q2-42 29-60.5t63-18.5q42 0 71.5 20t37.5 59h62z"/><glyph glyph-name="glyph341" horiz-adv-x="396" d="M524 926l31-61-195-99-150 103 39 57 117-80z"/><glyph glyph-name="glyph342" horiz-adv-x="396" d="M232 766l-31 61 195 99 150-103-39-57-117 80z"/><glyph glyph-name="glyph343" horiz-adv-x="411" d="M334 844q0-26-18-44t-44-18q-24 0-42.5 18T211 844q0 25 18.5 42.5T272 904q26 0 44-17.5t18-42.5zm225 0q0-26-18-44t-44-18q-25 0-43 18t-18 44q0 25 18 42.5t43 17.5q26 0 44-17.5t18-42.5z"/><glyph glyph-name="glyph344" horiz-adv-x="179" d="M332 844q0-27-18.5-45.5T268 780q-25 0-43.5 18.5T206 844q0 26 18.5 44t43.5 18q27 0 45.5-18t18.5-44z"/><glyph glyph-name="glyph345" horiz-adv-x="283" d="M241 913h90l61-145h-65z"/><glyph glyph-name="glyph346" horiz-adv-x="460" d="M518 913h100L472 768h-68zm-195 0h100L277 768h-68z"/><glyph glyph-name="glyph347" horiz-adv-x="362" d="M220 868h292l-14-65H206z"/><glyph glyph-name="glyph348" horiz-adv-x="277" d="M318 751q-42 0-70.5 26.5T219 845q0 42 29 68.5t70 26.5 70-26.5 29-68.5q0-41-28.5-67.5T318 751zm0 47q20 0 34 13t14 34-14 34.5-34 13.5-34-13.5-14-34.5 14-34 34-13z"/><glyph glyph-name="glyph349" horiz-adv-x="436" d="M212 784l7 19q19 45 45 69.5t68 24.5q21 0 39-7t33.5-15 29-15 25.5-7q21 0 32.5 11t21.5 33h69l-7-18q-17-42-42.5-68T462 785q-21 0-39 7t-33.5 15-29 15-26.5 7q-20 0-31.5-11T281 784h-69z"/></font>
</defs>
</svg>
