<svg xmlns="http://www.w3.org/2000/svg" version="1.1"><defs><font id="Font" horiz-adv-x="590"><font-face font-family="Font" font-weight="300" font-style="italic" font-stretch="normal" units-per-em="1000" panose-1="2 11 3 0 3 0 0 0 0 0" ascent="800" descent="-200" x-height="500" cap-height="710" bbox="-119 -215 1156 929" underline-thickness="50" underline-position="-140" slope="-12" unicode-range="U+000D-FB02"/><glyph glyph-name=".notdef" horiz-adv-x="496"/><glyph glyph-name="glyph1" horiz-adv-x="0"/><glyph glyph-name="uni000D" horiz-adv-x="248"/><glyph glyph-name="space" horiz-adv-x="248"/><glyph glyph-name="exclam" unicode="!" horiz-adv-x="254" d="M125 105q11-6 16.5-19t5.5-27q0-28-22-47.5T76-8Q53-8 40 7.5T27 43t12.5 36.5T71 105h54zm17 366l51 239h62l-51-239-71-277H94z"/><glyph glyph-name="quotedbl" unicode="&quot;" horiz-adv-x="403" d="M139 710h57V485h-57v225zm202 0h57V485h-57v225z"/><glyph glyph-name="numbersign" unicode="#" horiz-adv-x="707" d="M431 209H229L164 0h-58l65 209H41v55h147l61 193H114v55h152l62 198h58l-62-198h202l62 198h57l-62-198h131v-55H566l-61-193h137v-55H488L423 0h-57zm-185 55h202l61 193H307z"/><glyph glyph-name="dollar" unicode="$" horiz-adv-x="523" d="M404 798l-19-87q40-10 74-34.5t62-66.5l-50-29q-27 45-65 64t-84 19q-62 0-101-30.5T182 551q0-46 23.5-75.5T271 417l73-50q56-38 89.5-81T467 179q0-38-14.5-71.5t-43-59.5T339 7 242-8h-10l-17-81h-50l18 87Q122 11 77.5 46T12 128l53 29q10-22 27-42t40-35.5T184 55t63-9q39 0 69.5 10.5t51.5 28 31.5 40.5 10.5 49q0 27-7.5 48T381 260.5t-33.5 33T303 326l-72 49q-53 38-79 78t-26 97q0 39 14.5 70t41.5 53 64 33.5 82 11.5h8l18 80h50z"/><glyph glyph-name="percent" unicode="%" horiz-adv-x="1096" d="M291 367q31 0 58.5 12t47.5 32.5 32 47.5 12 58-12 58-32 47.5-47.5 32.5-58.5 12-58-12-47.5-32.5-32-47.5-11.5-58 11.5-58 32-47.5T233 379t58-12zm0-47q-41 0-77 15.5T151.5 378t-42 62.5T94 517q0 40 15.5 76t42 63 62.5 42.5 77 15.5q40 0 76-15.5t63-42.5 42.5-63 15.5-76q0-41-15.5-76.5T430 378t-63-42.5-76-15.5zm506 390h58L345 0h-58zm53-667q31 0 58.5 12T956 87.5t32 47.5 12 58-12 58-32 47.5-47.5 32.5-58.5 12-58-12-47.5-32.5-32-47.5-11.5-58 11.5-58 32-47.5T792 55t58-12zm0-47q-41 0-77 15.5T710.5 54t-42 62.5T653 193q0 40 15.5 76t42 63 62.5 42.5 77 15.5q40 0 76-15.5t63-42.5 42.5-63 15.5-76q0-41-15.5-76.5T989 54t-63-42.5T850-4z"/><glyph glyph-name="ampersand" unicode="&amp;" horiz-adv-x="721" d="M230-8q-33 0-64 11.5T111 36 73 87t-14 68q0 45 14 78t39 59.5 60.5 48.5 78.5 45l22 12q-21 29-37 62.5T220 539q0 41 14.5 74t40 56.5 60 36T409 718q30 0 56.5-10t46-28 30.5-42.5 11-52.5q0-33-16-60.5T495 474t-59.5-42.5T368 394l-14-8 131-175 139 142 35-41-141-145L643 0h-72l-94 126q-30-30-58.5-54.5t-58-42.5T299 1.5 230-8zm8 52q29 0 55.5 9.5T345 80t49 39.5 50 49.5L303 358l-26-14q-36-19-65.5-37.5T161 267t-32.5-46.5T117 163q0-29 10-51t26.5-37T192 52t46-8zm38 502q0-36 13-63t37-59l20 10q32 16 60 32t48.5 33.5 32 36.5 11.5 42q0 40-26 65t-71 25q-23 0-45.5-8.5t-40-24T287 597t-11-51z"/><glyph glyph-name="quotesingle" unicode="'" horiz-adv-x="201" d="M139 710h57V485h-57v225z"/><glyph glyph-name="parenleft" unicode="(" horiz-adv-x="257" d="M83-136Q66-69 56-1T46 130q0 83 14.5 159T103 438t70 146.5T269 736l53-26q-49-64-89.5-132T163 438.5 118 292t-16-154q0-58 9.5-124.5T138-115l-55-21z"/><glyph glyph-name="parenright" unicode=")" horiz-adv-x="256" d="M194 731q17-67 27-135t10-131q0-83-14.5-159T174 157 104 10.5 8-141l-53 26Q4-51 44.5 17T114 156.5 159 303t16 154q0 58-9.5 124.5T139 710l55 21z"/><glyph glyph-name="asterisk" unicode="*" horiz-adv-x="424" d="M273 513l-73-101-41 29 73 101-119 40 14 49 121-40v119h50V591l122 39 16-48-121-39 74-102-40-29z"/><glyph glyph-name="plus" unicode="+" d="M79 298h191v183h58V298h191v-55H328V54h-58v189H79v55z"/><glyph glyph-name="comma" unicode="," horiz-adv-x="242" d="M70 0H28l22 103h96L124-1 40-138H-4z"/><glyph glyph-name="hyphen" unicode="-" horiz-adv-x="369" d="M82 303h227l-14-65H68z"/><glyph glyph-name="period" unicode="." horiz-adv-x="237" d="M88 113q25 0 42-18t17-43q0-23-17-41T88-7 46 11 29 52q0 25 17 43t42 18z"/><glyph glyph-name="slash" unicode="/" horiz-adv-x="359" d="M349 710h57L57 0H0z"/><glyph glyph-name="zero" unicode="0" d="M260 48q40 0 73.5 19t60.5 51.5 47.5 75.5 34 90.5 20 96T502 474q0 50-10 86t-27.5 58.5-40.5 33-50 10.5q-60 0-105.5-41.5t-75.5-105T148 377t-15-142q0-50 10-85.5t27-58 40-33T260 48zm-3-57q-39 0-73 15.5T125 52t-39 75.5T72 234q0 55 8.5 112.5T106 458t42.5 101.5T208 642t76.5 55.5T378 718q39 0 72.5-15t58.5-45.5 39-76T562 475q0-55-8.5-112.5T528 251t-42.5-101T426 67.5t-76-56T257-9z"/><glyph glyph-name="one" unicode="1" d="M433 619L147 498l13 64 349 148L358 0h-57z"/><glyph glyph-name="two" unicode="2" d="M353 309q36 33 64 60t46.5 52.5T492 473t10 57q0 30-10.5 55t-29 42.5-43.5 27-53 9.5q-33 0-62-11.5t-51-32-35-48-16-59.5h-56q3 42 21 79.5t47.5 65 69.5 44 87 16.5q45 0 80-15.5t59-41 36.5-59.5 12.5-70q0-33-8-61t-23.5-53.5-37-49T442 320L143 54h334L465 0H10z"/><glyph glyph-name="three" unicode="3" d="M492 239q0-50-17-95t-49.5-78.5-79-53.5T240-8q-70 0-120 29.5T45 97l54 31q20-38 59-60t87-22q40 0 74 14.5t59 40 38.5 59.5 13.5 74q0 35-12 64t-34 50-52 32.5-67 11.5h-44l221 263H173l12 55h371L326 436q40-7 71-25.5t52-45 32-59 11-67.5z"/><glyph glyph-name="four" unicode="4" d="M374 191H-9l553 527-102-475h134l-11-52H431L391 0h-57zm11 52l72 337-350-337h278z"/><glyph glyph-name="five" unicode="5" d="M505 240q0-53-18-98t-51-78.5T356.5 11 252-8q-68 0-117 30T61 99l54 29q20-38 58-60t83-22q41 0 75.5 14.5t59.5 40 39 60 14 74.5q0 35-12 64t-33 50-49 32.5-60 11.5q-37 0-68-12.5T168 347l-36 21 76 342h347l-12-55H253l-51-227q21 8 44 13t49 5q50 0 89-17t66-45.5 41-66 14-77.5z"/><glyph glyph-name="six" unicode="6" d="M527 240q0-52-18-97t-51-78.5-80-53T274-8q-50 0-89.5 17.5t-66.5 46-41 66T63 199q0 51 19 94t56 89l267 328h69L250 435q15 5 31 8t36 3q50 0 89-17t66-45.5 41-66 14-77.5zm-403-36q0-36 12-65t33-49.5 49-32T278 46q42 0 76.5 14.5t59 40 38.5 60 14 74.5q0 35-12 64t-33 50-49 32.5-60 11.5q-41 0-75.5-15T177 337.5t-39-60-14-73.5z"/><glyph glyph-name="seven" unicode="7" d="M530 655H160l12 55h463L127 0H61z"/><glyph glyph-name="eight" unicode="8" d="M511 572q0-51-23-92.5T425 415q47-28 72-74.5t25-99.5q0-51-18-96.5T453.5 65 375 11.5 273-8q-51 0-91 16.5t-67 45-41.5 65T59 196t11.5 78.5T103 343t51.5 54 68.5 36q-22 20-33 47.5T179 538q0 37 12.5 70t36 57.5 56 38.5 71.5 14q36 0 65-12t49.5-32.5 31-47T511 572zM120 202q0-35 11.5-64T164 88.5 214 57t63-11q40 0 73.5 15t58 41 38 60 13.5 73q0 36-11.5 65T416 349.5 366 381t-63 11q-40 0-73.5-15t-58-41-38-60.5T120 202zm118 342q0-46 28.5-72t71.5-26q25 0 46 9.5t36 26 23.5 38.5 8.5 46q0 46-28.5 72T352 664q-25 0-46-9.5t-36-26-23.5-38.5-8.5-46z"/><glyph glyph-name="nine" unicode="9" d="M108 470q0 52 18 97t51 78.5 80 53T361 718q50 0 89.5-17.5t66.5-46 41-66 14-77.5q0-51-19-94t-56-89L230 0h-69l224 275q-15-5-31-8t-36-3q-50 0-89 17t-66 45.5-41 66-14 77.5zm403 36q0 36-12 65t-33 49.5-49 32-60 11.5q-42 0-76.5-14.5t-59-40-38.5-60-14-74.5q0-35 12-64t33-50 49-32.5 60-11.5q41 0 75.5 15t59.5 40.5 39 60 14 73.5z"/><glyph glyph-name="colon" unicode=":" horiz-adv-x="261" d="M173 507q25 0 42-18t17-43q0-23-17-41t-42-18-42 18-17 41q0 25 17 43t42 18zM89 113q25 0 42-18t17-43q0-23-17-41T89-7 47 11 30 52q0 25 17 43t42 18z"/><glyph glyph-name="semicolon" unicode=";" horiz-adv-x="262" d="M72 0H30l22 103h96L126-1 42-138H-2zm100 508q25 0 42-18t17-43q0-23-17-41t-42-18-42 18-17 41q0 25 17 43t42 18z"/><glyph glyph-name="equal" unicode="=" d="M74 187h449v-54H74v54zm0 221h449v-54H74v54z"/><glyph glyph-name="question" unicode="?" horiz-adv-x="546" d="M252 328h23q45 0 83.5 14t67 39 44.5 58 16 72q0 70-43 111.5T331 664q-38 0-70.5-14T204 612.5t-39.5-55T145 492H89q4 46 24 87t52.5 72 76 49 94.5 18q46 0 84-15.5t65.5-42.5 42.5-64.5 15-81.5q0-48-17.5-90T476 350t-78.5-52T294 274l-14-60h-53zM216-8q-23 0-36 15.5T167 43t12.5 36.5T211 105h54q11-6 16.5-19t5.5-27q0-28-22-47.5T216-8z"/><glyph glyph-name="at" unicode="@" horiz-adv-x="823" d="M428-8q-81 0-145.5 27t-110 73.5T103 202 79 337q0 85 32.5 155.5t87 120.5 125 77.5T470 718q71 0 132.5-22T710 633.5t72-98T808 406q0-65-17-111.5T747.5 219 689 176.5 627 163q-32 0-57 13.5T534 212q-23-22-56-35t-70-13q-35 0-64.5 13T292 213.5t-34.5 55T245 337q0 45 17 85t46.5 69.5T378 538t87 17q33 0 61-11t48-28l7 30h54l-52-252q-3-17-3-31t5.5-25 17-17 31.5-6q24 0 46 12.5t38.5 36.5 26 60 9.5 84q0 58-21 106.5T674 597t-90.5 53T469 669q-67 0-128-23.5T234 579t-73-104.5T134 337q0-63 19.5-116.5t57-93 92-61.5T428 44q45 0 96 10t92 32l21-50Q590 15 533.5 3.5T428-8zm-9 223q26 0 53.5 10.5T520 262l42 194q-16 26-44 37t-57 11q-32 0-61.5-11.5T348 460t-35-51.5-13-68.5q0-59 31.5-92t87.5-33z"/><glyph glyph-name="A" unicode="A" horiz-adv-x="670" d="M435 718L620 0h-64l-55 217H162L15 0h-72zM202 276h284l-76 305z"/><glyph glyph-name="B" unicode="B" horiz-adv-x="639" d="M201 710h201q49 0 85.5-13.5t60.5-36 36-52 12-60.5q0-68-38-113.5T463 369q48-14 80.5-53.5T576 218q0-49-18-89t-53.5-68.5-88-44.5T295 0H50zM306 57q50 0 88.5 12.5t65 34 40 50.5 13.5 62q0 25-9.5 47.5t-29 40-48 27.5-67.5 10H184L124 57h182zm49 339q41 0 74 11t56 30.5 35.5 45.5 12.5 57q0 46-33.5 79.5T400 653H251l-55-257h159z"/><glyph glyph-name="C" unicode="C" horiz-adv-x="688" d="M636 59Q542-8 405-8q-80 0-142 27.5T159 93 95 199.5 73 325q0 75 27.5 146t80 126 128 88T481 718q81 0 141-27.5T724 616l-46-42q-35 39-85.5 62T476 659q-77 0-139.5-27T230 559.5t-68.5-105T137 330q0-55 17.5-105.5t52-89 85-61.5T408 51q58 0 106.5 16t87.5 42l34-50z"/><glyph glyph-name="D" unicode="D" horiz-adv-x="744" d="M261 59q91 0 164 29t124.5 78T629 278.5 657 411q0 51-17.5 95t-51 76.5-82 50.5T397 651H250L125 59h136zm-60 651h194q78 0 138.5-22.5T636 625t64-93.5T722 415q0-86-34-161.5t-95.5-132-146.5-89T259 0H50z"/><glyph glyph-name="E" unicode="E" horiz-adv-x="554" d="M201 710h403l-13-59H250l-54-255h281l-13-60H183L125 59h341L453 0H50z"/><glyph glyph-name="F" unicode="F" horiz-adv-x="522" d="M201 710h396l-13-59H250l-54-255h264l-13-60H183L112 0H50z"/><glyph glyph-name="G" unicode="G" horiz-adv-x="766" d="M673 71Q556-8 405-8q-80 0-142 27.5T159 93 95 199.5 73 325q0 75 27.5 146t80 126 128 88T481 718q81 0 146.5-27T735 616l-47-42q-35 40-90.5 62.5T476 659q-77 0-139.5-27T230 559.5t-68.5-105T137 330q0-55 17.5-105.5t52-89 85-61.5T408 51q123 0 211 58l48 227H455l40 60h247L673 71z"/><glyph glyph-name="H" unicode="H" horiz-adv-x="767" d="M201 710h62l-67-314h437l67 314h62L611 0h-62l71 336H183L112 0H50z"/><glyph glyph-name="I" unicode="I" horiz-adv-x="268" d="M201 710h62L112 0H50z"/><glyph glyph-name="J" unicode="J" horiz-adv-x="523" d="M417 196q-12-55-33-93.5t-50.5-63-67-36T184-8q-37 0-70 10T56.5 31.5t-39 49T3 148q0 12 1 23.5T8 197h61q-2-11-3-20.5T65 158q0-54 30-80.5T188 51q70 0 110.5 37T355 197l109 513h62L417 196z"/><glyph glyph-name="K" unicode="K" horiz-adv-x="605" d="M201 710h62l-75-353 415 353h80L254 345 560 0h-72L184 341 112 0H50z"/><glyph glyph-name="L" unicode="L" horiz-adv-x="518" d="M201 710h62L125 59h339L451 0H50z"/><glyph glyph-name="M" unicode="M" horiz-adv-x="879" d="M203 718l245-397 428 397L723 0h-62l118 548-342-314-206 328L112 0H50z"/><glyph glyph-name="N" unicode="N" horiz-adv-x="787" d="M234 573L112 0H50l153 718 395-581 122 573h62L629-8z"/><glyph glyph-name="O" unicode="O" horiz-adv-x="840" d="M137 330q0-56 17.5-106.5t52-88.5 85-61T408 51q77 0 139.5 27t107 72.5 68.5 105T747 380q0 55-17.5 106T678 575t-85 61-117 23q-77 0-139.5-27T230 559.5t-68.5-105T137 330zm675 55q0-75-27.5-146t-80-126T576 25 404-8q-80 0-141.5 27.5T159 93.5 95 200 73 325q0 75 27.5 146t80 126 128 88T481 718q79 0 141-27.5t104-74T790 510t22-125z"/><glyph glyph-name="P" unicode="P" horiz-adv-x="572" d="M201 710h190q51 0 89.5-14t63.5-38 37.5-56.5T594 532q0-50-17.5-93.5t-52-75T438 314t-121-18H175L112 0H50zm124-357q49 0 87 13.5t64.5 37.5 40.5 56.5 14 70.5q0 54-34 88.5T387 654H251l-64-301h138z"/><glyph glyph-name="Q" unicode="Q" horiz-adv-x="848" d="M812 385q0-82-32.5-157.5T686 96l78-96-47-36-77 95Q592 27 533 9.5T404-8q-80 0-141.5 27.5T159 93.5 95 200 73 325q0 75 27.5 146t80 126 128 88T481 718q79 0 141-27.5t104-74T790 510t22-125zm-675-55q0-56 17.5-106.5t52-88.5 85-61T408 51q57 0 105.5 15t88.5 41l-79 100 45 36 80-99q48 46 73.5 107T747 380q0 55-17.5 106T678 575t-85 61-117 23q-77 0-139.5-27T230 559.5t-68.5-105T137 330z"/><glyph glyph-name="R" unicode="R" horiz-adv-x="617" d="M301 321H180L112 0H50l151 710h190q49 0 86-12.5t61.5-35 37-52.5 12.5-66q0-44-14.5-82t-43-67-69.5-48-94-24L552 0h-69zm26 57q49 0 86 12.5t62 34.5 37.5 51.5T525 540q0 51-34.5 81.5T384 652H250l-57-274h134z"/><glyph glyph-name="S" unicode="S" horiz-adv-x="526" d="M471 179q0-38-15-71.5T412 48 340.5 7 243-8q-41 0-77.5 10.5t-66 29-51.5 43T13 128l56 34q10-22 26.5-42t39-35.5 51-24.5 62.5-9q76 0 117 35.5t41 87.5q0 50-26.5 83.5T304 324l-72 49q-53 38-80 79t-27 98q0 39 15 70t42 53 64.5 33.5T329 718q57 0 109.5-24.5T528 612l-56-36q-27 45-65 64t-84 19q-58 0-96.5-28T188 551q0-44 21.5-73t63.5-58l73-50q56-38 90.5-82.5T471 179z"/><glyph glyph-name="T" unicode="T" horiz-adv-x="498" d="M301 651H97l13 59h472l-13-59H363L225 0h-62z"/><glyph glyph-name="U" unicode="U" horiz-adv-x="728" d="M639 267Q611 135 535 63.5T326-8q-54 0-97.5 14T154 46t-48 64.5T89 198q0 31 8 69l94 443h62l-95-445q-7-31-7-59 0-78 48-116.5T328 51q96 0 161 53.5T577 266l94 444h62l-94-443z"/><glyph glyph-name="V" unicode="V" horiz-adv-x="647" d="M102 710h62l131-577 376 577h70L269-8z"/><glyph glyph-name="W" unicode="W" horiz-adv-x="881" d="M108 710h62l62-541 307 549 70-564 293 556h64L579-8l-70 563L195-8z"/><glyph glyph-name="X" unicode="X" horiz-adv-x="625" d="M304 372L128 710h66l153-293 277 293h77L374 365 565 0h-66L331 320 28 0h-77z"/><glyph glyph-name="Y" unicode="Y" horiz-adv-x="604" d="M282 301L109 710h66l145-349 293 349h78L344 301 280 0h-62z"/><glyph glyph-name="Z" unicode="Z" horiz-adv-x="576" d="M517 651H138l13 59h488L79 59h433L499 0H-43z"/><glyph glyph-name="bracketleft" unicode="[" horiz-adv-x="292" d="M199 733h167l-12-55H244L84-78h110l-12-55H15z"/><glyph glyph-name="bracketright" unicode="]" horiz-adv-x="291" d="M113-133H-54l12 55H68l160 756H118l12 55h167z"/><glyph glyph-name="underscore" unicode="_" horiz-adv-x="563" d="M24 0h419l-12-55H12z"/><glyph glyph-name="grave" unicode="`" horiz-adv-x="241" d="M163 710h81l54-165h-43z"/><glyph glyph-name="a" unicode="a" horiz-adv-x="611" d="M432 51q-33-27-75.5-43T263-8q-53 0-93.5 18.5t-68 50-42 72.5T45 220q0 57 21 109t59.5 91.5T217 484t117 24q58 0 102.5-20t73.5-54l14 66h58L476 0h-55zm-158-5q48 0 93.5 21.5T445 127l51 240q-24 42-68.5 64.5T332 454q-48 0-89.5-18t-72-49.5-48-73.5-17.5-90q0-38 11.5-70.5t33-56 53-37T274 46z"/><glyph glyph-name="b" unicode="b" horiz-adv-x="610" d="M180 710h58l-55-258q33 26 74.5 41t90.5 15q52 0 93-18.5t68.5-50 42-72.5 14.5-87q0-57-21.5-109T485 79.5 394 16 277-8q-58 0-102.5 20T101 65L87 0H29zm157-256q-48 0-93-21t-77-59l-52-242q24-42 68.5-64T279 46q48 0 89.5 18t72 49.5 48 73.5 17.5 90q0 38-11.5 70.5t-33 56-53 37T337 454z"/><glyph glyph-name="c" unicode="c" horiz-adv-x="532" d="M473 64q-38-33-86-52.5T282-8 181 11.5t-74 52-45.5 75T46 227q0 58 21.5 109.5T127 426t89.5 60T329 508q62 0 112.5-24.5T523 411l-48-33q-24 37-63.5 56.5T324 454q-47 0-87-17t-69-46.5-46-70.5-17-89q0-44 15-78.5t39.5-58 57.5-36T286 46q45 0 82.5 15.5T435 105l38-41z"/><glyph glyph-name="d" unicode="d" horiz-adv-x="611" d="M432 51q-33-27-76-43T263-8q-53 0-93.5 18.5t-68 50-42 72.5T45 220q0 57 21.5 109t60 91.5T218 484t117 24q58 0 102.5-20.5T511 434l59 276h57L476 0h-55zm-157-5q48 0 93.5 21.5T446 127l51 239q-24 42-69 65t-96 23q-48 0-89.5-18t-72-49.5-48-73.5-17.5-90q0-38 11.5-70.5t33.5-56 53.5-37T275 46z"/><glyph glyph-name="e" unicode="e" horiz-adv-x="568" d="M476 65q-38-34-87.5-53.5T282-8 181 11.5t-74 52-45.5 75T46 227q0 58 21.5 109.5T127 426t89.5 60T329 508q48 0 86.5-15.5t66-42.5 42-65 14.5-83q0-28-5-53H105v-18q0-44 14.5-78.5t39.5-58 58-36T286 46q45 0 83.5 16t68.5 43zM324 454q-38 0-71.5-11t-61-31-47.5-48.5-30-63.5h364q1 5 1 9v6q0 32-11.5 58T435 417t-49.5 27.5T324 454z"/><glyph glyph-name="f" unicode="f" horiz-adv-x="323" d="M69 500h101q-32 31-32 84 0 28 12 51t34 39.5 53 26 68 9.5h103l-12-54h-89q-106 0-112-83-2-29 17-50t54-23h98l-11-55H218L124 0H66l94 445H58z"/><glyph glyph-name="g" unicode="g" horiz-adv-x="603" d="M493 58q0-64-21-111t-58-78.5-87.5-47T217-194q-28 0-57 4.5T104-176t-50.5 22.5T14-123l38 48q25-29 70-47t99-18q101 0 156.5 51.5T433 54q0 7-.5 13.5T431 79q-33-29-76.5-46.5T260 15t-90.5 17T103 78t-41 68.5T48 231q0 57 20.5 107.5t57.5 88 89.5 59.5T332 508q56 0 97.5-18.5T500 440l13 60h57l-82-386q2-14 3.5-28t1.5-28zM272 69q48 0 92 22t76 60l46 222q-24 39-66.5 60T328 454q-47 0-87.5-16.5t-70-45.5-46.5-69.5-17-88.5q0-75 42.5-120T272 69z"/><glyph glyph-name="h" unicode="h" horiz-adv-x="583" d="M180 710h57l-55-260q34 28 76.5 43t88.5 15q39 0 71-12t55.5-34.5 36-54T522 336q0-26-6-56L456 0h-57l59 277q6 25 6 47 0 63-37 96.5T328 454q-47 0-89-22t-74-59v-1L86 0H29z"/><glyph glyph-name="i" unicode="i" horiz-adv-x="221" d="M146 662q0 23 17.5 39.5T204 718q20 0 32-13t12-30q0-15-8-27.5T218 627h-56q-7 5-11.5 14.5T146 662zm-11-162h57L86 0H29z"/><glyph glyph-name="j" unicode="j" horiz-adv-x="230" d="M155 662q0 23 17.5 39.5T213 718q20 0 32-13t12-30q0-15-8-27.5T227 627h-56q-7 5-11.5 14.5T155 662zm-257-791h21q30 0 49 6t31 18.5T18.5-72 32-24l111 524h58L87-35q-8-40-21-68.5T32.5-150-17-176t-70-8h-27z"/><glyph glyph-name="k" unicode="k" horiz-adv-x="484" d="M180 710h57l-93-437 296 227h78L201 258 435 0h-68L139 252 86 0H29z"/><glyph glyph-name="l" unicode="l" horiz-adv-x="221" d="M180 710h57L86 0H29z"/><glyph glyph-name="m" unicode="m" horiz-adv-x="887" d="M764 285q6 30 6 54 0 55-29.5 85T654 454q-48 0-90-26.5T492 357v-6q0-29-7-61L423 0h-57l61 285q6 30 6 54 0 55-29.5 85T317 454q-44 0-83.5-23T166 374L86 0H29l106 500h55l-11-51q32 26 73 42.5t84 16.5q54 0 90.5-23t53.5-65q35 39 82.5 63.5T673 508q74 0 115-42t41-115q0-27-8-64L760 0h-57z"/><glyph glyph-name="n" unicode="n" horiz-adv-x="582" d="M135 500h55l-11-51q34 29 77.5 44t89.5 15q39 0 71-12t55.5-34.5 36-54T521 336q0-14-1.5-26.5T515 282L455 0h-57l59 277q6 25 6 47 0 63-37 96.5T327 454q-47 0-89-22t-73-58L86 0H29z"/><glyph glyph-name="o" unicode="o" horiz-adv-x="614" d="M105 231q0-44 15-78t40.5-58 59-36.5T289 46q46 0 86 17t70 46.5 47 70.5 17 89q0 43-15 77.5T453.5 405t-59 36.5T325 454q-47 0-87-17t-69.5-46.5T122 320t-17-89zm463 42q0-59-21.5-110T487 74t-90-60T285-8q-57 0-101.5 19.5t-75 52-46.5 75T46 227q0 58 21.5 109.5T127 426t90 60 112 22q57 0 101.5-19.5t75-52 46.5-75 16-88.5z"/><glyph glyph-name="p" unicode="p" horiz-adv-x="610" d="M135 500h55l-11-51q33 27 75.5 43t93.5 16q53 0 93.5-18.5t68.5-50 42-72.5 14-87q0-57-21.5-109T485 79.5 394 16 277-8q-59 0-103.5 20T100 66L47-184h-57zm202-46q-49 0-94.5-22T165 372l-51-238q23-42 68.5-65T279 46q48 0 90 18t72.5 49.5 48 73.5 17.5 90q0 38-11.5 70.5t-33.5 56-53.5 37T337 454z"/><glyph glyph-name="q" unicode="q" horiz-adv-x="610" d="M428 48q-32-26-74-41T263-8q-53 0-93.5 18.5t-68 50-42 72.5T45 220q0 57 21 109t59.5 91.5T217 484t117 24q58 0 102.5-20t73.5-54l14 66h57L436-184h-57zm-154-2q48 0 93.5 21.5T445 127l51 240q-24 42-68.5 64.5T332 454q-48 0-89.5-18t-72-49.5-48-73.5-17.5-90q0-38 11.5-70.5t33-56 53-37T274 46z"/><glyph glyph-name="r" unicode="r" horiz-adv-x="339" d="M135 500h57l-14-67q29 34 73 54.5t95 20.5q18 0 33-3l-13-60q-18 5-40 5-54 0-97-26.5T160 352L86 0H29z"/><glyph glyph-name="s" unicode="s" horiz-adv-x="413" d="M351 129q0-30-12.5-55T304 31 252 2.5 187-8Q112-8 68.5 25T8 109l50 23q14-42 47.5-65T190 44q44 0 73.5 21.5T293 122q0 34-20.5 56.5T217 221l-46 27q-39 23-65 55.5T80 379q0 57 42 93t110 36q54 0 93-25.5t56-66.5l-52-24q-11 26-35.5 45T230 456q-42 0-67.5-20T137 383q0-30 17.5-51t48.5-40l46-27q20-12 38.5-25.5T320 209t22.5-36.5T351 129z"/><glyph glyph-name="t" unicode="t" horiz-adv-x="326" d="M66 500h93l25 118 64 29-31-147h135l-11-55H205l-61-293q-2-12-3.5-22.5T139 110q0-29 17-42t59-13h47L250 0h-38q-63 0-97.5 23.5T80 98q0 12 2 25t5 29l61 293H66v55z"/><glyph glyph-name="u" unicode="u" horiz-adv-x="578" d="M398 51q-33-29-76-44T233-8q-79 0-126 43T60 155q0 14 2 28t5 30l61 287h57l-60-285q-6-27-6-50 0-58 34-88.5T250 46q48 0 90 21.5t72 57.5l80 375h57L443 0h-55z"/><glyph glyph-name="v" unicode="v" horiz-adv-x="557" d="M77 500h61l107-391 271 391h71L224-8z"/><glyph glyph-name="w" unicode="w" horiz-adv-x="724" d="M64 500h58l50-394 244 402 67-404 222 396h62L487 0h-34l-62 375L165 0h-36z"/><glyph glyph-name="x" unicode="x" horiz-adv-x="509" d="M224 260L79 500h62l122-202 208 202h72L290 253 443 0h-62L251 215 29 0h-73z"/><glyph glyph-name="y" unicode="y" horiz-adv-x="513" d="M176 21L60 500h59l99-417 279 417h66L103-184H38z"/><glyph glyph-name="z" unicode="z" horiz-adv-x="487" d="M391 445H92l11 55h411L86 55h323L397 0H-37z"/><glyph glyph-name="braceleft" unicode="{" horiz-adv-x="298" d="M153-133q-54 0-79.5 23T48-36q0 29 7 61l36 169q4 17 4 35 0 20-10.5 33T46 275h-8l11 52h8q40 0 55.5 22.5T136 407l41 194q9 39 22 64.5t32 40.5 45 21 60 6h36l-11-55h-24q-26 0-43-4t-29-14.5-19.5-28T233 588l-38-177q-10-46-27-72.5T119 300q35-17 35-62 0-21-6-48L113 23q-3-15-5-27t-2-22q0-29 16-40.5T176-78h25l-12-55h-36z"/><glyph glyph-name="bar" unicode="|" horiz-adv-x="303" d="M126 710h57v-894h-57v894z"/><glyph glyph-name="braceright" unicode="}" horiz-adv-x="298" d="M166 733q54 0 79.5-23t25.5-74q0-29-7-61l-36-169q-4-17-4-35 0-20 10.5-33t38.5-13h8l-11-52h-8q-40 0-55.5-22.5T183 193L142-1q-9-39-22-64.5T88-106t-45-21-60-6h-36l11 55h24q25 0 42.5 4T54-59.5t19.5 28T86 12l38 177q10 46 27 72.5t49 38.5q-35 17-35 62 0 21 6 48l35 167q3 15 5 27t2 22q0 29-16 40.5T143 678h-25l12 55h36z"/><glyph glyph-name="uni00A0" horiz-adv-x="248"/><glyph glyph-name="exclamdown" unicode="¡" horiz-adv-x="240" d="M125 395q-11 6-16.5 19t-5.5 27q0 28 22 47.5t49 19.5q23 0 36-15.5t13-35.5-12.5-36.5T179 395h-54zM110 55L59-184H-3L48 55l71 277h39z"/><glyph glyph-name="sterling" unicode="£" horiz-adv-x="553" d="M237 311L182 55h293L464 0H13l11 55h100l54 256H78l11 54h115q-30 23-45.5 60.5T143 505q0 44 16.5 83t45.5 68 69 45.5 87 16.5q45 0 79.5-15t58.5-40.5 36.5-58.5 12.5-69v-6h-59v2q0 31-11 55.5t-29 42-41.5 26.5-49.5 9q-33 0-61.5-12t-50-33-34-49.5T200 508q0-32 11-58.5t29.5-45.5 42.5-29 50-10h83l-12-54H237z"/><glyph glyph-name="yen" unicode="¥" horiz-adv-x="634" d="M149 318h140L124 710h63l146-350 296 350h70L366 318h143l-12-55H344l-16-75h153l-12-55H317L289 0h-57l28 133H109l12 55h150l16 75H137z"/><glyph glyph-name="dieresis" unicode="¨" horiz-adv-x="356" d="M151 632q0 22 15 37t37 15 37-15 15-37-15-37-37-15-37 15-15 37zm272-52q-22 0-37 15t-15 37 15 37 37 15 37-15 15-37-15-37-37-15z"/><glyph glyph-name="copyright" unicode="©" horiz-adv-x="837" d="M458 144q-47 0-86.5 17t-68 45.5-44 67T244 355q0 44 15.5 83t44 68 68 45.5T458 568q52 0 91-19.5t68-53.5l-38-33q-20 26-50.5 41.5T458 519q-35 0-64.5-13T343 471t-33-52-12-64 12-63.5 33-51 50.5-34T458 194q38 0 68 14.5t50 38.5l37-36q-29-30-67-48.5T458 144zM441-8q-75 0-141 28.5t-115.5 78-78 115.5T78 355t28.5 141 78 115.5 115.5 78T441 718t141-28.5 115.5-78 78-115.5T804 355t-28.5-141-78-115.5-115.5-78T441-8zm-1 57q63 0 119 24t98 66 66 97.5T747 355t-24 119-66 98-98 66-119 24-118.5-24-97.5-66-66-98-24-119 24-118.5 66-97.5 97.5-66T440 49z"/><glyph glyph-name="guillemotleft" unicode="«" horiz-adv-x="503" d="M252 250l192 213 39-37-164-182 86-182-52-25zm-203 0l192 213 39-37-164-182 86-182-52-25z"/><glyph glyph-name="uni00AD" unicode="­" horiz-adv-x="369" d="M82 303h227l-14-65H68z"/><glyph glyph-name="macron" unicode="¯" horiz-adv-x="318" d="M165 680h278l-11-51H154z"/><glyph glyph-name="degree" unicode="°" horiz-adv-x="342" d="M239 470q-25 0-47.5 9.5t-39 26-26 39T117 592t9.5 47.5 26 39 39 26T239 714t47.5-9.5 39-26 26-39T361 592t-9.5-47.5-26-39-39-26T239 470zm0 49q30 0 51.5 21.5T312 592t-21.5 51.5T239 665t-51.5-21.5T166 592t21.5-51.5T239 519z"/><glyph glyph-name="acute" unicode="´" horiz-adv-x="232" d="M272 710h81L200 545h-54z"/><glyph glyph-name="periodcentered" unicode="·" horiz-adv-x="258" d="M131 320q25 0 42-18t17-43q0-23-17-41t-42-18-42 18-17 41q0 25 17 43t42 18z"/><glyph glyph-name="cedilla" unicode="¸" horiz-adv-x="147" d="M97 0h40L55-137h-74z"/><glyph glyph-name="guillemotright" unicode="»" horiz-adv-x="502" d="M454 250L262 37l-39 37 164 182-86 182 52 25zm-203 0L59 37 20 74l164 182-86 182 52 25z"/><glyph glyph-name="questiondown" unicode="¿" horiz-adv-x="536" d="M278 395q-11 6-16.5 19t-5.5 27q0 28 22 47.5t49 19.5q23 0 36-15.5t13-35.5-12.5-36.5T332 395h-54zm36-104l-21-95h-23q-45 0-83.5-14t-67-39T75 85 59 13q0-70 43-111.5T214-140q38 0 70.5 14T341-88.5 380.5-34 400 32h56q-4-46-24-87t-52.5-72-76-49-94.5-18q-46 0-84 15.5T59.5-136 17-71.5 2 10q0 48 17.5 90T69 174t78.5 52T251 250l10 41h53z"/><glyph glyph-name="Agrave" unicode="À" horiz-adv-x="670" d="M435 718L620 0h-64l-55 217H162L15 0h-72zM202 276h284l-76 305zm135 637h73l59-145h-49z"/><glyph glyph-name="Aacute" unicode="Á" horiz-adv-x="670" d="M435 718L620 0h-64l-55 217H162L15 0h-72zM202 276h284l-76 305zm331 637h83L472 768h-54z"/><glyph glyph-name="Acircumflex" unicode="Â" horiz-adv-x="670" d="M435 718L620 0h-64l-55 217H162L15 0h-72zM202 276h284l-76 305zm65 544l204 108 147-112-33-43-120 92-173-92z"/><glyph glyph-name="Atilde" unicode="Ã" horiz-adv-x="670" d="M435 718L620 0h-64l-55 217H162L15 0h-72zM202 276h284l-76 305zm82 515q4 25 15 44t26 31 32 18 34 6q19 0 38-7.5t36.5-16 33-16T526 843q43 0 57 47h52q-2-24-12-42t-25-31-33-19.5-36-6.5q-19 0-38.5 7.5t-37.5 16-34 16-28 7.5q-21 0-34-12t-21-35h-52z"/><glyph glyph-name="Adieresis" unicode="Ä" horiz-adv-x="670" d="M435 718L620 0h-64l-55 217H162L15 0h-72zM202 276h284l-76 305zm149 515q-22 0-37 15t-15 37 15 37 37 15 37-15 15-37-15-37-37-15zm220 0q-22 0-37 15t-15 37 15 37 37 15 37-15 15-37-15-37-37-15z"/><glyph glyph-name="Aring" unicode="Å" horiz-adv-x="670" d="M435 718L620 0h-64l-55 217H162L15 0h-72zM202 276h284l-76 305zm257 475q-37 0-63 24t-26 61q0 38 26.5 61.5T459 921q38 0 64.5-23.5T550 836q0-37-26.5-61T459 751zm0 37q21 0 35.5 13t14.5 35-14.5 35.5T459 885q-20 0-34.5-13.5T410 836t14.5-35 34.5-13z"/><glyph glyph-name="AE" unicode="Æ" horiz-adv-x="1002" d="M399 655l-14 55h383l16-62H460l65-254h276l16-60H541l70-272h324l16-62H563l-55 217H169L22 0h-72zM209 276h284l-76 305z"/><glyph glyph-name="Ccedilla" unicode="Ç" horiz-adv-x="688" d="M636 59q-42-30-94-46.5T430-7l-66-130h-83L377-7q-74 5-130.5 34t-95 74.5T93 205 73 325q0 75 27.5 146t80 126 128 88T481 718q81 0 141-27.5T724 616l-46-42q-35 39-85.5 62T476 659q-77 0-139.5-27T230 559.5t-68.5-105T137 330q0-55 17.5-105.5t52-89 85-61.5T408 51q58 0 106.5 16t87.5 42l34-50z"/><glyph glyph-name="Egrave" unicode="È" horiz-adv-x="554" d="M327 913h73l59-145h-49zM201 710h403l-13-59H250l-54-255h281l-13-60H183L125 59h341L453 0H50z"/><glyph glyph-name="Eacute" unicode="É" horiz-adv-x="554" d="M201 710h403l-13-59H250l-54-255h281l-13-60H183L125 59h341L453 0H50zm263 203h83L403 768h-54z"/><glyph glyph-name="Ecircumflex" unicode="Ê" horiz-adv-x="554" d="M237 820l204 108 147-112-33-43-120 92-173-92zm-36-110h403l-13-59H250l-54-255h281l-13-60H183L125 59h341L453 0H50z"/><glyph glyph-name="Edieresis" unicode="Ë" horiz-adv-x="554" d="M201 710h403l-13-59H250l-54-255h281l-13-60H183L125 59h341L453 0H50zm120 81q-22 0-37 15t-15 37 15 37 37 15 37-15 15-37-15-37-37-15zm220 0q-22 0-37 15t-15 37 15 37 37 15 37-15 15-37-15-37-37-15z"/><glyph glyph-name="Igrave" unicode="Ì" horiz-adv-x="268" d="M201 710h62L112 0H50zm-44 203h73l59-145h-49z"/><glyph glyph-name="Iacute" unicode="Í" horiz-adv-x="268" d="M201 710h62L112 0H50zm93 203h83L233 768h-54z"/><glyph glyph-name="Icircumflex" unicode="Î" horiz-adv-x="268" d="M201 710h62L112 0H50zM76 820l204 108 147-112-33-43-120 92-173-92z"/><glyph glyph-name="Idieresis" unicode="Ï" horiz-adv-x="268" d="M201 710h62L112 0H50zm-51 81q-22 0-37 15t-15 37 15 37 37 15 37-15 15-37-15-37-37-15zm220 0q-22 0-37 15t-15 37 15 37 37 15 37-15 15-37-15-37-37-15z"/><glyph glyph-name="Eth" unicode="Ð" horiz-adv-x="759" d="M46 400h104l66 310h194q78 0 138.5-22.5T651 625t64-93.5T737 415q0-86-34-161.5t-95.5-132-146.5-89T274 0H65l72 342H34zM276 59q91 0 164 29t124.5 78T644 278.5 672 411q0 51-17.5 95t-51 76.5-82 50.5T412 651H265l-53-251h140l-12-58H200L140 59h136z"/><glyph glyph-name="Ntilde" unicode="Ñ" horiz-adv-x="787" d="M344 791q4 25 15 44t26 31 32 18 34 6q19 0 38-7.5t36.5-16 33-16T586 843q43 0 57 47h52q-2-24-12-42t-25-31-33-19.5-36-6.5q-19 0-38.5 7.5t-37.5 16-34 16-28 7.5q-21 0-34-12t-21-35h-52zM234 573L112 0H50l153 718 395-581 122 573h62L629-8z"/><glyph glyph-name="Ograve" unicode="Ò" horiz-adv-x="840" d="M442 913h73l59-145h-49zM137 330q0-56 17.5-106.5t52-88.5 85-61T408 51q77 0 139.5 27t107 72.5 68.5 105T747 380q0 55-17.5 106T678 575t-85 61-117 23q-77 0-139.5-27T230 559.5t-68.5-105T137 330zm675 55q0-75-27.5-146t-80-126T576 25 404-8q-80 0-141.5 27.5T159 93.5 95 200 73 325q0 75 27.5 146t80 126 128 88T481 718q79 0 141-27.5t104-74T790 510t22-125z"/><glyph glyph-name="Oacute" unicode="Ó" horiz-adv-x="840" d="M578 913h83L517 768h-54zM137 330q0-56 17.5-106.5t52-88.5 85-61T408 51q77 0 139.5 27t107 72.5 68.5 105T747 380q0 55-17.5 106T678 575t-85 61-117 23q-77 0-139.5-27T230 559.5t-68.5-105T137 330zm675 55q0-75-27.5-146t-80-126T576 25 404-8q-80 0-141.5 27.5T159 93.5 95 200 73 325q0 75 27.5 146t80 126 128 88T481 718q79 0 141-27.5t104-74T790 510t22-125z"/><glyph glyph-name="Ocircumflex" unicode="Ô" horiz-adv-x="840" d="M352 820l204 108 147-112-33-43-120 92-173-92zM137 330q0-56 17.5-106.5t52-88.5 85-61T408 51q77 0 139.5 27t107 72.5 68.5 105T747 380q0 55-17.5 106T678 575t-85 61-117 23q-77 0-139.5-27T230 559.5t-68.5-105T137 330zm675 55q0-75-27.5-146t-80-126T576 25 404-8q-80 0-141.5 27.5T159 93.5 95 200 73 325q0 75 27.5 146t80 126 128 88T481 718q79 0 141-27.5t104-74T790 510t22-125z"/><glyph glyph-name="Otilde" unicode="Õ" horiz-adv-x="840" d="M137 330q0-56 17.5-106.5t52-88.5 85-61T408 51q77 0 139.5 27t107 72.5 68.5 105T747 380q0 55-17.5 106T678 575t-85 61-117 23q-77 0-139.5-27T230 559.5t-68.5-105T137 330zm675 55q0-75-27.5-146t-80-126T576 25 404-8q-80 0-141.5 27.5T159 93.5 95 200 73 325q0 75 27.5 146t80 126 128 88T481 718q79 0 141-27.5t104-74T790 510t22-125zM370 791q4 25 15 44t26 31 32 18 34 6q19 0 38-7.5t36.5-16 33-16T612 843q43 0 57 47h52q-2-24-12-42t-25-31-33-19.5-36-6.5q-19 0-38.5 7.5t-37.5 16-34 16-28 7.5q-21 0-34-12t-21-35h-52z"/><glyph glyph-name="Odieresis" unicode="Ö" horiz-adv-x="840" d="M137 330q0-56 17.5-106.5t52-88.5 85-61T408 51q77 0 139.5 27t107 72.5 68.5 105T747 380q0 55-17.5 106T678 575t-85 61-117 23q-77 0-139.5-27T230 559.5t-68.5-105T137 330zm675 55q0-75-27.5-146t-80-126T576 25 404-8q-80 0-141.5 27.5T159 93.5 95 200 73 325q0 75 27.5 146t80 126 128 88T481 718q79 0 141-27.5t104-74T790 510t22-125zM436 791q-22 0-37 15t-15 37 15 37 37 15 37-15 15-37-15-37-37-15zm220 0q-22 0-37 15t-15 37 15 37 37 15 37-15 15-37-15-37-37-15z"/><glyph glyph-name="multiply" unicode="×" d="M114 124l146 146-146 146 37 37 146-146 146 146 37-37-146-146 147-146-38-38-146 146L151 86z"/><glyph glyph-name="Oslash" unicode="Ø" horiz-adv-x="840" d="M123 20l50 59q-50 47-75 111T73 325q0 75 27.5 146t80 126 128 88T481 718q56 0 103-14t85-39l56 65 38-34-54-63q51-48 77-112.5T812 385q0-75-27.5-146t-80-126T576 25 404-8Q347-8 298.5 6.5T212 47l-51-61zm624 360q0 60-20 113t-59 92L253 95q31-21 69.5-32.5T408 51q77 0 139.5 27t107 72.5 68.5 105T747 380zm-610-50q0-59 19.5-111.5T214 127l415 490q-31 20-69 31t-84 11q-77 0-139.5-27T230 559.5t-68.5-105T137 330z"/><glyph glyph-name="Ugrave" unicode="Ù" horiz-adv-x="728" d="M386 913h73l59-145h-49zm253-646Q611 135 535 63.5T326-8q-54 0-97.5 14T154 46t-48 64.5T89 198q0 31 8 69l94 443h62l-95-445q-7-31-7-59 0-78 48-116.5T328 51q96 0 161 53.5T577 266l94 444h62l-94-443z"/><glyph glyph-name="Uacute" unicode="Ú" horiz-adv-x="728" d="M639 267Q611 135 535 63.5T326-8q-54 0-97.5 14T154 46t-48 64.5T89 198q0 31 8 69l94 443h62l-95-445q-7-31-7-59 0-78 48-116.5T328 51q96 0 161 53.5T577 266l94 444h62l-94-443zM522 913h83L461 768h-54z"/><glyph glyph-name="Ucircumflex" unicode="Û" horiz-adv-x="728" d="M297 820l204 108 147-112-33-43-120 92-173-92zm342-553Q611 135 535 63.5T326-8q-54 0-97.5 14T154 46t-48 64.5T89 198q0 31 8 69l94 443h62l-95-445q-7-31-7-59 0-78 48-116.5T328 51q96 0 161 53.5T577 266l94 444h62l-94-443z"/><glyph glyph-name="Udieresis" unicode="Ü" horiz-adv-x="728" d="M639 267Q611 135 535 63.5T326-8q-54 0-97.5 14T154 46t-48 64.5T89 198q0 31 8 69l94 443h62l-95-445q-7-31-7-59 0-78 48-116.5T328 51q96 0 161 53.5T577 266l94 444h62l-94-443zM381 791q-22 0-37 15t-15 37 15 37 37 15 37-15 15-37-15-37-37-15zm220 0q-22 0-37 15t-15 37 15 37 37 15 37-15 15-37-15-37-37-15z"/><glyph glyph-name="Yacute" unicode="Ý" horiz-adv-x="604" d="M282 301L109 710h66l145-349 293 349h78L344 301 280 0h-62zm173 612h83L394 768h-54z"/><glyph glyph-name="Thorn" unicode="Þ" horiz-adv-x="582" d="M201 710h62l-31-143h134q50 0 87.5-14t62-38.5T552 457t12-70q0-50-17.5-93T494 219.5t-86.5-49T287 153H146L112 0H50zm94-500q47 0 85 13.5t65 36.5 41.5 55 14.5 69q0 60-35 93.5T355 511H221l-64-301h138z"/><glyph glyph-name="germandbls" unicode="ß" horiz-adv-x="551" d="M137 508q22 105 82 157.5T370 718q36 0 65.5-11t51-30.5T520 630t12-58q0-33-12.5-62.5T486 456t-49-42-60-28q59-14 91.5-53.5T501 238q0-44-18.5-86.5t-54-76-88-54.5T221 0h-51l11 53h51q50 0 89.5 16.5T388 112t41 58 14 63q0 60-41 93.5T289 360h-42l11 51h30q36 0 69.5 12.5t60 33.5 42 49 15.5 58q0 48-31 74.5T363 665q-63 0-107.5-39.5T194 507L86 0H29z"/><glyph glyph-name="agrave" unicode="à" horiz-adv-x="611" d="M432 51q-33-27-75.5-43T263-8q-53 0-93.5 18.5t-68 50-42 72.5T45 220q0 57 21 109t59.5 91.5T217 484t117 24q58 0 102.5-20t73.5-54l14 66h58L476 0h-55zm-158-5q48 0 93.5 21.5T445 127l51 240q-24 42-68.5 64.5T332 454q-48 0-89.5-18t-72-49.5-48-73.5-17.5-90q0-38 11.5-70.5t33-56 53-37T274 46zm-12 664h81l54-165h-43z"/><glyph glyph-name="aacute" unicode="á" horiz-adv-x="611" d="M432 51q-33-27-75.5-43T263-8q-53 0-93.5 18.5t-68 50-42 72.5T45 220q0 57 21 109t59.5 91.5T217 484t117 24q58 0 102.5-20t73.5-54l14 66h58L476 0h-55zm-158-5q48 0 93.5 21.5T445 127l51 240q-24 42-68.5 64.5T332 454q-48 0-89.5-18t-72-49.5-48-73.5-17.5-90q0-38 11.5-70.5t33-56 53-37T274 46zm175 664h81L377 545h-54z"/><glyph glyph-name="acircumflex" unicode="â" horiz-adv-x="611" d="M432 51q-33-27-75.5-43T263-8q-53 0-93.5 18.5t-68 50-42 72.5T45 220q0 57 21 109t59.5 91.5T217 484t117 24q58 0 102.5-20t73.5-54l14 66h58L476 0h-55zm-158-5q48 0 93.5 21.5T445 127l51 240q-24 42-68.5 64.5T332 454q-48 0-89.5-18t-72-49.5-48-73.5-17.5-90q0-38 11.5-70.5t33-56 53-37T274 46zm-76 562l195 110 136-117-33-38-109 94-164-94z"/><glyph glyph-name="atilde" unicode="ã" horiz-adv-x="611" d="M432 51q-33-27-75.5-43T263-8q-53 0-93.5 18.5t-68 50-42 72.5T45 220q0 57 21 109t59.5 91.5T217 484t117 24q58 0 102.5-20t73.5-54l14 66h58L476 0h-55zm-158-5q48 0 93.5 21.5T445 127l51 240q-24 42-68.5 64.5T332 454q-48 0-89.5-18t-72-49.5-48-73.5-17.5-90q0-38 11.5-70.5t33-56 53-37T274 46zm-70 526q4 25 15 44t26 31 32 18 34 6q19 0 38-7.5t36.5-16 33-16T446 624q43 0 57 47h52q-2-24-12-42t-25-31-33-19.5-36-6.5q-19 0-38.5 7.5t-37.5 16-34 16-28 7.5q-21 0-34-12t-21-35h-52z"/><glyph glyph-name="adieresis" unicode="ä" horiz-adv-x="611" d="M432 51q-33-27-75.5-43T263-8q-53 0-93.5 18.5t-68 50-42 72.5T45 220q0 57 21 109t59.5 91.5T217 484t117 24q58 0 102.5-20t73.5-54l14 66h58L476 0h-55zm-158-5q48 0 93.5 21.5T445 127l51 240q-24 42-68.5 64.5T332 454q-48 0-89.5-18t-72-49.5-48-73.5-17.5-90q0-38 11.5-70.5t33-56 53-37T274 46zm-53 586q0 22 15 37t37 15 37-15 15-37-15-37-37-15-37 15-15 37zm272-52q-22 0-37 15t-15 37 15 37 37 15 37-15 15-37-15-37-37-15z"/><glyph glyph-name="aring" unicode="å" horiz-adv-x="611" d="M432 51q-33-27-75.5-43T263-8q-53 0-93.5 18.5t-68 50-42 72.5T45 220q0 57 21 109t59.5 91.5T217 484t117 24q58 0 102.5-20t73.5-54l14 66h58L476 0h-55zm-158-5q48 0 93.5 21.5T445 127l51 240q-24 42-68.5 64.5T332 454q-48 0-89.5-18t-72-49.5-48-73.5-17.5-90q0-38 11.5-70.5t33-56 53-37T274 46zm61 618q0-23 16-38.5t38-15.5 37.5 15.5T442 664q0 22-15.5 38T389 718t-38-16-16-38zm146 0q0-38-27-64.5T389 573q-19 0-36 7t-29.5 19.5-19.5 29-7 35.5 7 35.5 19.5 29T353 748t36 7q38 0 65-26.5t27-64.5z"/><glyph glyph-name="ae" unicode="æ" horiz-adv-x="933" d="M841 65q-38-34-87.5-53.5T647-8q-75 0-126 32.5T444 108q-56-57-121-86.5T184-8q-43 0-74.5 11T57 32.5t-31.5 44T15 131q0 37 16.5 72t48 61.5T156 307t103 16q59 0 97-14.5t63-31.5q8 38 10.5 54.5T432 357q0 28-10 47t-27.5 30.5-40 16T307 455q-51 0-93.5-17.5T138 394l-30 43q45 32 95.5 51.5T306 508q29 0 57-6t51-18 39.5-31 24.5-45q38 46 93 73t123 27q48 0 86.5-15.5t66-42.5 42-65 14.5-83q0-28-5-53H470v-18q0-44 14.5-78.5t39.5-58 58-36T651 46q45 0 83.5 16t68.5 43zM190 45q66 0 117 27t83 69l16 78q-24 23-61.5 37.5T249 271q-33 0-64.5-10t-56-28-39-43.5T75 134q0-44 33-66.5T190 45zm499 409q-38 0-71.5-11t-61-31-47.5-48.5-30-63.5h364q1 5 1 9v6q0 32-11.5 58T800 417t-49.5 27.5T689 454z"/><glyph glyph-name="ccedilla" unicode="ç" horiz-adv-x="532" d="M251-6q-50 5-88 26T99 72.5 59.5 144 46 227q0 58 21.5 109.5T127 426t89.5 60T329 508q62 0 112.5-24.5T523 411l-48-33q-24 37-63.5 56.5T324 454q-47 0-87-17t-69-46.5-46-70.5-17-89q0-44 15-78.5t39.5-58 57.5-36T286 46q45 0 82.5 15.5T435 105l38-41q-36-32-82-51T291-8l-77-129h-74z"/><glyph glyph-name="egrave" unicode="è" horiz-adv-x="568" d="M476 65q-38-34-87.5-53.5T282-8 181 11.5t-74 52-45.5 75T46 227q0 58 21.5 109.5T127 426t89.5 60T329 508q48 0 86.5-15.5t66-42.5 42-65 14.5-83q0-28-5-53H105v-18q0-44 14.5-78.5t39.5-58 58-36T286 46q45 0 83.5 16t68.5 43zM324 454q-38 0-71.5-11t-61-31-47.5-48.5-30-63.5h364q1 5 1 9v6q0 32-11.5 58T435 417t-49.5 27.5T324 454zm-78 256h81l54-165h-43z"/><glyph glyph-name="eacute" unicode="é" horiz-adv-x="568" d="M397 710h81L325 545h-54zm79-645q-38-34-87.5-53.5T282-8 181 11.5t-74 52-45.5 75T46 227q0 58 21.5 109.5T127 426t89.5 60T329 508q48 0 86.5-15.5t66-42.5 42-65 14.5-83q0-28-5-53H105v-18q0-44 14.5-78.5t39.5-58 58-36T286 46q45 0 83.5 16t68.5 43zM324 454q-38 0-71.5-11t-61-31-47.5-48.5-30-63.5h364q1 5 1 9v6q0 32-11.5 58T435 417t-49.5 27.5T324 454z"/><glyph glyph-name="ecircumflex" unicode="ê" horiz-adv-x="568" d="M172 608l195 110 136-117-33-38-109 94-164-94zM476 65q-38-34-87.5-53.5T282-8 181 11.5t-74 52-45.5 75T46 227q0 58 21.5 109.5T127 426t89.5 60T329 508q48 0 86.5-15.5t66-42.5 42-65 14.5-83q0-28-5-53H105v-18q0-44 14.5-78.5t39.5-58 58-36T286 46q45 0 83.5 16t68.5 43zM324 454q-38 0-71.5-11t-61-31-47.5-48.5-30-63.5h364q1 5 1 9v6q0 32-11.5 58T435 417t-49.5 27.5T324 454z"/><glyph glyph-name="edieresis" unicode="ë" horiz-adv-x="568" d="M194 632q0 22 15 37t37 15 37-15 15-37-15-37-37-15-37 15-15 37zm272-52q-22 0-37 15t-15 37 15 37 37 15 37-15 15-37-15-37-37-15zm10-515q-38-34-87.5-53.5T282-8 181 11.5t-74 52-45.5 75T46 227q0 58 21.5 109.5T127 426t89.5 60T329 508q48 0 86.5-15.5t66-42.5 42-65 14.5-83q0-28-5-53H105v-18q0-44 14.5-78.5t39.5-58 58-36T286 46q45 0 83.5 16t68.5 43zM324 454q-38 0-71.5-11t-61-31-47.5-48.5-30-63.5h364q1 5 1 9v6q0 32-11.5 58T435 417t-49.5 27.5T324 454z"/><glyph glyph-name="igrave" unicode="ì" horiz-adv-x="223" d="M135 500h59L88 0H29zM85 710h81l54-165h-43z"/><glyph glyph-name="iacute" unicode="í" horiz-adv-x="223" d="M232 710h81L160 545h-54zm-97-210h59L88 0H29z"/><glyph glyph-name="icircumflex" unicode="î" horiz-adv-x="223" d="M20 608l195 110 136-117-33-38-109 94-164-94zm115-108h59L88 0H29z"/><glyph glyph-name="idieresis" unicode="ï" horiz-adv-x="223" d="M31 632q0 22 15 37t37 15 37-15 15-37-15-37-37-15-37 15-15 37zm272-52q-22 0-37 15t-15 37 15 37 37 15 37-15 15-37-15-37-37-15zm-168-80h59L88 0H29z"/><glyph glyph-name="eth" unicode="ð" horiz-adv-x="614" d="M273 627h89l-40 83h64l39-83h136l-13-55h-96l71-149q12-24 20.5-43.5t14-36.5 8-34 2.5-36q0-59-21.5-110T487 74t-90-60T285-8q-57 0-101.5 19.5t-75 52-46.5 75T46 227q0 58 21.5 109.5T127 426t90 60 112 22q30 0 59.5-7.5T433 482l-44 90H260zM105 231q0-43 15-77.5T160.5 95 219 58.5 289 46q46 0 86.5 17t70 47 46.5 70.5 17 88.5q0 43-15 77.5T453.5 405 395 441.5 325 454q-47 0-87-17t-69.5-47-46.5-70.5-17-88.5z"/><glyph glyph-name="ntilde" unicode="ñ" horiz-adv-x="582" d="M135 500h55l-11-51q34 29 77.5 44t89.5 15q39 0 71-12t55.5-34.5 36-54T521 336q0-14-1.5-26.5T515 282L455 0h-57l59 277q6 25 6 47 0 63-37 96.5T327 454q-47 0-89-22t-73-58L86 0H29zm63 72q4 25 15 44t26 31 32 18 34 6q19 0 38-7.5t36.5-16 33-16T440 624q43 0 57 47h52q-2-24-12-42t-25-31-33-19.5-36-6.5q-19 0-38.5 7.5t-37.5 16-34 16-28 7.5q-21 0-34-12t-21-35h-52z"/><glyph glyph-name="ograve" unicode="ò" horiz-adv-x="614" d="M105 231q0-44 15-78t40.5-58 59-36.5T289 46q46 0 86 17t70 46.5 47 70.5 17 89q0 43-15 77.5T453.5 405t-59 36.5T325 454q-47 0-87-17t-69.5-46.5T122 320t-17-89zm463 42q0-59-21.5-110T487 74t-90-60T285-8q-57 0-101.5 19.5t-75 52-46.5 75T46 227q0 58 21.5 109.5T127 426t90 60 112 22q57 0 101.5-19.5t75-52 46.5-75 16-88.5zM247 710h81l54-165h-43z"/><glyph glyph-name="oacute" unicode="ó" horiz-adv-x="614" d="M426 710h81L354 545h-54zM105 231q0-44 15-78t40.5-58 59-36.5T289 46q46 0 86 17t70 46.5 47 70.5 17 89q0 43-15 77.5T453.5 405t-59 36.5T325 454q-47 0-87-17t-69.5-46.5T122 320t-17-89zm463 42q0-59-21.5-110T487 74t-90-60T285-8q-57 0-101.5 19.5t-75 52-46.5 75T46 227q0 58 21.5 109.5T127 426t90 60 112 22q57 0 101.5-19.5t75-52 46.5-75 16-88.5z"/><glyph glyph-name="ocircumflex" unicode="ô" horiz-adv-x="614" d="M204 608l195 110 136-117-33-38-109 94-164-94zm-99-377q0-44 15-78t40.5-58 59-36.5T289 46q46 0 86 17t70 46.5 47 70.5 17 89q0 43-15 77.5T453.5 405t-59 36.5T325 454q-47 0-87-17t-69.5-46.5T122 320t-17-89zm463 42q0-59-21.5-110T487 74t-90-60T285-8q-57 0-101.5 19.5t-75 52-46.5 75T46 227q0 58 21.5 109.5T127 426t90 60 112 22q57 0 101.5-19.5t75-52 46.5-75 16-88.5z"/><glyph glyph-name="otilde" unicode="õ" horiz-adv-x="614" d="M105 231q0-44 15-78t40.5-58 59-36.5T289 46q46 0 86 17t70 46.5 47 70.5 17 89q0 43-15 77.5T453.5 405t-59 36.5T325 454q-47 0-87-17t-69.5-46.5T122 320t-17-89zm463 42q0-59-21.5-110T487 74t-90-60T285-8q-57 0-101.5 19.5t-75 52-46.5 75T46 227q0 58 21.5 109.5T127 426t90 60 112 22q57 0 101.5-19.5t75-52 46.5-75 16-88.5zM178 572q4 25 15 44t26 31 32 18 34 6q19 0 38-7.5t36.5-16 33-16T420 624q43 0 57 47h52q-2-24-12-42t-25-31-33-19.5-36-6.5q-19 0-38.5 7.5t-37.5 16-34 16-28 7.5q-21 0-34-12t-21-35h-52z"/><glyph glyph-name="odieresis" unicode="ö" horiz-adv-x="614" d="M226 632q0 22 15 37t37 15 37-15 15-37-15-37-37-15-37 15-15 37zm272-52q-22 0-37 15t-15 37 15 37 37 15 37-15 15-37-15-37-37-15zM105 231q0-44 15-78t40.5-58 59-36.5T289 46q46 0 86 17t70 46.5 47 70.5 17 89q0 43-15 77.5T453.5 405t-59 36.5T325 454q-47 0-87-17t-69.5-46.5T122 320t-17-89zm463 42q0-59-21.5-110T487 74t-90-60T285-8q-57 0-101.5 19.5t-75 52-46.5 75T46 227q0 58 21.5 109.5T127 426t90 60 112 22q57 0 101.5-19.5t75-52 46.5-75 16-88.5z"/><glyph glyph-name="divide" unicode="÷" d="M300 350q-25 0-42.5 17.5T240 410t17.5 42.5T300 470q24 0 41.5-17.5T359 410t-17.5-42.5T300 350zm0-279q-25 0-42.5 17.5T240 131t17.5 42.5T300 191q24 0 41.5-17.5T359 131t-17.5-42.5T300 71zM79 298h440v-55H79v55z"/><glyph glyph-name="oslash" unicode="ø" horiz-adv-x="614" d="M50 23l49 51q-26 32-39.5 71T46 227q0 58 21.5 109.5T127 426t90 60 112 22q45 0 81.5-12t65.5-34l49 50 37-35-49-50q55-66 55-154 0-59-21.5-110T487 74t-90-60T285-8q-45 0-82 12t-66 34L88-13zm459 246q0 35-10 63.5T472 384L178 80q48-34 111-34 46 0 86 17t70 46.5 47 70.5 17 89zm-404-38q0-67 36-114l294 303q-48 34-110 34-47 0-87-17t-69.5-46.5T122 320t-17-89z"/><glyph glyph-name="ugrave" unicode="ù" horiz-adv-x="578" d="M398 51q-33-29-76-44T233-8q-79 0-126 43T60 155q0 14 2 28t5 30l61 287h57l-60-285q-6-27-6-50 0-58 34-88.5T250 46q48 0 90 21.5t72 57.5l80 375h57L443 0h-55zM258 710h81l54-165h-43z"/><glyph glyph-name="uacute" unicode="ú" horiz-adv-x="578" d="M405 710h81L333 545h-54zm-7-659q-33-29-76-44T233-8q-79 0-126 43T60 155q0 14 2 28t5 30l61 287h57l-60-285q-6-27-6-50 0-58 34-88.5T250 46q48 0 90 21.5t72 57.5l80 375h57L443 0h-55z"/><glyph glyph-name="ucircumflex" unicode="û" horiz-adv-x="578" d="M183 608l195 110 136-117-33-38-109 94-164-94zM398 51q-33-29-76-44T233-8q-79 0-126 43T60 155q0 14 2 28t5 30l61 287h57l-60-285q-6-27-6-50 0-58 34-88.5T250 46q48 0 90 21.5t72 57.5l80 375h57L443 0h-55z"/><glyph glyph-name="udieresis" unicode="ü" horiz-adv-x="578" d="M204 632q0 22 15 37t37 15 37-15 15-37-15-37-37-15-37 15-15 37zm272-52q-22 0-37 15t-15 37 15 37 37 15 37-15 15-37-15-37-37-15zM398 51q-33-29-76-44T233-8q-79 0-126 43T60 155q0 14 2 28t5 30l61 287h57l-60-285q-6-27-6-50 0-58 34-88.5T250 46q48 0 90 21.5t72 57.5l80 375h57L443 0h-55z"/><glyph glyph-name="yacute" unicode="ý" horiz-adv-x="513" d="M176 21L60 500h59l99-417 279 417h66L103-184H38zm196 689h81L300 545h-54z"/><glyph glyph-name="thorn" unicode="þ" horiz-adv-x="610" d="M180 710h55l-56-261q33 27 75.5 43t93.5 16q53 0 93.5-18.5t68.5-50 42-72.5 14-87q0-57-21.5-109T485 79.5 394 16 277-8q-59 0-103.5 20T100 66L47-184h-57zm157-256q-49 0-94.5-22T165 372l-51-238q23-42 68.5-65T279 46q48 0 90 18t72.5 49.5 48 73.5 17.5 90q0 38-11.5 70.5t-33.5 56-53.5 37T337 454z"/><glyph glyph-name="ydieresis" unicode="ÿ" horiz-adv-x="513" d="M176 21L60 500h59l99-417 279 417h66L103-184H38zm-2 611q0 22 15 37t37 15 37-15 15-37-15-37-37-15-37 15-15 37zm272-52q-22 0-37 15t-15 37 15 37 37 15 37-15 15-37-15-37-37-15z"/><glyph glyph-name="Amacron" unicode="Ā" horiz-adv-x="670" d="M435 718L620 0h-64l-55 217H162L15 0h-72zM202 276h284l-76 305zm124 583h278l-11-50H315z"/><glyph glyph-name="amacron" unicode="ā" horiz-adv-x="611" d="M432 51q-33-27-75.5-43T263-8q-53 0-93.5 18.5t-68 50-42 72.5T45 220q0 57 21 109t59.5 91.5T217 484t117 24q58 0 102.5-20t73.5-54l14 66h58L476 0h-55zm-158-5q48 0 93.5 21.5T445 127l51 240q-24 42-68.5 64.5T332 454q-48 0-89.5-18t-72-49.5-48-73.5-17.5-90q0-38 11.5-70.5t33-56 53-37T274 46zm-21 634h278l-11-51H242z"/><glyph glyph-name="Abreve" unicode="Ă" horiz-adv-x="670" d="M435 718L620 0h-64l-55 217H162L15 0h-72zM202 276h284l-76 305zm152 624q8-36 35.5-56t59.5-20q42 0 70 21t41 55h47q-14-52-56.5-85.5T447 781q-30 0-54.5 9.5T350 816t-28.5 38-13.5 46h46z"/><glyph glyph-name="abreve" unicode="ă" horiz-adv-x="611" d="M432 51q-33-27-75.5-43T263-8q-53 0-93.5 18.5t-68 50-42 72.5T45 220q0 57 21 109t59.5 91.5T217 484t117 24q58 0 102.5-20t73.5-54l14 66h58L476 0h-55zm-158-5q48 0 93.5 21.5T445 127l51 240q-24 42-68.5 64.5T332 454q-48 0-89.5-18t-72-49.5-48-73.5-17.5-90q0-38 11.5-70.5t33-56 53-37T274 46zm6 664q8-36 35.5-56t59.5-20q42 0 70 21t41 55h47q-14-52-56.5-85.5T373 591q-30 0-54.5 9.5T276 626t-28.5 38-13.5 46h46z"/><glyph glyph-name="Aogonek" unicode="Ą" horiz-adv-x="670" d="M435 718L620 0q-57-23-84-50.5T509-101q0-15 11-26t37-11q10 0 18.5 1t16.5 3l-11-49q-13-4-26-5t-27-1q-36 0-62.5 22T439-112q0 21 10 38.5T475-42t37 24.5T556 0l-55 217H162L15 0h-72zM202 276h284l-76 305z"/><glyph glyph-name="aogonek" unicode="ą" horiz-adv-x="611" d="M393-174q-36 0-63 20t-27 53q0 20 10 36t26.5 28T377-15.5 421 0l11 51q-33-27-75.5-43T263-8q-53 0-93.5 18.5t-68 50-42 72.5T45 220q0 57 21 109t59.5 91.5T217 484t117 24q58 0 102.5-20t73.5-54l14 66h58L476 0q-55-24-79.5-46.5T372-92q0-31 49-31 15 0 29 3l-10-49q-11-3-23-4t-24-1zM274 46q48 0 93.5 21.5T445 127l51 240q-24 42-68.5 64.5T332 454q-48 0-89.5-18t-72-49.5-48-73.5-17.5-90q0-38 11.5-70.5t33-56 53-37T274 46z"/><glyph glyph-name="Cacute" unicode="Ć" horiz-adv-x="688" d="M636 59Q542-8 405-8q-80 0-142 27.5T159 93 95 199.5 73 325q0 75 27.5 146t80 126 128 88T481 718q81 0 141-27.5T724 616l-46-42q-35 39-85.5 62T476 659q-77 0-139.5-27T230 559.5t-68.5-105T137 330q0-55 17.5-105.5t52-89 85-61.5T408 51q58 0 106.5 16t87.5 42l34-50zm-97 854h83L478 768h-54z"/><glyph glyph-name="cacute" unicode="ć" horiz-adv-x="532" d="M398 710h81L326 545h-54zm75-646q-38-33-86-52.5T282-8 181 11.5t-74 52-45.5 75T46 227q0 58 21.5 109.5T127 426t89.5 60T329 508q62 0 112.5-24.5T523 411l-48-33q-24 37-63.5 56.5T324 454q-47 0-87-17t-69-46.5-46-70.5-17-89q0-44 15-78.5t39.5-58 57.5-36T286 46q45 0 82.5 15.5T435 105l38-41z"/><glyph glyph-name="Ccircumflex" unicode="Ĉ" horiz-adv-x="688" d="M636 59Q542-8 405-8q-80 0-142 27.5T159 93 95 199.5 73 325q0 75 27.5 146t80 126 128 88T481 718q81 0 141-27.5T724 616l-46-42q-35 39-85.5 62T476 659q-77 0-139.5-27T230 559.5t-68.5-105T137 330q0-55 17.5-105.5t52-89 85-61.5T408 51q58 0 106.5 16t87.5 42l34-50zM314 820l204 108 147-112-33-43-120 92-173-92z"/><glyph glyph-name="ccircumflex" unicode="ĉ" horiz-adv-x="532" d="M173 608l195 110 136-117-33-38-109 94-164-94zM473 64q-38-33-86-52.5T282-8 181 11.5t-74 52-45.5 75T46 227q0 58 21.5 109.5T127 426t89.5 60T329 508q62 0 112.5-24.5T523 411l-48-33q-24 37-63.5 56.5T324 454q-47 0-87-17t-69-46.5-46-70.5-17-89q0-44 15-78.5t39.5-58 57.5-36T286 46q45 0 82.5 15.5T435 105l38-41z"/><glyph glyph-name="Cdotaccent" unicode="Ċ" horiz-adv-x="688" d="M454 843q0 22 15 37t37 15 37-15 15-37-15-37-37-15-37 15-15 37zM636 59Q542-8 405-8q-80 0-142 27.5T159 93 95 199.5 73 325q0 75 27.5 146t80 126 128 88T481 718q81 0 141-27.5T724 616l-46-42q-35 39-85.5 62T476 659q-77 0-139.5-27T230 559.5t-68.5-105T137 330q0-55 17.5-105.5t52-89 85-61.5T408 51q58 0 106.5 16t87.5 42l34-50z"/><glyph glyph-name="cdotaccent" unicode="ċ" horiz-adv-x="532" d="M473 64q-38-33-86-52.5T282-8 181 11.5t-74 52-45.5 75T46 227q0 58 21.5 109.5T127 426t89.5 60T329 508q62 0 112.5-24.5T523 411l-48-33q-24 37-63.5 56.5T324 454q-47 0-87-17t-69-46.5-46-70.5-17-89q0-44 15-78.5t39.5-58 57.5-36T286 46q45 0 82.5 15.5T435 105l38-41zM305 632q0 22 15 37t37 15 37-15 15-37-15-37-37-15-37 15-15 37z"/><glyph glyph-name="Ccaron" unicode="Č" horiz-adv-x="688" d="M636 59Q542-8 405-8q-80 0-142 27.5T159 93 95 199.5 73 325q0 75 27.5 146t80 126 128 88T481 718q81 0 141-27.5T724 616l-46-42q-35 39-85.5 62T476 659q-77 0-139.5-27T230 559.5t-68.5-105T137 330q0-55 17.5-105.5t52-89 85-61.5T408 51q58 0 106.5 16t87.5 42l34-50zm60 820L492 771 345 883l33 43 120-92 173 92z"/><glyph glyph-name="ccaron" unicode="č" horiz-adv-x="532" d="M541 695L346 585 210 702l33 38 109-94 164 94zM473 64q-38-33-86-52.5T282-8 181 11.5t-74 52-45.5 75T46 227q0 58 21.5 109.5T127 426t89.5 60T329 508q62 0 112.5-24.5T523 411l-48-33q-24 37-63.5 56.5T324 454q-47 0-87-17t-69-46.5-46-70.5-17-89q0-44 15-78.5t39.5-58 57.5-36T286 46q45 0 82.5 15.5T435 105l38-41z"/><glyph glyph-name="Dcaron" unicode="Ď" horiz-adv-x="744" d="M261 59q91 0 164 29t124.5 78T629 278.5 657 411q0 51-17.5 95t-51 76.5-82 50.5T397 651H250L125 59h136zm-60 651h194q78 0 138.5-22.5T636 625t64-93.5T722 415q0-86-34-161.5t-95.5-132-146.5-89T259 0H50zm448 169L445 771 298 883l33 43 120-92 173 92z"/><glyph glyph-name="dcaron" unicode="ď" horiz-adv-x="635" d="M432 51q-33-27-76-43T263-8q-53 0-93.5 18.5t-68 50-42 72.5T45 220q0 57 21.5 109t60 91.5T218 484t117 24q58 0 102.5-20.5T511 434l59 276h57L476 0h-55zm-157-5q48 0 93.5 21.5T446 127l51 239q-24 42-69 65t-96 23q-48 0-89.5-18t-72-49.5-48-73.5-17.5-90q0-38 11.5-70.5t33.5-56 53.5-37T275 46zm447 664h58l-77-167h-41z"/><glyph glyph-name="Dcroat" unicode="Đ" horiz-adv-x="759" d="M46 400h104l66 310h194q78 0 138.5-22.5T651 625t64-93.5T737 415q0-86-34-161.5t-95.5-132-146.5-89T274 0H65l72 342H34zM276 59q91 0 164 29t124.5 78T644 278.5 672 411q0 51-17.5 95t-51 76.5-82 50.5T412 651H265l-53-251h140l-12-58H200L140 59h136z"/><glyph glyph-name="dcroat" unicode="đ" horiz-adv-x="611" d="M380 638h174l16 72h57l-16-72h75l-12-54h-74L476 0h-55l11 51q-33-27-76-43T263-8q-53 0-93.5 18.5t-68 50-42 72.5T45 220q0 57 21.5 109t60 91.5T218 484t117 24q58 0 102.5-20.5T511 434l32 150H368zM275 46q48 0 93.5 21.5T446 127l51 239q-24 42-69 65t-96 23q-48 0-89.5-18t-72-49.5-48-73.5-17.5-90q0-38 11.5-70.5t33.5-56 53.5-37T275 46z"/><glyph glyph-name="Emacron" unicode="Ē" horiz-adv-x="554" d="M201 710h403l-13-59H250l-54-255h281l-13-60H183L125 59h341L453 0H50zm95 149h278l-11-50H285z"/><glyph glyph-name="emacron" unicode="ē" horiz-adv-x="568" d="M476 65q-38-34-87.5-53.5T282-8 181 11.5t-74 52-45.5 75T46 227q0 58 21.5 109.5T127 426t89.5 60T329 508q48 0 86.5-15.5t66-42.5 42-65 14.5-83q0-28-5-53H105v-18q0-44 14.5-78.5t39.5-58 58-36T286 46q45 0 83.5 16t68.5 43zM324 454q-38 0-71.5-11t-61-31-47.5-48.5-30-63.5h364q1 5 1 9v6q0 32-11.5 58T435 417t-49.5 27.5T324 454zm-97 226h278l-11-51H216z"/><glyph glyph-name="Ebreve" unicode="Ĕ" horiz-adv-x="554" d="M201 710h403l-13-59H250l-54-255h281l-13-60H183L125 59h341L453 0H50zm123 190q8-36 35.5-56t59.5-20q42 0 70 21t41 55h47q-14-52-56.5-85.5T417 781q-30 0-54.5 9.5T320 816t-28.5 38-13.5 46h46z"/><glyph glyph-name="ebreve" unicode="ĕ" horiz-adv-x="568" d="M476 65q-38-34-87.5-53.5T282-8 181 11.5t-74 52-45.5 75T46 227q0 58 21.5 109.5T127 426t89.5 60T329 508q48 0 86.5-15.5t66-42.5 42-65 14.5-83q0-28-5-53H105v-18q0-44 14.5-78.5t39.5-58 58-36T286 46q45 0 83.5 16t68.5 43zM324 454q-38 0-71.5-11t-61-31-47.5-48.5-30-63.5h364q1 5 1 9v6q0 32-11.5 58T435 417t-49.5 27.5T324 454zm-70 256q8-36 35.5-56t59.5-20q42 0 70 21t41 55h47q-14-52-56.5-85.5T347 591q-30 0-54.5 9.5T250 626t-28.5 38-13.5 46h46z"/><glyph glyph-name="Edotaccent" unicode="Ė" horiz-adv-x="554" d="M201 710h403l-13-59H250l-54-255h281l-13-60H183L125 59h341L453 0H50zm177 133q0 22 15 37t37 15 37-15 15-37-15-37-37-15-37 15-15 37z"/><glyph glyph-name="edotaccent" unicode="ė" horiz-adv-x="568" d="M476 65q-38-34-87.5-53.5T282-8 181 11.5t-74 52-45.5 75T46 227q0 58 21.5 109.5T127 426t89.5 60T329 508q48 0 86.5-15.5t66-42.5 42-65 14.5-83q0-28-5-53H105v-18q0-44 14.5-78.5t39.5-58 58-36T286 46q45 0 83.5 16t68.5 43zM324 454q-38 0-71.5-11t-61-31-47.5-48.5-30-63.5h364q1 5 1 9v6q0 32-11.5 58T435 417t-49.5 27.5T324 454zm-20 178q0 22 15 37t37 15 37-15 15-37-15-37-37-15-37 15-15 37z"/><glyph glyph-name="Eogonek" unicode="Ę" horiz-adv-x="554" d="M201 710h403l-13-59H250l-54-255h281l-13-60H183L125 59h341L453 0q-57-23-84-50.5T342-101q0-15 11-26t37-11q10 0 18.5 1t16.5 3l-11-49q-13-4-26-5t-27-1q-36 0-62.5 22T272-112q0 21 10 38.5T309-42t38 24.5T391 0H50z"/><glyph glyph-name="eogonek" unicode="ę" horiz-adv-x="568" d="M267-174q-36 0-63 20t-27 53q0 35 27.5 57T269-8q-54 2-95.5 22t-70 52.5-43 74T46 227q0 58 21.5 109.5T127 426t89.5 60T329 508q48 0 86.5-15.5t66-42.5 42-65 14.5-83q0-28-5-53H105v-18q0-44 14.5-78.5t39.5-58 58-36T286 46q45 0 83.5 16t68.5 43l38-40q-27-23-59-40T349 0q-54-24-78.5-46.5T246-92q0-31 49-31 15 0 29 3l-10-49q-11-3-23-4t-24-1zm57 628q-38 0-71.5-11t-61-31-47.5-48.5-30-63.5h364q1 5 1 9v6q0 32-11.5 58T435 417t-49.5 27.5T324 454z"/><glyph glyph-name="Ecaron" unicode="Ě" horiz-adv-x="554" d="M201 710h403l-13-59H250l-54-255h281l-13-60H183L125 59h341L453 0H50zm419 169L416 771 269 883l33 43 120-92 173 92z"/><glyph glyph-name="ecaron" unicode="ě" horiz-adv-x="568" d="M540 695L345 585 209 702l33 38 109-94 164 94zM476 65q-38-34-87.5-53.5T282-8 181 11.5t-74 52-45.5 75T46 227q0 58 21.5 109.5T127 426t89.5 60T329 508q48 0 86.5-15.5t66-42.5 42-65 14.5-83q0-28-5-53H105v-18q0-44 14.5-78.5t39.5-58 58-36T286 46q45 0 83.5 16t68.5 43zM324 454q-38 0-71.5-11t-61-31-47.5-48.5-30-63.5h364q1 5 1 9v6q0 32-11.5 58T435 417t-49.5 27.5T324 454z"/><glyph glyph-name="Gcircumflex" unicode="Ĝ" horiz-adv-x="766" d="M315 820l204 108 147-112-33-43-120 92-173-92zM673 71Q556-8 405-8q-80 0-142 27.5T159 93 95 199.5 73 325q0 75 27.5 146t80 126 128 88T481 718q81 0 146.5-27T735 616l-47-42q-35 40-90.5 62.5T476 659q-77 0-139.5-27T230 559.5t-68.5-105T137 330q0-55 17.5-105.5t52-89 85-61.5T408 51q123 0 211 58l48 227H455l40 60h247L673 71z"/><glyph glyph-name="gcircumflex" unicode="ĝ" horiz-adv-x="603" d="M184 608l195 110 136-117-33-38-109 94-164-94zM493 58q0-64-21-111t-58-78.5-87.5-47T217-194q-28 0-57 4.5T104-176t-50.5 22.5T14-123l38 48q25-29 70-47t99-18q101 0 156.5 51.5T433 54q0 7-.5 13.5T431 79q-33-29-76.5-46.5T260 15t-90.5 17T103 78t-41 68.5T48 231q0 57 20.5 107.5t57.5 88 89.5 59.5T332 508q56 0 97.5-18.5T500 440l13 60h57l-82-386q2-14 3.5-28t1.5-28zM272 69q48 0 92 22t76 60l46 222q-24 39-66.5 60T328 454q-47 0-87.5-16.5t-70-45.5-46.5-69.5-17-88.5q0-75 42.5-120T272 69z"/><glyph glyph-name="Gbreve" unicode="Ğ" horiz-adv-x="766" d="M673 71Q556-8 405-8q-80 0-142 27.5T159 93 95 199.5 73 325q0 75 27.5 146t80 126 128 88T481 718q81 0 146.5-27T735 616l-47-42q-35 40-90.5 62.5T476 659q-77 0-139.5-27T230 559.5t-68.5-105T137 330q0-55 17.5-105.5t52-89 85-61.5T408 51q123 0 211 58l48 227H455l40 60h247L673 71zM403 900q8-36 35.5-56t59.5-20q42 0 70 21t41 55h47q-14-52-56.5-85.5T496 781q-30 0-54.5 9.5T399 816t-28.5 38-13.5 46h46z"/><glyph glyph-name="gbreve" unicode="ğ" horiz-adv-x="603" d="M493 58q0-64-21-111t-58-78.5-87.5-47T217-194q-28 0-57 4.5T104-176t-50.5 22.5T14-123l38 48q25-29 70-47t99-18q101 0 156.5 51.5T433 54q0 7-.5 13.5T431 79q-33-29-76.5-46.5T260 15t-90.5 17T103 78t-41 68.5T48 231q0 57 20.5 107.5t57.5 88 89.5 59.5T332 508q56 0 97.5-18.5T500 440l13 60h57l-82-386q2-14 3.5-28t1.5-28zM272 69q48 0 92 22t76 60l46 222q-24 39-66.5 60T328 454q-47 0-87.5-16.5t-70-45.5-46.5-69.5-17-88.5q0-75 42.5-120T272 69zm-6 641q8-36 35.5-56t59.5-20q42 0 70 21t41 55h47q-14-52-56.5-85.5T359 591q-30 0-54.5 9.5T262 626t-28.5 38-13.5 46h46z"/><glyph glyph-name="Gdotaccent" unicode="Ġ" horiz-adv-x="766" d="M456 843q0 22 15 37t37 15 37-15 15-37-15-37-37-15-37 15-15 37zM673 71Q556-8 405-8q-80 0-142 27.5T159 93 95 199.5 73 325q0 75 27.5 146t80 126 128 88T481 718q81 0 146.5-27T735 616l-47-42q-35 40-90.5 62.5T476 659q-77 0-139.5-27T230 559.5t-68.5-105T137 330q0-55 17.5-105.5t52-89 85-61.5T408 51q123 0 211 58l48 227H455l40 60h247L673 71z"/><glyph glyph-name="gdotaccent" unicode="ġ" horiz-adv-x="603" d="M493 58q0-64-21-111t-58-78.5-87.5-47T217-194q-28 0-57 4.5T104-176t-50.5 22.5T14-123l38 48q25-29 70-47t99-18q101 0 156.5 51.5T433 54q0 7-.5 13.5T431 79q-33-29-76.5-46.5T260 15t-90.5 17T103 78t-41 68.5T48 231q0 57 20.5 107.5t57.5 88 89.5 59.5T332 508q56 0 97.5-18.5T500 440l13 60h57l-82-386q2-14 3.5-28t1.5-28zM272 69q48 0 92 22t76 60l46 222q-24 39-66.5 60T328 454q-47 0-87.5-16.5t-70-45.5-46.5-69.5-17-88.5q0-75 42.5-120T272 69zm45 563q0 22 15 37t37 15 37-15 15-37-15-37-37-15-37 15-15 37z"/><glyph glyph-name="uni0122" unicode="Ģ" horiz-adv-x="766" d="M385-50h81L313-215h-54zM673 71Q556-8 405-8q-80 0-142 27.5T159 93 95 199.5 73 325q0 75 27.5 146t80 126 128 88T481 718q81 0 146.5-27T735 616l-47-42q-35 40-90.5 62.5T476 659q-77 0-139.5-27T230 559.5t-68.5-105T137 330q0-55 17.5-105.5t52-89 85-61.5T408 51q123 0 211 58l48 227H455l40 60h247L673 71z"/><glyph glyph-name="uni0123" unicode="ģ" horiz-adv-x="603" d="M493 58q0-64-21-111t-58-78.5-87.5-47T217-194q-28 0-57 4.5T104-176t-50.5 22.5T14-123l38 48q25-29 70-47t99-18q101 0 156.5 51.5T433 54q0 7-.5 13.5T431 79q-33-29-76.5-46.5T260 15t-90.5 17T103 78t-41 68.5T48 231q0 57 20.5 107.5t57.5 88 89.5 59.5T332 508q56 0 97.5-18.5T500 440l13 60h57l-82-386q2-14 3.5-28t1.5-28zM272 69q48 0 92 22t76 60l46 222q-24 39-66.5 60T328 454q-47 0-87.5-16.5t-70-45.5-46.5-69.5-17-88.5q0-75 42.5-120T272 69zm113.008 496.997h-80.995l152.99 164.99H511z"/><glyph glyph-name="Hcircumflex" unicode="Ĥ" horiz-adv-x="767" d="M201 710h62l-67-314h437l67 314h62L611 0h-62l71 336H183L112 0H50zm115 110l204 108 147-112-33-43-120 92-173-92z"/><glyph glyph-name="hcircumflex" unicode="ĥ" horiz-adv-x="583" d="M180 710h57l-55-260q34 28 76.5 43t88.5 15q39 0 71-12t55.5-34.5 36-54T522 336q0-26-6-56L456 0h-57l59 277q6 25 6 47 0 63-37 96.5T328 454q-47 0-89-22t-74-59v-1L86 0H29zm48 111l204 108 147-112-33-43-120 92-173-92z"/><glyph glyph-name="Hbar" unicode="Ħ" horiz-adv-x="769" d="M112 581h62l28 129h62l-28-129h437l28 129h62l-28-129h64l-12-58h-64L612 0h-62l71 336H184L113 0H51l111 523h-62zm522-185l27 127H224l-27-127h437z"/><glyph glyph-name="hbar" unicode="ħ" horiz-adv-x="583" d="M83 638h81l16 72h57l-15-72h167l-12-54H210l-28-134q34 28 76.5 43t88.5 15q39 0 71-12t55.5-34.5 36-54T522 336q0-26-6-56L456 0h-57l59 277q6 25 6 47 0 63-37 96.5T328 454q-47 0-89-22t-74-59v-1L86 0H29l124 584H71z"/><glyph glyph-name="Itilde" unicode="Ĩ" horiz-adv-x="268" d="M201 710h62L112 0H50zM84 791q4 25 15 44t26 31 32 18 34 6q19 0 38-7.5t36.5-16 33-16T326 843q43 0 57 47h52q-2-24-12-42t-25-31-33-19.5-36-6.5q-19 0-38.5 7.5t-37.5 16-34 16-28 7.5q-21 0-34-12t-21-35H84z"/><glyph glyph-name="itilde" unicode="ĩ" horiz-adv-x="223" d="M135 500h59L88 0H29zM16 572q4 25 15 44t26 31 32 18 34 6q19 0 38-7.5t36.5-16 33-16T258 624q43 0 57 47h52q-2-24-12-42t-25-31-33-19.5-36-6.5q-19 0-38.5 7.5t-37.5 16-34 16-28 7.5q-21 0-34-12t-21-35H16z"/><glyph glyph-name="Imacron" unicode="Ī" horiz-adv-x="268" d="M201 710h62L112 0H50zm-76 149h278l-11-50H114z"/><glyph glyph-name="imacron" unicode="ī" horiz-adv-x="223" d="M135 500h59L88 0H29zM65 680h278l-11-51H54z"/><glyph glyph-name="Ibreve" unicode="Ĭ" horiz-adv-x="268" d="M201 710h62L112 0H50zm-43 190q8-36 35.5-56t59.5-20q42 0 70 21t41 55h47q-14-52-56.5-85.5T251 781q-30 0-54.5 9.5T154 816t-28.5 38-13.5 46h46z"/><glyph glyph-name="ibreve" unicode="ĭ" horiz-adv-x="223" d="M135 500h59L88 0H29zm-35 210q8-36 35.5-56t59.5-20q42 0 70 21t41 55h47q-14-52-56.5-85.5T193 591q-30 0-54.5 9.5T96 626t-28.5 38T54 710h46z"/><glyph glyph-name="Iogonek" unicode="Į" horiz-adv-x="268" d="M20-189q-36 0-62.5 22T-69-112q0 21 10 38.5T-32-42 6-17.5 50 0l151 710h62L112 0Q55-23 28-50.5T1-101q0-15 11-26t37-11q10 0 18.5 1t16.5 3l-11-49q-13-4-26-5t-27-1z"/><glyph glyph-name="iogonek" unicode="į" horiz-adv-x="221" d="M3-174q-36 0-63 20t-27 53q0 20 10 36t26.5 28 37 21.5T29 0l106 500h57L86 0Q31-24 6.5-46.5T-18-92q0-31 49-31 15 0 29 3l-10-49q-11-3-23-4t-24-1zm143 836q0 23 17.5 39.5T204 718q20 0 32-13t12-30q0-15-8-27.5T218 627h-56q-7 5-11.5 14.5T146 662z"/><glyph glyph-name="Idotaccent" unicode="İ" horiz-adv-x="268" d="M201 710h62L112 0H50zm7 133q0 22 15 37t37 15 37-15 15-37-15-37-37-15-37 15-15 37z"/><glyph glyph-name="dotlessi" unicode="ı" horiz-adv-x="223" d="M135 500h59L88 0H29z"/><glyph glyph-name="Jcircumflex" unicode="Ĵ" horiz-adv-x="523" d="M417 196q-12-55-33-93.5t-50.5-63-67-36T184-8q-37 0-70 10T56.5 31.5t-39 49T3 148q0 12 1 23.5T8 197h61q-2-11-3-20.5T65 158q0-54 30-80.5T188 51q70 0 110.5 37T355 197l109 513h62L417 196zm-88 624l204 108 147-112-33-43-120 92-173-92z"/><glyph glyph-name="jcircumflex" unicode="ĵ" horiz-adv-x="230" d="M-102-129h21q30 0 49 6t31 18.5T18.5-72 32-24l111 524h58L87-35q-8-40-21-68.5T32.5-150-17-176t-70-8h-27zM18 608l195 110 136-117-33-38-109 94-164-94z"/><glyph glyph-name="uni0136" unicode="Ķ" horiz-adv-x="605" d="M231-50h81L159-215h-54zm-30 760h62l-75-353 415 353h80L254 345 560 0h-72L184 341 112 0H50z"/><glyph glyph-name="uni0137" unicode="ķ" horiz-adv-x="484" d="M175-50h81L103-215H49zm5 760h57l-93-437 296 227h78L201 258 435 0h-68L139 252 86 0H29z"/><glyph glyph-name="Lacute" unicode="Ĺ" horiz-adv-x="518" d="M332 913h83L271 768h-54zM201 710h62L125 59h339L451 0H50z"/><glyph glyph-name="lacute" unicode="ĺ" horiz-adv-x="221" d="M269 913h83L208 768h-54zm-89-203h57L86 0H29z"/><glyph glyph-name="uni013B" unicode="Ļ" horiz-adv-x="518" d="M226-50h81L154-215h-54zm-25 760h62L125 59h339L451 0H50z"/><glyph glyph-name="uni013C" unicode="ļ" horiz-adv-x="221" d="M9-50h81L-63-215h-54zm171 760h57L86 0H29z"/><glyph glyph-name="Lcaron" unicode="Ľ" horiz-adv-x="520" d="M201 710h62L125 59h339L451 0H50zm208 0h58l-77-167h-41z"/><glyph glyph-name="lcaron" unicode="ľ" horiz-adv-x="245" d="M180 710h57L86 0H29zm153 0h58l-77-167h-41z"/><glyph glyph-name="Ldot" unicode="Ŀ" horiz-adv-x="523" d="M201 710h62L125 59h339L451 0H50zm165-331q0 22 15 37t37 15 37-15 15-37-15-37-37-15-37 15-15 37z"/><glyph glyph-name="ldot" unicode="ŀ" horiz-adv-x="278" d="M221 356q0 22 15 37t37 15 37-15 15-37-15-37-37-15-37 15-15 37zm-41 354h57L86 0H29z"/><glyph glyph-name="Lslash" unicode="Ł" horiz-adv-x="542" d="M14 260l127 73 81 377h62l-71-335 231 133 28-51-275-159-51-239h339L472 0H71l54 257-83-48z"/><glyph glyph-name="lslash" unicode="ł" horiz-adv-x="328" d="M32 315l138 81 67 314h57l-59-276 99 58 27-47-141-83L143 0H86l69 324-96-56z"/><glyph glyph-name="Nacute" unicode="Ń" horiz-adv-x="787" d="M553 913h83L492 768h-54zM234 573L112 0H50l153 718 395-581 122 573h62L629-8z"/><glyph glyph-name="nacute" unicode="ń" horiz-adv-x="582" d="M415 710h81L343 545h-54zM135 500h55l-11-51q34 29 77.5 44t89.5 15q39 0 71-12t55.5-34.5 36-54T521 336q0-14-1.5-26.5T515 282L455 0h-57l59 277q6 25 6 47 0 63-37 96.5T327 454q-47 0-89-22t-73-58L86 0H29z"/><glyph glyph-name="uni0145" unicode="Ņ" horiz-adv-x="787" d="M318-50h81L246-215h-54zm-84 623L112 0H50l153 718 395-581 122 573h62L629-8z"/><glyph glyph-name="uni0146" unicode="ņ" horiz-adv-x="582" d="M220-50h81L148-215H94zm-85 550h55l-11-51q34 29 77.5 44t89.5 15q39 0 71-12t55.5-34.5 36-54T521 336q0-14-1.5-26.5T515 282L455 0h-57l59 277q6 25 6 47 0 63-37 96.5T327 454q-47 0-89-22t-73-58L86 0H29z"/><glyph glyph-name="Ncaron" unicode="Ň" horiz-adv-x="787" d="M234 573L112 0H50l153 718 395-581 122 573h62L629-8zm475 306L505 771 358 883l33 43 120-92 173 92z"/><glyph glyph-name="ncaron" unicode="ň" horiz-adv-x="582" d="M560 695L365 585 229 702l33 38 109-94 164 94zM135 500h55l-11-51q34 29 77.5 44t89.5 15q39 0 71-12t55.5-34.5 36-54T521 336q0-14-1.5-26.5T515 282L455 0h-57l59 277q6 25 6 47 0 63-37 96.5T327 454q-47 0-89-22t-73-58L86 0H29z"/><glyph glyph-name="Omacron" unicode="Ō" horiz-adv-x="840" d="M137 330q0-56 17.5-106.5t52-88.5 85-61T408 51q77 0 139.5 27t107 72.5 68.5 105T747 380q0 55-17.5 106T678 575t-85 61-117 23q-77 0-139.5-27T230 559.5t-68.5-105T137 330zm675 55q0-75-27.5-146t-80-126T576 25 404-8q-80 0-141.5 27.5T159 93.5 95 200 73 325q0 75 27.5 146t80 126 128 88T481 718q79 0 141-27.5t104-74T790 510t22-125zM411 859h278l-11-50H400z"/><glyph glyph-name="omacron" unicode="ō" horiz-adv-x="614" d="M227 680h278l-11-51H216zM105 231q0-44 15-78t40.5-58 59-36.5T289 46q46 0 86 17t70 46.5 47 70.5 17 89q0 43-15 77.5T453.5 405t-59 36.5T325 454q-47 0-87-17t-69.5-46.5T122 320t-17-89zm463 42q0-59-21.5-110T487 74t-90-60T285-8q-57 0-101.5 19.5t-75 52-46.5 75T46 227q0 58 21.5 109.5T127 426t90 60 112 22q57 0 101.5-19.5t75-52 46.5-75 16-88.5z"/><glyph glyph-name="Obreve" unicode="Ŏ" horiz-adv-x="840" d="M137 330q0-56 17.5-106.5t52-88.5 85-61T408 51q77 0 139.5 27t107 72.5 68.5 105T747 380q0 55-17.5 106T678 575t-85 61-117 23q-77 0-139.5-27T230 559.5t-68.5-105T137 330zm675 55q0-75-27.5-146t-80-126T576 25 404-8q-80 0-141.5 27.5T159 93.5 95 200 73 325q0 75 27.5 146t80 126 128 88T481 718q79 0 141-27.5t104-74T790 510t22-125zM440 900q8-36 35.5-56t59.5-20q42 0 70 21t41 55h47q-14-52-56.5-85.5T533 781q-30 0-54.5 9.5T436 816t-28.5 38-13.5 46h46z"/><glyph glyph-name="obreve" unicode="ŏ" horiz-adv-x="614" d="M105 231q0-44 15-78t40.5-58 59-36.5T289 46q46 0 86 17t70 46.5 47 70.5 17 89q0 43-15 77.5T453.5 405t-59 36.5T325 454q-47 0-87-17t-69.5-46.5T122 320t-17-89zm463 42q0-59-21.5-110T487 74t-90-60T285-8q-57 0-101.5 19.5t-75 52-46.5 75T46 227q0 58 21.5 109.5T127 426t90 60 112 22q57 0 101.5-19.5t75-52 46.5-75 16-88.5zM287 710q8-36 35.5-56t59.5-20q42 0 70 21t41 55h47q-14-52-56.5-85.5T380 591q-30 0-54.5 9.5T283 626t-28.5 38-13.5 46h46z"/><glyph glyph-name="Ohungarumlaut" unicode="Ő" horiz-adv-x="840" d="M491 913h83L430 768h-53zm201 0h83L631 768h-53zM137 330q0-56 17.5-106.5t52-88.5 85-61T408 51q77 0 139.5 27t107 72.5 68.5 105T747 380q0 55-17.5 106T678 575t-85 61-117 23q-77 0-139.5-27T230 559.5t-68.5-105T137 330zm675 55q0-75-27.5-146t-80-126T576 25 404-8q-80 0-141.5 27.5T159 93.5 95 200 73 325q0 75 27.5 146t80 126 128 88T481 718q79 0 141-27.5t104-74T790 510t22-125z"/><glyph glyph-name="ohungarumlaut" unicode="ő" horiz-adv-x="614" d="M502 710h81L430 545h-54zm-160 0h81L270 545h-54zM105 231q0-44 15-78t40.5-58 59-36.5T289 46q46 0 86 17t70 46.5 47 70.5 17 89q0 43-15 77.5T453.5 405t-59 36.5T325 454q-47 0-87-17t-69.5-46.5T122 320t-17-89zm463 42q0-59-21.5-110T487 74t-90-60T285-8q-57 0-101.5 19.5t-75 52-46.5 75T46 227q0 58 21.5 109.5T127 426t90 60 112 22q57 0 101.5-19.5t75-52 46.5-75 16-88.5z"/><glyph glyph-name="OE" unicode="Œ" horiz-adv-x="1105" d="M616 45q-45-26-97.5-39.5T404-8q-80 0-141.5 27.5T159 93.5 95 200 73 325q0 75 27.5 146t80 126 128 88T481 718q85 0 149-31t106-82l21 105h399l-13-59H807l-26-121q14-31 21.5-65t9.5-69h217l-13-60H809q-8-68-38.5-129T689 98l-8-39h337l-13-59H607zM137 330q0-56 17.5-106.5t52-88.5 85-61T408 51q77 0 139.5 27t107 72.5 68.5 105T747 380q0 55-17.5 106T678 575t-85 61-117 23q-77 0-139.5-27T230 559.5t-68.5-105T137 330z"/><glyph glyph-name="oe" unicode="œ" horiz-adv-x="1030" d="M528 127q-37-61-100-98T285-8q-57 0-101.5 19.5t-75 52-46.5 75T46 227q0 58 21.5 109.5T127 426t90 60 112 22q82 0 137-38t81-97q37 61 100.5 98T791 508q48 0 86.5-15.5t66-42.5 42-65 14.5-83q0-28-5-53H567v-18q0-44 14.5-78.5t39.5-58 58-36T748 46q45 0 83.5 16t68.5 43l38-40q-38-34-87.5-53.5T744-8q-82 0-136.5 38T528 127zM289 46q46 0 86 17t70 46.5 47 70.5 17 89q0 43-15 77.5T453.5 405t-59 36.5T325 454q-47 0-87-17t-69.5-46.5T122 320t-17-89q0-44 15-78t40.5-58 59-36.5T289 46zm651 254q1 5 1 9v6q0 32-11.5 58T897 417t-49.5 27.5T786 454q-38 0-71.5-11t-61-31-47.5-48.5-30-63.5h364z"/><glyph glyph-name="Racute" unicode="Ŕ" horiz-adv-x="617" d="M301 321H180L112 0H50l151 710h190q49 0 86-12.5t61.5-35 37-52.5 12.5-66q0-44-14.5-82t-43-67-69.5-48-94-24L552 0h-69zm26 57q49 0 86 12.5t62 34.5 37.5 51.5T525 540q0 51-34.5 81.5T384 652H250l-57-274h134zm133 535h83L399 768h-54z"/><glyph glyph-name="racute" unicode="ŕ" horiz-adv-x="339" d="M322 710h81L250 545h-54zM135 500h57l-14-67q29 34 73 54.5t95 20.5q18 0 33-3l-13-60q-18 5-40 5-54 0-97-26.5T160 352L86 0H29z"/><glyph glyph-name="uni0156" unicode="Ŗ" horiz-adv-x="617" d="M236-50h81L164-215h-54zm65 371H180L112 0H50l151 710h190q49 0 86-12.5t61.5-35 37-52.5 12.5-66q0-44-14.5-82t-43-67-69.5-48-94-24L552 0h-69zm26 57q49 0 86 12.5t62 34.5 37.5 51.5T525 540q0 51-34.5 81.5T384 652H250l-57-274h134z"/><glyph glyph-name="uni0157" unicode="ŗ" horiz-adv-x="339" d="M7-50h81L-65-215h-54zm128 550h57l-14-67q29 34 73 54.5t95 20.5q18 0 33-3l-13-60q-18 5-40 5-54 0-97-26.5T160 352L86 0H29z"/><glyph glyph-name="Rcaron" unicode="Ř" horiz-adv-x="617" d="M597 879L393 771 246 883l33 43 120-92 173 92zM301 321H180L112 0H50l151 710h190q49 0 86-12.5t61.5-35 37-52.5 12.5-66q0-44-14.5-82t-43-67-69.5-48-94-24L552 0h-69zm26 57q49 0 86 12.5t62 34.5 37.5 51.5T525 540q0 51-34.5 81.5T384 652H250l-57-274h134z"/><glyph glyph-name="rcaron" unicode="ř" horiz-adv-x="339" d="M469 695L274 585 138 702l33 38 109-94 164 94zM135 500h57l-14-67q29 34 73 54.5t95 20.5q18 0 33-3l-13-60q-18 5-40 5-54 0-97-26.5T160 352L86 0H29z"/><glyph glyph-name="Sacute" unicode="Ś" horiz-adv-x="526" d="M471 179q0-38-15-71.5T412 48 340.5 7 243-8q-41 0-77.5 10.5t-66 29-51.5 43T13 128l56 34q10-22 26.5-42t39-35.5 51-24.5 62.5-9q76 0 117 35.5t41 87.5q0 50-26.5 83.5T304 324l-72 49q-53 38-80 79t-27 98q0 39 15 70t42 53 64.5 33.5T329 718q57 0 109.5-24.5T528 612l-56-36q-27 45-65 64t-84 19q-58 0-96.5-28T188 551q0-44 21.5-73t63.5-58l73-50q56-38 90.5-82.5T471 179zm-47 734h83L363 768h-54z"/><glyph glyph-name="sacute" unicode="ś" horiz-adv-x="413" d="M334 710h81L262 545h-54zm17-581q0-30-12.5-55T304 31 252 2.5 187-8Q112-8 68.5 25T8 109l50 23q14-42 47.5-65T190 44q44 0 73.5 21.5T293 122q0 34-20.5 56.5T217 221l-46 27q-39 23-65 55.5T80 379q0 57 42 93t110 36q54 0 93-25.5t56-66.5l-52-24q-11 26-35.5 45T230 456q-42 0-67.5-20T137 383q0-30 17.5-51t48.5-40l46-27q20-12 38.5-25.5T320 209t22.5-36.5T351 129z"/><glyph glyph-name="Scircumflex" unicode="Ŝ" horiz-adv-x="526" d="M471 179q0-38-15-71.5T412 48 340.5 7 243-8q-41 0-77.5 10.5t-66 29-51.5 43T13 128l56 34q10-22 26.5-42t39-35.5 51-24.5 62.5-9q76 0 117 35.5t41 87.5q0 50-26.5 83.5T304 324l-72 49q-53 38-80 79t-27 98q0 39 15 70t42 53 64.5 33.5T329 718q57 0 109.5-24.5T528 612l-56-36q-27 45-65 64t-84 19q-58 0-96.5-28T188 551q0-44 21.5-73t63.5-58l73-50q56-38 90.5-82.5T471 179zM182 820l204 108 147-112-33-43-120 92-173-92z"/><glyph glyph-name="scircumflex" unicode="ŝ" horiz-adv-x="413" d="M96 608l195 110 136-117-33-38-109 94-164-94zm255-479q0-30-12.5-55T304 31 252 2.5 187-8Q112-8 68.5 25T8 109l50 23q14-42 47.5-65T190 44q44 0 73.5 21.5T293 122q0 34-20.5 56.5T217 221l-46 27q-39 23-65 55.5T80 379q0 57 42 93t110 36q54 0 93-25.5t56-66.5l-52-24q-11 26-35.5 45T230 456q-42 0-67.5-20T137 383q0-30 17.5-51t48.5-40l46-27q20-12 38.5-25.5T320 209t22.5-36.5T351 129z"/><glyph glyph-name="Scedilla" unicode="Ş" horiz-adv-x="526" d="M471 179q0-35-13-66.5T420.5 56t-61-41.5T275-6l-66-131h-83L221-7q-37 3-69.5 14T92 36 45 77.5 13 128l56 34q10-22 26.5-42t39-35.5 51-24.5 62.5-9q76 0 117 35.5t41 87.5q0 50-26.5 83.5T304 324l-72 49q-53 38-80 79t-27 98q0 39 15 70t42 53 64.5 33.5T329 718q57 0 109.5-24.5T528 612l-56-36q-27 45-65 64t-84 19q-58 0-96.5-28T188 551q0-44 21.5-73t63.5-58l73-50q56-38 90.5-82.5T471 179z"/><glyph glyph-name="scedilla" unicode="ş" horiz-adv-x="413" d="M163-7Q99-2 61.5 29.5T8 109l50 23q14-42 47.5-65T190 44q44 0 73.5 21.5T293 122q0 34-20.5 56.5T217 221l-46 27q-39 23-65 55.5T80 379q0 57 42 93t110 36q54 0 93-25.5t56-66.5l-52-24q-11 26-35.5 45T230 456q-42 0-67.5-20T137 383q0-30 17.5-51t48.5-40l46-27q20-12 38.5-25.5T320 209t22.5-36.5T351 129q0-28-11-51.5T309.5 36 263 7 204-7l-77-130H53z"/><glyph glyph-name="Scaron" unicode="Š" horiz-adv-x="526" d="M471 179q0-38-15-71.5T412 48 340.5 7 243-8q-41 0-77.5 10.5t-66 29-51.5 43T13 128l56 34q10-22 26.5-42t39-35.5 51-24.5 62.5-9q76 0 117 35.5t41 87.5q0 50-26.5 83.5T304 324l-72 49q-53 38-80 79t-27 98q0 39 15 70t42 53 64.5 33.5T329 718q57 0 109.5-24.5T528 612l-56-36q-27 45-65 64t-84 19q-58 0-96.5-28T188 551q0-44 21.5-73t63.5-58l73-50q56-38 90.5-82.5T471 179zm74 700L341 771 194 883l33 43 120-92 173 92z"/><glyph glyph-name="scaron" unicode="š" horiz-adv-x="413" d="M445 695L250 585 114 702l33 38 109-94 164 94zm-94-566q0-30-12.5-55T304 31 252 2.5 187-8Q112-8 68.5 25T8 109l50 23q14-42 47.5-65T190 44q44 0 73.5 21.5T293 122q0 34-20.5 56.5T217 221l-46 27q-39 23-65 55.5T80 379q0 57 42 93t110 36q54 0 93-25.5t56-66.5l-52-24q-11 26-35.5 45T230 456q-42 0-67.5-20T137 383q0-30 17.5-51t48.5-40l46-27q20-12 38.5-25.5T320 209t22.5-36.5T351 129z"/><glyph glyph-name="uni0162" unicode="Ţ" horiz-adv-x="498" d="M141-50h81L69-215H15zm160 701H97l13 59h472l-13-59H363L225 0h-62z"/><glyph glyph-name="uni0163" unicode="ţ" horiz-adv-x="326" d="M130-50h81L58-215H4zM66 500h93l25 118 64 29-31-147h135l-11-55H205l-61-293q-2-12-3.5-22.5T139 110q0-29 17-42t59-13h47L250 0h-38q-63 0-97.5 23.5T80 98q0 12 2 25t5 29l61 293H66v55z"/><glyph glyph-name="Tcaron" unicode="Ť" horiz-adv-x="498" d="M301 651H97l13 59h472l-13-59H363L225 0h-62zm261 228L358 771 211 883l33 43 120-92 173 92z"/><glyph glyph-name="tcaron" unicode="ť" horiz-adv-x="326" d="M66 500h93l25 118 64 29-31-147h135l-11-55H205l-61-293q-2-12-3.5-22.5T139 110q0-29 17-42t59-13h47L250 0h-38q-63 0-97.5 23.5T80 98q0 12 2 25t5 29l61 293H66v55zm301 210h58l-77-167h-41z"/><glyph glyph-name="Utilde" unicode="Ũ" horiz-adv-x="728" d="M639 267Q611 135 535 63.5T326-8q-54 0-97.5 14T154 46t-48 64.5T89 198q0 31 8 69l94 443h62l-95-445q-7-31-7-59 0-78 48-116.5T328 51q96 0 161 53.5T577 266l94 444h62l-94-443zM314 791q4 25 15 44t26 31 32 18 34 6q19 0 38-7.5t36.5-16 33-16T556 843q43 0 57 47h52q-2-24-12-42t-25-31-33-19.5-36-6.5q-19 0-38.5 7.5t-37.5 16-34 16-28 7.5q-21 0-34-12t-21-35h-52z"/><glyph glyph-name="utilde" unicode="ũ" horiz-adv-x="578" d="M398 51q-33-29-76-44T233-8q-79 0-126 43T60 155q0 14 2 28t5 30l61 287h57l-60-285q-6-27-6-50 0-58 34-88.5T250 46q48 0 90 21.5t72 57.5l80 375h57L443 0h-55zM189 572q4 25 15 44t26 31 32 18 34 6q19 0 38-7.5t36.5-16 33-16T431 624q43 0 57 47h52q-2-24-12-42t-25-31-33-19.5-36-6.5q-19 0-38.5 7.5t-37.5 16-34 16-28 7.5q-21 0-34-12t-21-35h-52z"/><glyph glyph-name="Umacron" unicode="Ū" horiz-adv-x="728" d="M639 267Q611 135 535 63.5T326-8q-54 0-97.5 14T154 46t-48 64.5T89 198q0 31 8 69l94 443h62l-95-445q-7-31-7-59 0-78 48-116.5T328 51q96 0 161 53.5T577 266l94 444h62l-94-443zM355 859h278l-11-50H344z"/><glyph glyph-name="umacron" unicode="ū" horiz-adv-x="578" d="M398 51q-33-29-76-44T233-8q-79 0-126 43T60 155q0 14 2 28t5 30l61 287h57l-60-285q-6-27-6-50 0-58 34-88.5T250 46q48 0 90 21.5t72 57.5l80 375h57L443 0h-55zM239 680h278l-11-51H228z"/><glyph glyph-name="Ubreve" unicode="Ŭ" horiz-adv-x="728" d="M639 267Q611 135 535 63.5T326-8q-54 0-97.5 14T154 46t-48 64.5T89 198q0 31 8 69l94 443h62l-95-445q-7-31-7-59 0-78 48-116.5T328 51q96 0 161 53.5T577 266l94 444h62l-94-443zM382 900q8-36 35.5-56t59.5-20q42 0 70 21t41 55h47q-14-52-56.5-85.5T475 781q-30 0-54.5 9.5T378 816t-28.5 38-13.5 46h46z"/><glyph glyph-name="ubreve" unicode="ŭ" horiz-adv-x="578" d="M398 51q-33-29-76-44T233-8q-79 0-126 43T60 155q0 14 2 28t5 30l61 287h57l-60-285q-6-27-6-50 0-58 34-88.5T250 46q48 0 90 21.5t72 57.5l80 375h57L443 0h-55zM265 710q8-36 35.5-56t59.5-20q42 0 70 21t41 55h47q-14-52-56.5-85.5T358 591q-30 0-54.5 9.5T261 626t-28.5 38-13.5 46h46z"/><glyph glyph-name="Uring" unicode="Ů" horiz-adv-x="728" d="M488 751q-37 0-63 24t-26 61q0 38 26.5 61.5T488 921q38 0 64.5-23.5T579 836q0-37-26.5-61T488 751zm0 37q21 0 35.5 13t14.5 35-14.5 35.5T488 885q-20 0-34.5-13.5T439 836t14.5-35 34.5-13zm151-521Q611 135 535 63.5T326-8q-54 0-97.5 14T154 46t-48 64.5T89 198q0 31 8 69l94 443h62l-95-445q-7-31-7-59 0-78 48-116.5T328 51q96 0 161 53.5T577 266l94 444h62l-94-443z"/><glyph glyph-name="uring" unicode="ů" horiz-adv-x="578" d="M320 664q0-23 16-38.5t38-15.5 37.5 15.5T427 664q0 22-15.5 38T374 718t-38-16-16-38zm146 0q0-38-27-64.5T374 573q-19 0-36 7t-29.5 19.5-19.5 29-7 35.5 7 35.5 19.5 29T338 748t36 7q38 0 65-26.5t27-64.5zM398 51q-33-29-76-44T233-8q-79 0-126 43T60 155q0 14 2 28t5 30l61 287h57l-60-285q-6-27-6-50 0-58 34-88.5T250 46q48 0 90 21.5t72 57.5l80 375h57L443 0h-55z"/><glyph glyph-name="Uhungarumlaut" unicode="Ű" horiz-adv-x="728" d="M456 913h83L395 768h-53zm201 0h83L596 768h-53zm-18-646Q611 135 535 63.5T326-8q-54 0-97.5 14T154 46t-48 64.5T89 198q0 31 8 69l94 443h62l-95-445q-7-31-7-59 0-78 48-116.5T328 51q96 0 161 53.5T577 266l94 444h62l-94-443z"/><glyph glyph-name="uhungarumlaut" unicode="ű" horiz-adv-x="578" d="M398 51q-33-29-76-44T233-8q-79 0-126 43T60 155q0 14 2 28t5 30l61 287h57l-60-285q-6-27-6-50 0-58 34-88.5T250 46q48 0 90 21.5t72 57.5l80 375h57L443 0h-55zm113 659h81L439 545h-54zm-160 0h81L279 545h-54z"/><glyph glyph-name="Uogonek" unicode="Ų" horiz-adv-x="728" d="M315-189q-36 0-62.5 22T226-112q0 37 28.5 63T321-8q-53 1-95.5 15t-73 40-47 64T89 198q0 31 8 69l94 443h62l-95-445q-7-31-7-59 0-78 48-116.5T328 51q96 0 161 53.5T577 266l94 444h62l-94-443q-23-112-80-179.5T406 0h1q-57-23-84-50.5T296-101q0-15 11-26t37-11q10 0 18.5 1t16.5 3l-11-49q-13-4-26-5t-27-1z"/><glyph glyph-name="uogonek" unicode="ų" horiz-adv-x="578" d="M398 51q-33-29-76-44T233-8q-79 0-126 43T60 155q0 14 2 28t5 30l61 287h57l-60-285q-6-27-6-50 0-58 34-88.5T250 46q48 0 90 21.5t72 57.5l80 375h57L443 0q-55-24-79.5-46.5T339-92q0-31 49-31 15 0 29 3l-10-49q-11-3-23-4t-24-1q-36 0-63 20t-27 53q0 20 10 36t26.5 28T344-15.5 388 0z"/><glyph glyph-name="Wcircumflex" unicode="Ŵ" horiz-adv-x="881" d="M372 820l204 108 147-112-33-43-120 92-173-92zM108 710h62l62-541 307 549 70-564 293 556h64L579-8l-70 563L195-8z"/><glyph glyph-name="wcircumflex" unicode="ŵ" horiz-adv-x="724" d="M259 608l195 110 136-117-33-38-109 94-164-94zM64 500h58l50-394 244 402 67-404 222 396h62L487 0h-34l-62 375L165 0h-36z"/><glyph glyph-name="Ycircumflex" unicode="Ŷ" horiz-adv-x="604" d="M282 301L109 710h66l145-349 293 349h78L344 301 280 0h-62zm-53 519l204 108 147-112-33-43-120 92-173-92z"/><glyph glyph-name="ycircumflex" unicode="ŷ" horiz-adv-x="513" d="M176 21L60 500h59l99-417 279 417h66L103-184H38zm-25 587l195 110 136-117-33-38-109 94-164-94z"/><glyph glyph-name="Ydieresis" unicode="Ÿ" horiz-adv-x="604" d="M282 301L109 710h66l145-349 293 349h78L344 301 280 0h-62zm30 490q-22 0-37 15t-15 37 15 37 37 15 37-15 15-37-15-37-37-15zm220 0q-22 0-37 15t-15 37 15 37 37 15 37-15 15-37-15-37-37-15z"/><glyph glyph-name="Zacute" unicode="Ź" horiz-adv-x="576" d="M517 651H138l13 59h488L79 59h433L499 0H-43zm-62 262h83L394 768h-54z"/><glyph glyph-name="zacute" unicode="ź" horiz-adv-x="487" d="M375 710h81L303 545h-54zm16-265H92l11 55h411L86 55h323L397 0H-37z"/><glyph glyph-name="Zdotaccent" unicode="Ż" horiz-adv-x="576" d="M371 843q0 22 15 37t37 15 37-15 15-37-15-37-37-15-37 15-15 37zm146-192H138l13 59h488L79 59h433L499 0H-43z"/><glyph glyph-name="zdotaccent" unicode="ż" horiz-adv-x="487" d="M391 445H92l11 55h411L86 55h323L397 0H-37zM285 632q0 22 15 37t37 15 37-15 15-37-15-37-37-15-37 15-15 37z"/><glyph glyph-name="Zcaron" unicode="Ž" horiz-adv-x="576" d="M517 651H138l13 59h488L79 59h433L499 0H-43zm94 228L407 771 260 883l33 43 120-92 173 92z"/><glyph glyph-name="zcaron" unicode="ž" horiz-adv-x="487" d="M521 695L326 585 190 702l33 38 109-94 164 94zM391 445H92l11 55h411L86 55h323L397 0H-37z"/><glyph glyph-name="uni0218" unicode="Ș" horiz-adv-x="526" d="M200-50h81L128-215H74zm271 229q0-38-15-71.5T412 48 340.5 7 243-8q-41 0-77.5 10.5t-66 29-51.5 43T13 128l56 34q10-22 26.5-42t39-35.5 51-24.5 62.5-9q76 0 117 35.5t41 87.5q0 50-26.5 83.5T304 324l-72 49q-53 38-80 79t-27 98q0 39 15 70t42 53 64.5 33.5T329 718q57 0 109.5-24.5T528 612l-56-36q-27 45-65 64t-84 19q-58 0-96.5-28T188 551q0-44 21.5-73t63.5-58l73-50q56-38 90.5-82.5T471 179z"/><glyph glyph-name="uni0219" unicode="ș" horiz-adv-x="413" d="M141-50h81L69-215H15zm210 179q0-30-12.5-55T304 31 252 2.5 187-8Q112-8 68.5 25T8 109l50 23q14-42 47.5-65T190 44q44 0 73.5 21.5T293 122q0 34-20.5 56.5T217 221l-46 27q-39 23-65 55.5T80 379q0 57 42 93t110 36q54 0 93-25.5t56-66.5l-52-24q-11 26-35.5 45T230 456q-42 0-67.5-20T137 383q0-30 17.5-51t48.5-40l46-27q20-12 38.5-25.5T320 209t22.5-36.5T351 129z"/><glyph glyph-name="uni021A" unicode="Ț" horiz-adv-x="498" d="M141-50h81L69-215H15zm160 701H97l13 59h472l-13-59H363L225 0h-62z"/><glyph glyph-name="uni021B" unicode="ț" horiz-adv-x="326" d="M130-50h81L58-215H4zM66 500h93l25 118 64 29-31-147h135l-11-55H205l-61-293q-2-12-3.5-22.5T139 110q0-29 17-42t59-13h47L250 0h-38q-63 0-97.5 23.5T80 98q0 12 2 25t5 29l61 293H66v55z"/><glyph glyph-name="uni0232" unicode="Ȳ" horiz-adv-x="604" d="M282 301L109 710h66l145-349 293 349h78L344 301 280 0h-62zm5 558h278l-11-50H276z"/><glyph glyph-name="uni0233" unicode="ȳ" horiz-adv-x="513" d="M176 21L60 500h59l99-417 279 417h66L103-184H38zm31 659h278l-11-51H196z"/><glyph glyph-name="uni0237" unicode="ȷ" horiz-adv-x="230" d="M-102-129h21q30 0 49 6t31 18.5T18.5-72 32-24l111 524h58L87-35q-8-40-21-68.5T32.5-150-17-176t-70-8h-27z"/><glyph glyph-name="circumflex" unicode="ˆ" horiz-adv-x="372" d="M149 608l195 110 136-117-33-38-109 94-164-94z"/><glyph glyph-name="caron" unicode="ˇ" horiz-adv-x="372" d="M500 695L305 585 169 702l33 38 109-94 164 94z"/><glyph glyph-name="breve" unicode="˘" horiz-adv-x="339" d="M217 710q8-36 35.5-56t59.5-20q42 0 70 21t41 55h47q-14-52-56.5-85.5T310 591q-30 0-54.5 9.5T213 626t-28.5 38-13.5 46h46z"/><glyph glyph-name="dotaccent" unicode="˙" horiz-adv-x="136" d="M151 632q0 22 15 37t37 15 37-15 15-37-15-37-37-15-37 15-15 37z"/><glyph glyph-name="ring" unicode="˚" horiz-adv-x="228" d="M201 664q0-23 16-38.5t38-15.5 37.5 15.5T308 664q0 22-15.5 38T255 718t-38-16-16-38zm146 0q0-38-27-64.5T255 573q-19 0-36 7t-29.5 19.5-19.5 29-7 35.5 7 35.5 19.5 29T219 748t36 7q38 0 65-26.5t27-64.5z"/><glyph glyph-name="ogonek" unicode="˛" horiz-adv-x="236" d="M107-174q-36 0-63 20t-27 53q0 20 10 36t26.5 28 37 21.5T133 0h57q-55-24-79.5-46.5T86-92q0-31 49-31 15 0 29 3l-10-49q-11-3-23-4t-24-1z"/><glyph glyph-name="tilde" unicode="˜" horiz-adv-x="411" d="M162 572q4 25 15 44t26 31 32 18 34 6q19 0 38-7.5t36.5-16 33-16T404 624q43 0 57 47h52q-2-24-12-42t-25-31-33-19.5-36-6.5q-19 0-38.5 7.5t-37.5 16-34 16-28 7.5q-21 0-34-12t-21-35h-52z"/><glyph glyph-name="hungarumlaut" unicode="˝" horiz-adv-x="392" d="M432 710h81L360 545h-54zm-160 0h81L200 545h-54z"/><glyph glyph-name="Wgrave" unicode="Ẁ" horiz-adv-x="881" d="M441 913h73l59-145h-49zM108 710h62l62-541 307 549 70-564 293 556h64L579-8l-70 563L195-8z"/><glyph glyph-name="wgrave" unicode="ẁ" horiz-adv-x="724" d="M64 500h58l50-394 244 402 67-404 222 396h62L487 0h-34l-62 375L165 0h-36zm246 210h81l54-165h-43z"/><glyph glyph-name="Wacute" unicode="Ẃ" horiz-adv-x="881" d="M637 913h83L576 768h-54zM108 710h62l62-541 307 549 70-564 293 556h64L579-8l-70 563L195-8z"/><glyph glyph-name="wacute" unicode="ẃ" horiz-adv-x="724" d="M524 710h81L452 545h-54zM64 500h58l50-394 244 402 67-404 222 396h62L487 0h-34l-62 375L165 0h-36z"/><glyph glyph-name="Wdieresis" unicode="Ẅ" horiz-adv-x="881" d="M108 710h62l62-541 307 549 70-564 293 556h64L579-8l-70 563L195-8zm347 81q-22 0-37 15t-15 37 15 37 37 15 37-15 15-37-15-37-37-15zm220 0q-22 0-37 15t-15 37 15 37 37 15 37-15 15-37-15-37-37-15z"/><glyph glyph-name="wdieresis" unicode="ẅ" horiz-adv-x="724" d="M281 632q0 22 15 37t37 15 37-15 15-37-15-37-37-15-37 15-15 37zm272-52q-22 0-37 15t-15 37 15 37 37 15 37-15 15-37-15-37-37-15zM64 500h58l50-394 244 402 67-404 222 396h62L487 0h-34l-62 375L165 0h-36z"/><glyph glyph-name="uni1ECA" unicode="Ị" horiz-adv-x="268" d="M201 710h62L112 0H50zM2-132q0 22 15 37t37 15 37-15 15-37-15-37-37-15-37 15-15 37z"/><glyph glyph-name="uni1ECB" unicode="ị" horiz-adv-x="221" d="M146 662q0 23 17.5 39.5T204 718q20 0 32-13t12-30q0-15-8-27.5T218 627h-56q-7 5-11.5 14.5T146 662zm-11-162h57L86 0H29zM-20-132q0 22 15 37t37 15 37-15 15-37-15-37-37-15-37 15-15 37z"/><glyph glyph-name="uni1ECC" unicode="Ọ" horiz-adv-x="840" d="M287-132q0 22 15 37t37 15 37-15 15-37-15-37-37-15-37 15-15 37zM137 330q0-56 17.5-106.5t52-88.5 85-61T408 51q77 0 139.5 27t107 72.5 68.5 105T747 380q0 55-17.5 106T678 575t-85 61-117 23q-77 0-139.5-27T230 559.5t-68.5-105T137 330zm675 55q0-75-27.5-146t-80-126T576 25 404-8q-80 0-141.5 27.5T159 93.5 95 200 73 325q0 75 27.5 146t80 126 128 88T481 718q79 0 141-27.5t104-74T790 510t22-125z"/><glyph glyph-name="uni1ECD" unicode="ọ" horiz-adv-x="614" d="M142-132q0 22 15 37t37 15 37-15 15-37-15-37-37-15-37 15-15 37zm-37 363q0-44 15-78t40.5-58 59-36.5T289 46q46 0 86 17t70 46.5 47 70.5 17 89q0 43-15 77.5T453.5 405t-59 36.5T325 454q-47 0-87-17t-69.5-46.5T122 320t-17-89zm463 42q0-59-21.5-110T487 74t-90-60T285-8q-57 0-101.5 19.5t-75 52-46.5 75T46 227q0 58 21.5 109.5T127 426t90 60 112 22q57 0 101.5-19.5t75-52 46.5-75 16-88.5z"/><glyph glyph-name="uni1EE4" unicode="Ụ" horiz-adv-x="728" d="M232-132q0 22 15 37t37 15 37-15 15-37-15-37-37-15-37 15-15 37zm407 399Q611 135 535 63.5T326-8q-54 0-97.5 14T154 46t-48 64.5T89 198q0 31 8 69l94 443h62l-95-445q-7-31-7-59 0-78 48-116.5T328 51q96 0 161 53.5T577 266l94 444h62l-94-443z"/><glyph glyph-name="uni1EE5" unicode="ụ" horiz-adv-x="578" d="M152-132q0 22 15 37t37 15 37-15 15-37-15-37-37-15-37 15-15 37zM398 51q-33-29-76-44T233-8q-79 0-126 43T60 155q0 14 2 28t5 30l61 287h57l-60-285q-6-27-6-50 0-58 34-88.5T250 46q48 0 90 21.5t72 57.5l80 375h57L443 0h-55z"/><glyph glyph-name="Ygrave" unicode="Ỳ" horiz-adv-x="604" d="M282 301L109 710h66l145-349 293 349h78L344 301 280 0h-62zm36 612h73l59-145h-49z"/><glyph glyph-name="ygrave" unicode="ỳ" horiz-adv-x="513" d="M176 21L60 500h59l99-417 279 417h66L103-184H38zm50 689h81l54-165h-43z"/><glyph glyph-name="endash" unicode="–" horiz-adv-x="549" d="M79 298h412l-12-55H67z"/><glyph glyph-name="emdash" unicode="—" horiz-adv-x="845" d="M79 298h708l-12-55H67z"/><glyph glyph-name="quoteleft" unicode="‘" horiz-adv-x="229" d="M185 572h42l-22-103h-96l22 104 84 137h44z"/><glyph glyph-name="quoteright" unicode="’" horiz-adv-x="221" d="M186 607h-42l22 103h96l-22-104-84-137h-44z"/><glyph glyph-name="quotesinglbase" unicode="‚" horiz-adv-x="242" d="M70 0H28l22 103h96L124-1 40-138H-4z"/><glyph glyph-name="quotedblleft" unicode="“" horiz-adv-x="423" d="M185 572h42l-22-103h-96l22 104 84 137h44zm194 0h42l-22-103h-96l22 104 84 137h44z"/><glyph glyph-name="quotedblright" unicode="”" horiz-adv-x="415" d="M186 607h-42l22 103h96l-22-104-84-137h-44zm194 0h-42l22 103h96l-22-104-84-137h-44z"/><glyph glyph-name="quotedblbase" unicode="„" horiz-adv-x="436" d="M70 0H28l22 103h96L124-1 40-138H-4zm194 0h-42l22 103h96L318-1l-84-137h-44z"/><glyph glyph-name="bullet" unicode="•" horiz-adv-x="431" d="M225 166q-28 0-53 10.5t-43.5 29-29 43.5T89 302t10.5 53 29 43.5 43.5 29 53 10.5 53-10.5 43.5-29 29-43.5 10.5-53-10.5-53-29-43.5-43.5-29-53-10.5z"/><glyph glyph-name="ellipsis" unicode="…" horiz-adv-x="641" d="M88 113q25 0 42-18t17-43q0-23-17-41T88-7 46 11 29 52q0 25 17 43t42 18zm202 0q25 0 42-18t17-43q0-23-17-41T290-7t-42 18-17 41q0 25 17 43t42 18zm202 0q25 0 42-18t17-43q0-23-17-41T492-7t-42 18-17 41q0 25 17 43t42 18z"/><glyph glyph-name="guilsinglleft" unicode="‹" horiz-adv-x="300" d="M49 250l192 213 39-37-164-182 86-182-52-25z"/><glyph glyph-name="guilsinglright" unicode="›" horiz-adv-x="299" d="M251 250L59 37 20 74l164 182-86 182 52 25z"/><glyph glyph-name="Euro" unicode="€" horiz-adv-x="737" d="M104 460h118q19 54 54.5 101t84 82T471 698t135 20q55 0 100.5-14.5T787 663l-32-48q-29 23-68 36.5T601 665q-60 0-111-15.5T398 607t-71-64.5-48-82.5h373l-30-45H265q-10-40-10-85v-15.5l1-15.5h289l-30-45H263q10-45 32.5-83t56-66 79-44T533 45q30 0 57 5t51 13L626 4Q582-8 530-8q-69 0-124.5 20.5T309 69t-67.5 83.5T205 254H40l30 45h129q-1 6-1 12.5V325q0 47 10 90H74z"/><glyph glyph-name="minus" unicode="−" horiz-adv-x="589" d="M79 298h440v-55H79v55z"/><glyph glyph-name="uniFB01" unicode="ﬁ" horiz-adv-x="573" d="M69 500h101q-32 31-32 84 0 28 12 51t34 39.5 53 26 68 9.5h103l-12-54h-89q-106 0-112-83-2-29 17-50t54-23h98l-11-55H218L124 0H66l94 445H58zm429 162q0 23 17.5 39.5T556 718q20 0 32-13t12-30q0-15-8-27.5T570 627h-56q-7 5-11.5 14.5T498 662zm-11-162h57L438 0h-57z"/><glyph glyph-name="uniFB02" unicode="ﬂ" horiz-adv-x="573" d="M69 500h101q-32 31-32 84 0 28 12 51t34 39.5 53 26 68 9.5h103l-12-54h-89q-106 0-112-83-2-29 17-50t54-23h98l-11-55H218L124 0H66l94 445H58zm463 210h57L438 0h-57z"/><glyph glyph-name="glyph332" horiz-adv-x="136" d="M-12-132q0 22 15 37t37 15 37-15 15-37-15-37-37-15-37 15-15 37z"/><glyph glyph-name="glyph334" horiz-adv-x="245" d="M120-50h81L48-215H-6z"/><glyph glyph-name="glyph338" horiz-adv-x="500" d="M391 710h58l-77-167h-41z"/><glyph glyph-name="glyph339" horiz-adv-x="217" d="M303 913h83L242 768h-54z"/><glyph glyph-name="glyph340" horiz-adv-x="339" d="M257 900q8-36 35.5-56t59.5-20q42 0 70 21t41 55h47q-14-52-56.5-85.5T350 781q-30 0-54.5 9.5T253 816t-28.5 38-13.5 46h46z"/><glyph glyph-name="glyph341" horiz-adv-x="392" d="M559 879L355 771 208 883l33 43 120-92 173 92z"/><glyph glyph-name="glyph342" horiz-adv-x="392" d="M194 820l204 108 147-112-33-43-120 92-173-92z"/><glyph glyph-name="glyph343" horiz-adv-x="362" d="M250 791q-22 0-37 15t-15 37 15 37 37 15 37-15 15-37-15-37-37-15zm220 0q-22 0-37 15t-15 37 15 37 37 15 37-15 15-37-15-37-37-15z"/><glyph glyph-name="glyph344" horiz-adv-x="136" d="M195 843q0 22 15 37t37 15 37-15 15-37-15-37-37-15-37 15-15 37z"/><glyph glyph-name="glyph345" horiz-adv-x="213" d="M219 913h73l59-145h-49z"/><glyph glyph-name="glyph346" horiz-adv-x="417" d="M302 913h83L241 768h-53zm201 0h83L442 768h-53z"/><glyph glyph-name="glyph347" horiz-adv-x="318" d="M203 859h278l-11-50H192z"/><glyph glyph-name="glyph348" horiz-adv-x="246" d="M300 751q-37 0-63 24t-26 61q0 38 26.5 61.5T300 921q38 0 64.5-23.5T391 836q0-37-26.5-61T300 751zm0 37q21 0 35.5 13t14.5 35-14.5 35.5T300 885q-20 0-34.5-13.5T251 836t14.5-35 34.5-13z"/><glyph glyph-name="glyph349" horiz-adv-x="411" d="M208 791q4 25 15 44t26 31 32 18 34 6q19 0 38-7.5t36.5-16 33-16T450 843q43 0 57 47h52q-2-24-12-42t-25-31-33-19.5-36-6.5q-19 0-38.5 7.5t-37.5 16-34 16-28 7.5q-21 0-34-12t-21-35h-52z"/></font>
</defs>
</svg>
