<svg xmlns="http://www.w3.org/2000/svg" version="1.1"><defs><font id="Font" horiz-adv-x="571"><font-face font-family="Font" font-weight="300" font-stretch="normal" units-per-em="1000" panose-1="2 11 3 0 3 0 0 0 0 0" ascent="800" descent="-200" x-height="500" cap-height="710" bbox="-56 -215 1050 928" underline-thickness="55" underline-position="-215" unicode-range="U+000D-FB02"/><glyph glyph-name=".notdef" horiz-adv-x="500"/><glyph glyph-name="glyph1" horiz-adv-x="0"/><glyph glyph-name="uni000D" horiz-adv-x="248"/><glyph glyph-name="space" horiz-adv-x="248"/><glyph glyph-name="exclam" unicode="!" horiz-adv-x="250" d="M97 415v295h57V415l-11-211h-36zM124-7q-23 0-40 19.5T67 56q0 17 8 30t22 20h56q13-8 21-24t8-32q0-24-17.5-40.5T124-7z"/><glyph glyph-name="quotedbl" unicode="&quot;" horiz-adv-x="401" d="M71 710h57V485H71v225zm202 0h57V485h-57v225z"/><glyph glyph-name="numbersign" unicode="#" horiz-adv-x="743" d="M425 209H223L158 0h-58l65 209H35v55h147l61 193H108v55h152l62 198h58l-62-198h202l62 198h57l-62-198h131v-55H560l-61-193h137v-55H482L417 0h-57zm-185 55h202l61 193H301z"/><glyph glyph-name="dollar" unicode="$" horiz-adv-x="520" d="M236-7q-68 5-120.5 34.5T35 91l44 37q26-32 72-57.5T255 45q77 0 122 36t45 92q0 29-10 51t-28 39.5-42.5 32T287 325l-75 37q-40 20-68.5 40t-47 42.5-27 48.5-8.5 58q0 34 14.5 63t38.5 50.5 55.5 34.5 66.5 17v82h52v-81q55-5 99-29.5t74-59.5l-42-37q-28 34-66 54t-93 20q-30 0-56-8.5t-45.5-24T128 596t-11-46q0-47 28.5-77t87.5-59l75-38q35-18 66-36t54.5-40.5 37.5-51 14-66.5-13-70.5T429.5 54t-60-40.5T288-6v-82h-52v81z"/><glyph glyph-name="percent" unicode="%" horiz-adv-x="1023" d="M232 367q31 0 58.5 12t47.5 32.5 32 47.5 12 58-12 58-32 47.5-47.5 32.5-58.5 12-58-12-47.5-32.5-32-47.5T83 517t11.5-58 32-47.5T174 379t58-12zm0-47q-41 0-77 15.5T92.5 378t-42 62.5T35 517q0 40 15.5 76t42 63 62.5 42.5 77 15.5q40 0 76-15.5t63-42.5 42.5-63 15.5-76q0-41-15.5-76.5T371 378t-63-42.5-76-15.5zm506 390h58L286 0h-58zm53-667q31 0 58.5 12T897 87.5t32 47.5 12 58-12 58-32 47.5-47.5 32.5-58.5 12-58-12-47.5-32.5-32-47.5-11.5-58 11.5-58 32-47.5T733 55t58-12zm0-47q-41 0-77 15.5T651.5 54t-42 62.5T594 193q0 40 15.5 76t42 63 62.5 42.5 77 15.5q40 0 76-15.5t63-42.5 42.5-63 15.5-76q0-41-15.5-76.5T930 54t-63-42.5T791-4z"/><glyph glyph-name="ampersand" unicode="&amp;" horiz-adv-x="725" d="M273-8q-45 0-82 14.5t-63 40-40.5 60T73 181q0 43 14 74.5t36.5 55 49 41T225 385l19 11q-35 37-60 76.5T159 563q0 33 13 61.5t36 49 53 32.5 65 12q36 0 66-12t51-32.5 33-47.5 12-58q0-32-14-57.5T438.5 464t-48-38-50.5-31l-13-7 170-177 108 141 41-36-111-145L700 0h-75L501 128Q447 62 394 27T273-8zm1 52q53 0 97.5 32t91.5 92L280 359l-21-13q-23-14-46-29t-41-34-29.5-43-11.5-57q0-29 10.5-54T171 85t45.5-30T274 44zm-59 518q0-38 20.5-69t57.5-70l16 10q24 13 46 27.5t39 30.5 27.5 34.5T432 565t-7.5 39.5-21 32.5-33.5 22.5-44 8.5q-23 0-43-8t-35-22-24-33.5-9-42.5z"/><glyph glyph-name="quotesingle" unicode="'" horiz-adv-x="199" d="M71 710h57V485H71v225z"/><glyph glyph-name="parenleft" unicode="(" horiz-adv-x="250" d="M162-136q-27 56-47 106T81.5 71 61 177.5 54 300t7 122.5T81.5 529 115 630t47 106l50-21q-27-54-46-104t-31.5-100T116 409t-6-109 6-109 18.5-102T166-11t46-104l-50-21z"/><glyph glyph-name="parenright" unicode=")" horiz-adv-x="250" d="M88-136l-50 21Q65-61 84-11t31.5 100T134 191t6 109-6 109-18.5 102T84 611 38 715l50 21q27-56 47-106t33.5-101T189 422.5t7-122.5-7-122.5T168.5 71 135-30 88-136z"/><glyph glyph-name="asterisk" unicode="*" horiz-adv-x="416" d="M93 441l73 101-119 40 14 49 121-40v119h50V591l122 39 16-48-121-39 74-102-40-29-76 101-73-101z"/><glyph glyph-name="plus" unicode="+" horiz-adv-x="590" d="M75 298h191v183h58V298h191v-55H324V54h-58v189H75v55z"/><glyph glyph-name="comma" unicode="," horiz-adv-x="244" d="M116 0H74v103h96V-1l-54-137H72z"/><glyph glyph-name="hyphen" unicode="-" horiz-adv-x="367" d="M70 303h227v-65H70v65z"/><glyph glyph-name="period" unicode="." horiz-adv-x="234" d="M117-8Q92-8 75 10T58 51q0 25 17 43t42 18 42-18 17-43q0-23-17-41T117-8z"/><glyph glyph-name="slash" unicode="/" horiz-adv-x="463" d="M378 710h57L86 0H29z"/><glyph glyph-name="zero" unicode="0" horiz-adv-x="590" d="M466 355q0 151-46.5 229T295 662t-124.5-78T124 355t46.5-229T295 48t124.5 78T466 355zM295-8Q188-8 126 85.5T64 355t62 269.5T295 718t169-93.5T526 355 464 85.5 295-8z"/><glyph glyph-name="one" unicode="1" horiz-adv-x="590" d="M356 622L96 501v61l317 148V0h-57v622z"/><glyph glyph-name="two" unicode="2" horiz-adv-x="590" d="M367 354q41 45 61.5 84.5T449 516q0 33-12 60t-32 46.5-47.5 30.5-58.5 11-58.5-11-47.5-30.5-32-46.5-12-60v-3H91q0 45 16.5 83t44.5 65 66 42 81 15 81-15 66.5-42 44.5-64 16-82q0-58-31.5-109T389 294L168 54h349V0H49z"/><glyph glyph-name="three" unicode="3" horiz-adv-x="590" d="M270-8q-63 0-117 32t-83 83l49 31q9-19 24.5-36t35-29.5 43-20T271 45q37 0 68.5 13t55 36 37 55 13.5 70q0 40-13 73t-36.5 57-56.5 37.5-73 13.5h-59l159 255H98v55h362q-37-61-70-113-14-22-28-44.5T336 510t-22-35.5-15-23.5q49-6 87-27t64-52.5 40-71 14-81.5q0-45-17-86t-48-72.5-74-50T270-8z"/><glyph glyph-name="four" unicode="4" horiz-adv-x="590" d="M385 191H2l440 527V243h134v-52H442V0h-57v191zm0 379L116 243h269v327z"/><glyph glyph-name="five" unicode="5" horiz-adv-x="590" d="M281-8q-63 0-117 32t-83 83l49 31q19-38 60-65.5T282 45q37 0 68.5 13t55 36 37 55 13.5 71-13 72-36.5 57-56.5 37.5-73 13.5q-42 0-71.5-18T158 347l-43 19v344h345v-55H172V424q21 12 48 20.5t57 8.5q56 0 100.5-19t75-51.5 47-74.5 16.5-88q0-45-17-86.5t-48-73-74.5-50T281-8z"/><glyph glyph-name="six" unicode="6" horiz-adv-x="590" d="M300-8q-48 0-90 18t-73 49.5-49 73T70 222q0 35 11 67.5t28 61.5l220 359h64L226 440q17 6 35.5 9.5T300 453q48 0 90-18t73.5-49.5T513 312t18-90-18-89.5-49.5-73T390 10 300-8zm0 53q37 0 68.5 14T423 97t36 56 13 69-13 69.5-36 56.5-54.5 38-68.5 14-68.5-14-54-38-35.5-56.5-13-69.5 13-69 35.5-56 54-38T300 45z"/><glyph glyph-name="seven" unicode="7" horiz-adv-x="590" d="M449 655H82v55h454L187 0h-60z"/><glyph glyph-name="eight" unicode="8" horiz-adv-x="590" d="M295-8q-48 0-90 18t-73 49.5-49 73T65 222q0 70 37 126t97 83q-29 22-46 54.5T136 559q0 34 12.5 63t34 50.5T233 706t62 12 62-12 51-33.5 34.5-50.5 12.5-63q0-41-17.5-73.5T391 431q60-27 97.5-83T526 222q0-48-18-89.5t-49.5-73T385 10 295-8zm0 53q37 0 68.5 14T418 97t36 56 13 69-13 69.5-36 57-54.5 38.5-68.5 14-68.5-14-54-38.5-35.5-57-13-69.5 13-69 35.5-56 54-38T295 45zm-5 407h9q45 2 71 32.5t26 74.5q0 45-27 75.5T295 665t-73.5-30.5T195 559q0-44 25-74.5t70-32.5z"/><glyph glyph-name="nine" unicode="9" horiz-adv-x="590" d="M364 270q-17-6-35.5-9.5T290 257q-48 0-90 18t-73.5 49.5T77 398t-18 90 18 89.5 49.5 73T200 700t90 18 89.5-18 73-49.5 49.5-73 18-89.5q0-35-11-67.5T481 359L260 0h-63zm-74 40q37 0 68.5 14t54 38 35.5 56.5 13 69.5-13 69-35.5 56-54 38-68.5 14-68.5-14-54.5-38-36-56-13-69 13-69.5 36-56.5 54.5-38 68.5-14z"/><glyph glyph-name="colon" unicode=":" horiz-adv-x="256" d="M128 388q-25 0-42 18t-17 41q0 25 17 43t42 18 42-18 17-43q0-23-17-41t-42-18zm0-396q-25 0-42 18T69 51q0 25 17 43t42 18 42-18 17-43q0-23-17-41T128-8z"/><glyph glyph-name="semicolon" unicode=";" horiz-adv-x="260" d="M124 0H82v103h96V-1l-54-137H80zm6 388q-25 0-42 18t-17 41q0 25 17 43t42 18 42-18 17-43q0-23-17-41t-42-18z"/><glyph glyph-name="equal" unicode="=" horiz-adv-x="590" d="M71 187h449v-54H71v54zm0 221h449v-54H71v54z"/><glyph glyph-name="question" unicode="?" horiz-adv-x="539" d="M227 328h30q38 0 69.5 13t54 36 35 54 12.5 66q0 34-12.5 64.5t-34.5 53-52.5 36T261 664t-68-13.5-53.5-36.5-35-53.5T92 495v-3H34q0 47 17 88t47 72 71 48.5 90 17.5 90.5-17.5 72-48T469 581t17-87-16.5-85-45-67.5-66-46T279 275v-61h-52v114zM253-8q-25 0-42 18t-17 41q0 17 9 31.5t23 22.5h54q14-8 23-22.5t9-31.5q0-23-17-41T253-8z"/><glyph glyph-name="at" unicode="@" horiz-adv-x="818" d="M380 164q-35 0-64.5 13T264 213.5t-34.5 55T217 337q0 45 17 85t46.5 69.5T350 538t87 17q33 0 61-11t48-28l7 30h54l-52-252q-3-17-3-31t5.5-25 17-17 31.5-6q24 0 46 12.5t38.5 36.5 26 60 9.5 84q0 58-21 106.5T646 597t-90.5 53T441 669q-67 0-128-23.5T206 579t-73-104.5T106 337q0-63 19.5-116.5t57-93 92-61.5T400 44q45 0 96 10t92 32l21-50Q562 15 505.5 3.5T400-8q-81 0-145.5 27t-110 73.5T75 202 51 337q0 85 32.5 155.5t87 120.5 125 77.5T442 718q71 0 132.5-22T682 633.5t72-98T780 406q0-65-17-111.5T719.5 219 661 176.5 599 163q-32 0-57 13.5T506 212q-23-22-56-35t-70-13zm11 51q26 0 53.5 10.5T492 262l42 194q-16 26-44 37t-57 11q-32 0-61.5-11.5T320 460t-35-51.5-13-68.5q0-59 31.5-92t87.5-33z"/><glyph glyph-name="A" unicode="A" horiz-adv-x="678" d="M339 718L682 0h-65L513 217H165L62 0H-3zM193 276h292L339 583z"/><glyph glyph-name="B" unicode="B" horiz-adv-x="626" d="M102 710h217q52 0 91.5-14.5T477 656t40.5-57 13.5-66q0-60-24-98t-62-58q27-8 51.5-23t42.5-37.5 28.5-53T578 195q0-49-19-85.5t-53.5-61-83-36.5T315 0H102v710zM342 57q88 0 131 39t43 102q0 31-10.5 57t-32 45-54 30-76.5 11H164V57h178zm-14 339q68 0 104.5 36.5T469 524q0 26-9.5 49.5t-27.5 41-44 28-60 10.5H164V396h164z"/><glyph glyph-name="C" unicode="C" horiz-adv-x="668" d="M413-8q-77 0-143 27.5T155 96 78 211.5 50 355t28 143.5 77 115T270 690t143 28q65 0 122-19.5T638 641l-34-50q-38 32-86 50t-105 18q-64 0-119-23.5t-95-64-62.5-96.5T114 355q0-65 22.5-120.5t62.5-96 95-64T413 51q57 0 105.5 18t86.5 50l33-50q-45-37-102.5-57T413-8z"/><glyph glyph-name="D" unicode="D" horiz-adv-x="734" d="M299 59q73 0 132 22t101 61.5 65 93.5 23 119q0 64-23 118.5t-65 94T431 629t-132 22H164V59h135zM102 710h197q85 0 155.5-26.5t121.5-74T655.5 497 684 355t-28.5-142.5T576 100 454.5 26.5 299 0H102v710z"/><glyph glyph-name="E" unicode="E" horiz-adv-x="549" d="M102 710h398v-59H164V396h276v-60H164V59h336V0H102v710z"/><glyph glyph-name="F" unicode="F" horiz-adv-x="506" d="M102 710h384v-59H164V396h252v-60H164V0h-62v710z"/><glyph glyph-name="G" unicode="G" horiz-adv-x="723" d="M413-8q-77 0-143 27.5T155 96 78 211.5 50 355t28 143.5 77 115T270 690t143 28q69 0 128-20t107-56l-35-50q-38 31-88 49t-112 18q-64 0-119-23.5t-95-64-62.5-96.5T114 355q0-65 22.5-120.5t62.5-96 95-64T413 51q48 0 96 11t86 32v242H389l27 60h241V61q-50-32-114.5-50.5T413-8z"/><glyph glyph-name="H" unicode="H" horiz-adv-x="765" d="M102 710h62V396h437v314h62V0h-62v336H164V0h-62v710z"/><glyph glyph-name="I" unicode="I" horiz-adv-x="266" d="M102 710h62V0h-62v710z"/><glyph glyph-name="J" unicode="J" horiz-adv-x="509" d="M218-8q-42 0-77.5 13.5T78.5 44 37 105t-15 82h62q0-35 10.5-60T123 85.5t42.5-25T217 51q60 0 97.5 33.5T352 187v523h62V177q0-46-15.5-80.5t-42-58-62-35T218-8z"/><glyph glyph-name="K" unicode="K" horiz-adv-x="618" d="M102 710h62V355l352 355h80L238 348 623 0h-87L164 338V0h-62v710z"/><glyph glyph-name="L" unicode="L" horiz-adv-x="506" d="M102 710h62V59h327V0H102v710z"/><glyph glyph-name="M" unicode="M" horiz-adv-x="888" d="M102 718l342-391 342 391V0h-62v560L444 238 164 560V0h-62v718z"/><glyph glyph-name="N" unicode="N" horiz-adv-x="795" d="M164 565V0h-62v718l529-573v565h62V-8z"/><glyph glyph-name="O" unicode="O" horiz-adv-x="826" d="M413 51q64 0 119 23.5t95 64 62.5 96T712 355q0 64-22.5 120T627 571.5t-95 64T413 659t-119-23.5-95-64-62.5-96.5T114 355q0-65 22.5-120.5t62.5-96 95-64T413 51zm0-59q-77 0-143 27.5T155 96 78 211.5 50 355t28 143.5 77 115T270 690t143 28q76 0 142.5-28T671 613.5t77-115T776 355t-28-143.5T671 96 555.5 19.5 413-8z"/><glyph glyph-name="P" unicode="P" horiz-adv-x="568" d="M102 710h186q116 0 181-53.5T534 503q0-97-65-152t-181-55H164V0h-62v710zm186-357q91 0 136 38.5T469 503t-45 112-136 39H164V353h124z"/><glyph glyph-name="Q" unicode="Q" horiz-adv-x="838" d="M650 77q-48-40-108-62.5T413-8q-77 0-143 27.5T155 96 78 211.5 50 355t28 143.5 77 115T270 690t143 28q76 0 142.5-28T671 613.5t77-115T776 355q0-69-22-128.5T692 119l86-85-42-42zM413 51q57 0 106.5 18.5T607 120l-88 89 42 42 87-88q30 39 47 87.5T712 355q0 64-22.5 120T627 571.5t-95 64T413 659t-119-23.5-95-64-62.5-96.5T114 355q0-65 22.5-120.5t62.5-96 95-64T413 51z"/><glyph glyph-name="R" unicode="R" horiz-adv-x="602" d="M256 321h-92V0h-62v710h188q110 0 170.5-51.5T521 515q0-82-50.5-133T328 322L597 0h-77zm32 57q85 0 126.5 35.5T456 515t-41.5 101.5T288 652H164V378h124z"/><glyph glyph-name="S" unicode="S" horiz-adv-x="527" d="M257-8q-37 0-70 8.5t-61.5 23-51 32T37 91l47 43q13-16 31-31t40-26.5T202.5 58t54.5-7q73 0 117.5 33t44.5 89q0 59-34.5 92T289 325l-75 32q-81 35-116 82T63 551q0 38 17 69t45.5 52.5 65 33.5 74.5 12q63 0 114-25.5t84-64.5l-46-43q-28 33-64 53.5T262 659q-28 0-53-7.5t-43.5-22T136 594t-11-47q0-45 24.5-76t85.5-57l75-32q36-15 67.5-34t54.5-43 36.5-54.5T482 182q0-41-15-75.5t-44-60-71-40T257-8z"/><glyph glyph-name="T" unicode="T" horiz-adv-x="495" d="M216 651H15v59h465v-59H278V0h-62v651z"/><glyph glyph-name="U" unicode="U" horiz-adv-x="743" d="M371-8q-62 0-113 18t-87.5 52.5-57 85T93 263v447h62V260q0-53 15.5-92t44-65T283 64t88-13q49 0 89 13t68.5 39 44 65 15.5 92v450h62V263q0-65-20.5-115.5t-57.5-85T483.5 10 371-8z"/><glyph glyph-name="V" unicode="V" horiz-adv-x="654" d="M5 710h65l257-579 257 579h65L327-8z"/><glyph glyph-name="W" unicode="W" horiz-adv-x="898" d="M13 710h64l178-549 194 557 194-557 178 549h64L644-8 449 557 254-8z"/><glyph glyph-name="X" unicode="X" horiz-adv-x="627" d="M278 365L23 710h70l220-298 221 298h70L349 365 618 0h-72L313 317 81 0H9z"/><glyph glyph-name="Y" unicode="Y" horiz-adv-x="606" d="M272 302L13 710h71l220-350 219 350h70L334 302V0h-62v302z"/><glyph glyph-name="Z" unicode="Z" horiz-adv-x="578" d="M435 651H54v59h488L117 59h435V0H10z"/><glyph glyph-name="bracketleft" unicode="[" horiz-adv-x="292" d="M96 733h167v-55H153V-78h110v-55H96v866z"/><glyph glyph-name="bracketright" unicode="]" horiz-adv-x="292" d="M196-133H29v55h110v756H29v55h167v-866z"/><glyph glyph-name="underscore" unicode="_" horiz-adv-x="567" d="M74 0h419v-55H74V0z"/><glyph glyph-name="grave" unicode="`" horiz-adv-x="213" d="M30 710h81l91-165h-54z"/><glyph glyph-name="a" unicode="a" horiz-adv-x="624" d="M484 68Q412-8 300-8q-56 0-102.5 20.5T117 68t-52.5 82T46 250t18.5 100 52.5 82 80.5 55.5T300 508q55 0 101.5-19t82.5-58v69h57V0h-57v68zM300 45q67 0 114 29t70 71v211q-24 42-71 70.5T300 455q-43 0-79-16.5t-61.5-44-40-65T105 250t14.5-79.5 40-65 61.5-44T300 45z"/><glyph glyph-name="b" unicode="b" horiz-adv-x="626" d="M83 710h57V430q72 78 185 78 56 0 102.5-20.5T508 432t52.5-82T579 250t-18.5-100T508 68t-80.5-55.5T325-8Q211-8 140 69V0H83v710zm242-255q-67 0-114.5-29.5T140 354V145q23-42 70.5-71T325 45q43 0 79 16.5t61.5 44 40 65T520 250t-14.5 79.5-40 65-61.5 44-79 16.5z"/><glyph glyph-name="c" unicode="c" horiz-adv-x="524" d="M300-8q-55 0-101.5 20.5T118 68t-53 82-19 100 19 100 53 82 80.5 55.5T300 508q65 0 112-22t79-52l-36-41q-28 26-66 44t-89 18q-42 0-78-16.5t-62-44-40.5-65T105 250t14.5-79.5 40.5-65 62-44T300 45q51 0 89 18t66 44l36-41q-32-30-79-52T300-8z"/><glyph glyph-name="d" unicode="d" horiz-adv-x="624" d="M484 68Q412-8 300-8q-56 0-102.5 20.5T117 68t-52.5 82T46 250t18.5 100 52.5 82 80.5 55.5T300 508q55 0 101.5-19t82.5-58v279h57V0h-57v68zM300 45q67 0 114 29t70 71v211q-24 42-71 70.5T300 455q-43 0-79-16.5t-61.5-44-40-65T105 250t14.5-79.5 40-65 61.5-44T300 45z"/><glyph glyph-name="e" unicode="e" horiz-adv-x="563" d="M300-8q-56 0-102.5 20.5t-80 55.5T65 150 46 250q0 54 19 101t52 82 77.5 55 95.5 20q49 0 91.5-15.5t74.5-48 50.5-81T527 249H105q0-42 14.5-79t40.5-65 62-44 78-16q51 0 89.5 17.5T456 106l36-40q-32-30-79.5-52T300-8zm-12 463q-32 0-61.5-11T173 412.5t-40.5-49T109 300h355q-4 39-19.5 68t-39 48.5-54 29T288 455z"/><glyph glyph-name="f" unicode="f" horiz-adv-x="332" d="M19 500h91q-19 16-29.5 39.5T70 590q0 53 40.5 86.5T219 710h101v-54H216q-36 0-62-18t-26-56q0-41 25.5-61.5T210 500h110v-55H174V0h-57v445H19v55z"/><glyph glyph-name="g" unicode="g" horiz-adv-x="617" d="M292-194q-57 0-113 16t-97 44l30 48q16-12 37.5-22t46-17.5 51-11.5 52.5-4q36 0 70.5 8t61 26 43 46T490 7q0 17-3.5 39.5T475 85Q405 9 294 9q-56 0-101 19.5T115.5 82t-50 79.5T48 258q0 52 17.5 97.5t50 79.5 77.5 53.5T294 508t100-18.5 80-56.5v67h57V103q9-25 13.5-50T549 6q0-54-22.5-92T468-148t-82-35-94-11zm2 256q66 0 111.5 28t68.5 69v199q-23 42-68.5 69.5T294 455q-43 0-77.5-15.5t-59-42T120 335t-13-77 13-76.5 37.5-62 59-42T294 62z"/><glyph glyph-name="h" unicode="h" d="M83 710h57V428q30 45 76 62.5t96 17.5q39 0 72.5-13t58-38 38.5-60.5 14-80.5V0h-57v308q0 72-39 109.5T297 455q-65 0-104-34.5T140 332V0H83v710z"/><glyph glyph-name="i" unicode="i" horiz-adv-x="223" d="M84 627q-10 7-16 17.5T62 668q0 20 15 35t35 15 35-15 15-35q0-13-6-23.5T140 627H84zm-1-127h57V0H83v500z"/><glyph glyph-name="j" unicode="j" horiz-adv-x="231" d="M-15-129h34q42 0 57 19.5T91-48v548h57V-41q0-72-28.5-107.5T18-184h-33v55zM92 627q-10 7-16 17.5T70 668q0 20 15 35t35 15 35-15 15-35q0-13-6-23.5T148 627H92z"/><glyph glyph-name="k" unicode="k" horiz-adv-x="486" d="M83 710h57V272l249 228h75L206 263 487 0h-79L140 250V0H83v710z"/><glyph glyph-name="l" unicode="l" horiz-adv-x="223" d="M83 710h57V0H83v710z"/><glyph glyph-name="m" unicode="m" horiz-adv-x="867" d="M734 308q0 71-36 109t-93 38-91.5-33.5T465 334q1-5 1-9V0h-57v308q0 71-36.5 109T279 455q-53 0-88.5-30T140 347V0H83v500h57v-65q30 41 71.5 57t82.5 16q48 0 87.5-23.5T443 416q16 27 37 44.5t43.5 28 45.5 15 44 4.5q39 0 72-13t56.5-38 36.5-60.5 13-80.5V0h-57v308z"/><glyph glyph-name="n" unicode="n" d="M83 500h57v-72q30 45 76 62.5t96 17.5q39 0 72.5-13t58-38 38.5-60.5 14-80.5V0h-57v308q0 72-39 109.5T297 455q-65 0-104-34.5T140 332V0H83v500z"/><glyph glyph-name="o" unicode="o" horiz-adv-x="610" d="M305 45q45 0 82 16.5t63.5 44 40.5 65 14 79.5-14 79.5-40.5 65-63.5 44-82 16.5-81.5-16.5-63-44-41-65T105 250t14.5-79.5 41-65 63-44T305 45zm0-53q-57 0-104.5 20.5t-82 55.5T65 150 46 250t19 100 53.5 82 82 55.5T305 508t104.5-20.5 82-55.5 53.5-82 19-100-19-100-53.5-82-82-55.5T305-8z"/><glyph glyph-name="p" unicode="p" horiz-adv-x="626" d="M83 500h57v-70q72 78 185 78 56 0 102.5-20.5T508 432t52.5-82T579 250t-18.5-100T508 68t-80.5-55.5T325-8Q211-8 140 69v-253H83v684zm242-45q-67 0-114.5-29.5T140 354V145q23-42 70.5-71T325 45q43 0 79 16.5t61.5 44 40 65T520 250t-14.5 79.5-40 65-61.5 44-79 16.5z"/><glyph glyph-name="q" unicode="q" horiz-adv-x="624" d="M484 68Q412-8 300-8q-56 0-102.5 20.5T117 68t-52.5 82T46 250t18.5 100 52.5 82 80.5 55.5T300 508q55 0 101.5-19t82.5-58v69h57v-684h-57V68zM300 45q67 0 114 29t70 71v211q-24 42-71 70.5T300 455q-43 0-79-16.5t-61.5-44-40-65T105 250t14.5-79.5 40-65 61.5-44T300 45z"/><glyph glyph-name="r" unicode="r" horiz-adv-x="337" d="M83 500h57v-76q26 38 65 58.5t85 20.5q16 0 33-3v-59q-22 5-39 5-49 0-88-28t-56-76V0H83v500z"/><glyph glyph-name="s" unicode="s" horiz-adv-x="417" d="M204-8q-54 0-99.5 25T36 90l49 30q20-36 49-55.5T207 45q23 0 43.5 5.5t35.5 16 24 26 9 34.5q0 37-22.5 59T220 227l-46 16q-34 12-56 28t-35 35-18.5 39-5.5 40q0 25 11 47.5t31 39.5 48 26.5 61 9.5q48 0 85.5-23.5T352 416l-49-21q-11 27-35 43.5T208 455q-37 0-63.5-18.5T118 384q0-29 16-52.5t67-41.5l49-17q63-23 95-58t32-87q0-27-11.5-51.5t-33.5-43-54.5-30T204-8z"/><glyph glyph-name="t" unicode="t" horiz-adv-x="337" d="M11 500h100v122l57 28V500h149l-13-55H168V134q0-42 17.5-60.5T249 55h61V0h-62q-67 0-102 30t-35 102v313H24z"/><glyph glyph-name="u" unicode="u" d="M431 70q-31-44-77-61T260-8q-39 0-73 13t-58.5 38T90 103.5 76 184v316h57V192q0-72 39.5-109.5T275 45t102.5 34 53.5 88v333h57V0h-57v70z"/><glyph glyph-name="v" unicode="v" horiz-adv-x="511" d="M2 500h64l190-388 189 388h64L256-8z"/><glyph glyph-name="w" unicode="w" horiz-adv-x="691" d="M15 500h59l126-400 146 408 145-408 126 400h59L517 0h-41L346 359 218 0h-43z"/><glyph glyph-name="x" unicode="x" horiz-adv-x="500" d="M216 255L25 500h67l158-201 158 201h67L284 255 485 0h-67L250 213 82 0H15z"/><glyph glyph-name="y" unicode="y" horiz-adv-x="502" d="M222 55L8 500h64l180-389 181 389h64L168-184h-61z"/><glyph glyph-name="z" unicode="z" horiz-adv-x="473" d="M339 445H49v55h393L121 55h315V0H19z"/><glyph glyph-name="braceleft" unicode="{" horiz-adv-x="301" d="M232-133q-37 0-60.5 9t-37 26.5T116-53t-5 63v183q0 40-10 59.5T51 272H33v55h18q40 0 50 19.5t10 59.5v184q0 36 5 63t18.5 44.5 37 26.5 60.5 9h33v-55h-33q-41 0-52-20t-11-61V415q0-47-9-73t-41-42q32-18 41-43.5t9-72.5V3q0-42 11-61.5T232-78h33v-55h-33z"/><glyph glyph-name="bar" unicode="|" horiz-adv-x="249" d="M96 710h57v-894H96v894z"/><glyph glyph-name="braceright" unicode="}" horiz-adv-x="301" d="M69-133H36v55h33q41 0 52 19.5T132 3v181q0 47 9 72.5t41 43.5q-32 16-41 42t-9 73v182q0 41-11 61t-52 20H36v55h33q37 0 60.5-9t37-26.5T185 653t5-63V406q0-40 10-59.5t50-19.5h18v-55h-18q-40 0-50-19.5T190 193V10q0-36-5-63t-18.5-44.5-37-26.5-60.5-9z"/><glyph glyph-name="uni00A0" horiz-adv-x="248"/><glyph glyph-name="exclamdown" unicode="¡" horiz-adv-x="236" d="M89 86l11 211h36l10-211v-270H89V86zm1 309q-13 8-21 24t-8 32q0 24 17.5 40.5T119 508t40-19.5 17-43.5q0-17-8-30t-22-20H90z"/><glyph glyph-name="sterling" unicode="£" horiz-adv-x="574" d="M56 365h105q-32 28-50.5 67.5T92 518q0 42 15 78.5t42 63.5 64.5 42.5T296 718q46 0 84-16t65-44 42-65.5 15-79.5h-59q0 31-10.5 58.5T403 620t-46 33-61 12q-33 0-60-11.5t-46.5-31-30-46.5-10.5-58 10.5-59 30-49 46.5-33 60-12h84v-54H214V55h324V0H56v55h100v256H56v54z"/><glyph glyph-name="yen" unicode="¥" horiz-adv-x="629" d="M135 318h141L27 710h66l222-350 221 350h66L353 318h142v-55H343v-75h152v-55H343V0h-57v133H135v55h151v75H135v55z"/><glyph glyph-name="dieresis" unicode="¨" horiz-adv-x="341" d="M61 580q-22 0-37 15T9 632t15 37 37 15 37-15 15-37-15-37-37-15zm220 0q-22 0-37 15t-15 37 15 37 37 15 37-15 15-37-15-37-37-15z"/><glyph glyph-name="copyright" unicode="©" horiz-adv-x="824" d="M429 144q-47 0-86.5 17t-68 45.5-44 67T215 355q0 44 15.5 83t44 68 68 45.5T429 568q52 0 91-19.5t68-53.5l-38-33q-20 26-50.5 41.5T429 519q-35 0-64.5-13T314 471t-33-52-12-64 12-63.5 33-51 50.5-34T429 194q38 0 68 14.5t50 38.5l37-36q-29-30-67-48.5T429 144zm-18-95q63 0 119 24t98 66 66 97.5T718 355t-24 119-66 98-98 66-119 24-118.5-24-97.5-66-66-98-24-119 24-118.5 66-97.5 97.5-66T411 49zm1-57q-75 0-141 28.5t-115.5 78-78 115.5T49 355t28.5 141 78 115.5 115.5 78T412 718t141-28.5 115.5-78 78-115.5T775 355t-28.5-141-78-115.5-115.5-78T412-8z"/><glyph glyph-name="guillemotleft" unicode="«" horiz-adv-x="488" d="M238 250l147 213 46-30-126-183L431 67l-46-30zm-190 0l147 213 46-30-126-183L241 67l-46-30z"/><glyph glyph-name="uni00AD" unicode="­" horiz-adv-x="367" d="M70 303h227v-65H70v65z"/><glyph glyph-name="macron" unicode="¯" horiz-adv-x="322" d="M22 680h278v-51H22v51z"/><glyph glyph-name="degree" unicode="°" horiz-adv-x="342" d="M171 519q30 0 51.5 21.5T244 592t-21.5 51.5T171 665t-51.5-21.5T98 592t21.5-51.5T171 519zm0-49q-25 0-47.5 9.5t-39 26-26 39T49 592t9.5 47.5 26 39 39 26T171 714t47.5-9.5 39-26 26-39T293 592t-9.5-47.5-26-39-39-26T171 470z"/><glyph glyph-name="acute" unicode="´" horiz-adv-x="213" d="M102 710h81L65 545H11z"/><glyph glyph-name="periodcentered" unicode="·" horiz-adv-x="258" d="M129 207q-25 0-42 18t-17 41q0 25 17 43t42 18 42-18 17-43q0-23-17-41t-42-18z"/><glyph glyph-name="cedilla" unicode="¸" horiz-adv-x="126" d="M61 0h40L49-137h-74z"/><glyph glyph-name="guillemotright" unicode="»" horiz-adv-x="488" d="M293 37l-46 30 126 183-126 183 46 30 147-213zm-190 0L57 67l126 183L57 433l46 30 147-213z"/><glyph glyph-name="questiondown" unicode="¿" horiz-adv-x="530" d="M274-194q-49 0-90.5 17.5t-72 48T64-57 47 30t16.5 85 45 67.5 65.5 46 79 20.5v42h53v-95h-30q-38 0-69.5-13t-54-36-35-54T105 27q0-34 12.5-64.5t34.5-53 52.5-36T272-140t68 13.5T393.5-90t35 53.5T441 29v3h58q0-47-17-88t-47-72-71-48.5-90-17.5zm5 702q25 0 42-18t17-41q0-17-9-31.5T306 395h-54q-14 8-23 22.5t-9 31.5q0 23 17 41t42 18z"/><glyph glyph-name="Agrave" unicode="À" horiz-adv-x="678" d="M339 718L682 0h-65L513 217H165L62 0H-3zM193 276h292L339 583zm10 637h82l82-145h-56z"/><glyph glyph-name="Aacute" unicode="Á" horiz-adv-x="678" d="M339 718L682 0h-65L513 217H165L62 0H-3zM193 276h292L339 583zm202 637h82L368 768h-55z"/><glyph glyph-name="Acircumflex" unicode="Â" horiz-adv-x="678" d="M339 718L682 0h-65L513 217H165L62 0H-3zM193 276h292L339 583zm-26 540l172 112 173-111-32-44-141 93-141-93z"/><glyph glyph-name="Atilde" unicode="Ã" horiz-adv-x="678" d="M339 718L682 0h-65L513 217H165L62 0H-3zM193 276h292L339 583zm212 513q-21 0-39 7.5T332.5 813t-30 16.5T274 837q-21 0-32-11.5T226 791h-55l3 14q9 42 38 64.5t62 22.5q21 0 38-7.5t32.5-16 29.5-16 28-7.5q22 0 33.5 11t16.5 34h55l-3-14q-8-40-35.5-63.5T405 789z"/><glyph glyph-name="Adieresis" unicode="Ä" horiz-adv-x="678" d="M339 718L682 0h-65L513 217H165L62 0H-3zM193 276h292L339 583zm36 515q-22 0-37 15t-15 37 15 37 37 15 37-15 15-37-15-37-37-15zm220 0q-22 0-37 15t-15 37 15 37 37 15 37-15 15-37-15-37-37-15z"/><glyph glyph-name="Aring" unicode="Å" horiz-adv-x="678" d="M339 718L682 0h-65L513 217H165L62 0H-3zM193 276h292L339 583zm145 512q21 0 35.5 13t14.5 35-14.5 35.5T338 885q-20 0-34.5-13.5T289 836t14.5-35 34.5-13zm0-37q-37 0-63 24t-26 61q0 38 26.5 61.5T338 921q38 0 64.5-23.5T429 836q0-37-26.5-61T338 751z"/><glyph glyph-name="AE" unicode="Æ" horiz-adv-x="1028" d="M315 650l-29 60h401l28-59H379l122-255h297l29-60H529L662 59h336l28-59H625L521 217H173L70 0H5zM201 276h292L347 583z"/><glyph glyph-name="Ccedilla" unicode="Ç" horiz-adv-x="668" d="M374-6q-69 7-128.5 37t-103 78-68 111T50 355q0 77 28 143.5t77 115T270 690t143 28q65 0 122-19.5T638 641l-34-50q-38 32-86 50t-105 18q-64 0-119-23.5t-95-64-62.5-96.5T114 355q0-65 22.5-120.5t62.5-96 95-64T413 51q57 0 105.5 18t86.5 50l33-50q-43-35-97-55T426-8l-37-129h-83z"/><glyph glyph-name="Egrave" unicode="È" horiz-adv-x="549" d="M102 710h398v-59H164V396h276v-60H164V59h336V0H102v710zm90 203h82l82-145h-56z"/><glyph glyph-name="Eacute" unicode="É" horiz-adv-x="549" d="M102 710h398v-59H164V396h276v-60H164V59h336V0H102v710zm227 203h82L302 768h-55z"/><glyph glyph-name="Ecircumflex" unicode="Ê" horiz-adv-x="549" d="M102 710h398v-59H164V396h276v-60H164V59h336V0H102v710zm27 106l172 112 173-111-32-44-141 93-141-93z"/><glyph glyph-name="Edieresis" unicode="Ë" horiz-adv-x="549" d="M102 710h398v-59H164V396h276v-60H164V59h336V0H102v710zm89 81q-22 0-37 15t-15 37 15 37 37 15 37-15 15-37-15-37-37-15zm220 0q-22 0-37 15t-15 37 15 37 37 15 37-15 15-37-15-37-37-15z"/><glyph glyph-name="Igrave" unicode="Ì" horiz-adv-x="266" d="M102 710h62V0h-62v710zM26 913h82l82-145h-56z"/><glyph glyph-name="Iacute" unicode="Í" horiz-adv-x="266" d="M102 710h62V0h-62v710zm56 203h82L131 768H76z"/><glyph glyph-name="Icircumflex" unicode="Î" horiz-adv-x="266" d="M102 710h62V0h-62v710zM-38 816l172 112 173-111-32-44-141 93-141-93z"/><glyph glyph-name="Idieresis" unicode="Ï" horiz-adv-x="266" d="M102 710h62V0h-62v710zm-78 81q-22 0-37 15t-15 37 15 37 37 15 37-15 15-37-15-37-37-15zm220 0q-22 0-37 15t-15 37 15 37 37 15 37-15 15-37-15-37-37-15z"/><glyph glyph-name="Eth" unicode="Ð" horiz-adv-x="750" d="M14 400h104v310h197q85 0 155.5-26.5t121.5-74T671.5 497 700 355t-28.5-142.5T592 100 470.5 26.5 315 0H118v342H14v58zM315 59q73 0 132 22t101 61.5 65 93.5 23 119q0 64-23 118.5t-65 94T447 629t-132 22H180V400h140v-58H180V59h135z"/><glyph glyph-name="Ntilde" unicode="Ñ" horiz-adv-x="795" d="M164 565V0h-62v718l529-573v565h62V-8zm299 224q-21 0-39 7.5T390.5 813t-30 16.5T332 837q-21 0-32-11.5T284 791h-55l3 14q9 42 38 64.5t62 22.5q21 0 38-7.5t32.5-16 29.5-16 28-7.5q22 0 33.5 11t16.5 34h55l-3-14q-8-40-35.5-63.5T463 789z"/><glyph glyph-name="Ograve" unicode="Ò" horiz-adv-x="826" d="M413 51q64 0 119 23.5t95 64 62.5 96T712 355q0 64-22.5 120T627 571.5t-95 64T413 659t-119-23.5-95-64-62.5-96.5T114 355q0-65 22.5-120.5t62.5-96 95-64T413 51zm0-59q-77 0-143 27.5T155 96 78 211.5 50 355t28 143.5 77 115T270 690t143 28q76 0 142.5-28T671 613.5t77-115T776 355t-28-143.5T671 96 555.5 19.5 413-8zM304 913h82l82-145h-56z"/><glyph glyph-name="Oacute" unicode="Ó" horiz-adv-x="826" d="M413 51q64 0 119 23.5t95 64 62.5 96T712 355q0 64-22.5 120T627 571.5t-95 64T413 659t-119-23.5-95-64-62.5-96.5T114 355q0-65 22.5-120.5t62.5-96 95-64T413 51zm0-59q-77 0-143 27.5T155 96 78 211.5 50 355t28 143.5 77 115T270 690t143 28q76 0 142.5-28T671 613.5t77-115T776 355t-28-143.5T671 96 555.5 19.5 413-8zm25 921h82L411 768h-55z"/><glyph glyph-name="Ocircumflex" unicode="Ô" horiz-adv-x="826" d="M413 51q64 0 119 23.5t95 64 62.5 96T712 355q0 64-22.5 120T627 571.5t-95 64T413 659t-119-23.5-95-64-62.5-96.5T114 355q0-65 22.5-120.5t62.5-96 95-64T413 51zm0-59q-77 0-143 27.5T155 96 78 211.5 50 355t28 143.5 77 115T270 690t143 28q76 0 142.5-28T671 613.5t77-115T776 355t-28-143.5T671 96 555.5 19.5 413-8zM241 816l172 112 173-111-32-44-141 93-141-93z"/><glyph glyph-name="Otilde" unicode="Õ" horiz-adv-x="826" d="M413 51q64 0 119 23.5t95 64 62.5 96T712 355q0 64-22.5 120T627 571.5t-95 64T413 659t-119-23.5-95-64-62.5-96.5T114 355q0-65 22.5-120.5t62.5-96 95-64T413 51zm0-59q-77 0-143 27.5T155 96 78 211.5 50 355t28 143.5 77 115T270 690t143 28q76 0 142.5-28T671 613.5t77-115T776 355t-28-143.5T671 96 555.5 19.5 413-8zm66 797q-21 0-39 7.5T406.5 813t-30 16.5T348 837q-21 0-32-11.5T300 791h-55l3 14q9 42 38 64.5t62 22.5q21 0 38-7.5t32.5-16 29.5-16 28-7.5q22 0 33.5 11t16.5 34h55l-3-14q-8-40-35.5-63.5T479 789z"/><glyph glyph-name="Odieresis" unicode="Ö" horiz-adv-x="826" d="M413 51q64 0 119 23.5t95 64 62.5 96T712 355q0 64-22.5 120T627 571.5t-95 64T413 659t-119-23.5-95-64-62.5-96.5T114 355q0-65 22.5-120.5t62.5-96 95-64T413 51zm0-59q-77 0-143 27.5T155 96 78 211.5 50 355t28 143.5 77 115T270 690t143 28q76 0 142.5-28T671 613.5t77-115T776 355t-28-143.5T671 96 555.5 19.5 413-8zM303 791q-22 0-37 15t-15 37 15 37 37 15 37-15 15-37-15-37-37-15zm220 0q-22 0-37 15t-15 37 15 37 37 15 37-15 15-37-15-37-37-15z"/><glyph glyph-name="multiply" unicode="×" horiz-adv-x="590" d="M112 124l146 146-146 146 37 37 146-146 146 146 37-37-146-146 147-146-38-38-146 146L149 86z"/><glyph glyph-name="Oslash" unicode="Ø" horiz-adv-x="826" d="M96 20l62 73q-51 49-79.5 116T50 355q0 77 28 143.5t77 115T270 690t143 28q62 0 116.5-18.5T629 649l69 81 38-34-68-80q51-49 79.5-116T776 355q0-77-28-143.5T671 96 555.5 19.5 413-8q-62 0-116.5 18T197 60l-63-74zm18 335q0-64 22-118.5t62-96.5l392 463q-37 26-81.5 41T413 659q-64 0-119-23.5t-95-64-62.5-96.5T114 355zM413 51q64 0 119 23.5t95 64 62.5 96T712 355q0 64-22.5 118.5T628 569L236 107q37-27 81.5-41.5T413 51z"/><glyph glyph-name="Ugrave" unicode="Ù" horiz-adv-x="743" d="M371-8q-62 0-113 18t-87.5 52.5-57 85T93 263v447h62V260q0-53 15.5-92t44-65T283 64t88-13q49 0 89 13t68.5 39 44 65 15.5 92v450h62V263q0-65-20.5-115.5t-57.5-85T483.5 10 371-8zM262 913h82l82-145h-56z"/><glyph glyph-name="Uacute" unicode="Ú" horiz-adv-x="743" d="M371-8q-62 0-113 18t-87.5 52.5-57 85T93 263v447h62V260q0-53 15.5-92t44-65T283 64t88-13q49 0 89 13t68.5 39 44 65 15.5 92v450h62V263q0-65-20.5-115.5t-57.5-85T483.5 10 371-8zm28 921h82L372 768h-55z"/><glyph glyph-name="Ucircumflex" unicode="Û" horiz-adv-x="743" d="M371-8q-62 0-113 18t-87.5 52.5-57 85T93 263v447h62V260q0-53 15.5-92t44-65T283 64t88-13q49 0 89 13t68.5 39 44 65 15.5 92v450h62V263q0-65-20.5-115.5t-57.5-85T483.5 10 371-8zM199 816l172 112 173-111-32-44-141 93-141-93z"/><glyph glyph-name="Udieresis" unicode="Ü" horiz-adv-x="743" d="M371-8q-62 0-113 18t-87.5 52.5-57 85T93 263v447h62V260q0-53 15.5-92t44-65T283 64t88-13q49 0 89 13t68.5 39 44 65 15.5 92v450h62V263q0-65-20.5-115.5t-57.5-85T483.5 10 371-8zM261 791q-22 0-37 15t-15 37 15 37 37 15 37-15 15-37-15-37-37-15zm220 0q-22 0-37 15t-15 37 15 37 37 15 37-15 15-37-15-37-37-15z"/><glyph glyph-name="Yacute" unicode="Ý" horiz-adv-x="606" d="M272 302L13 710h71l220-350 219 350h70L334 302V0h-62v302zm79 611h82L324 768h-55z"/><glyph glyph-name="Thorn" unicode="Þ" horiz-adv-x="578" d="M102 710h62V564h116q119 0 186.5-54.5T534 357q0-97-67.5-151.5T280 151H164V0h-62v710zm178-503q94 0 141.5 38.5T469 357t-47.5 112T280 508H164V207h116z"/><glyph glyph-name="germandbls" unicode="ß" horiz-adv-x="552" d="M83 508q0 51 15 90t41 66 61.5 40.5T277 718t76-14 60-37.5 39-54.5 14-66q0-59-31.5-99T353 389q73-17 113-67t40-114q0-43-15.5-80.5t-45-66-72.5-45T275 0h-51v53h51q42 0 74.5 12T404 98t33.5 49.5T449 209q0 34-13.5 62T398 318.5 340.5 349 266 360h-42v51h31q30 0 57.5 8.5t49 25 34.5 41 13 57.5q0 27-10 49.5T371 631t-42 25-52 9q-60 0-98.5-39.5T140 507V0H83v508z"/><glyph glyph-name="agrave" unicode="à" horiz-adv-x="624" d="M484 68Q412-8 300-8q-56 0-102.5 20.5T117 68t-52.5 82T46 250t18.5 100 52.5 82 80.5 55.5T300 508q55 0 101.5-19t82.5-58v69h57V0h-57v68zM300 45q67 0 114 29t70 71v211q-24 42-71 70.5T300 455q-43 0-79-16.5t-61.5-44-40-65T105 250t14.5-79.5 40-65 61.5-44T300 45zM179 710h81l91-165h-54z"/><glyph glyph-name="aacute" unicode="á" horiz-adv-x="624" d="M484 68Q412-8 300-8q-56 0-102.5 20.5T117 68t-52.5 82T46 250t18.5 100 52.5 82 80.5 55.5T300 508q55 0 101.5-19t82.5-58v69h57V0h-57v68zM300 45q67 0 114 29t70 71v211q-24 42-71 70.5T300 455q-43 0-79-16.5t-61.5-44-40-65T105 250t14.5-79.5 40-65 61.5-44T300 45zm64 665h81L327 545h-54z"/><glyph glyph-name="acircumflex" unicode="â" horiz-adv-x="624" d="M484 68Q412-8 300-8q-56 0-102.5 20.5T117 68t-52.5 82T46 250t18.5 100 52.5 82 80.5 55.5T300 508q55 0 101.5-19t82.5-58v69h57V0h-57v68zM300 45q67 0 114 29t70 71v211q-24 42-71 70.5T300 455q-43 0-79-16.5t-61.5-44-40-65T105 250t14.5-79.5 40-65 61.5-44T300 45zM147 606l167 112 166-111-27-44-139 95-140-95z"/><glyph glyph-name="atilde" unicode="ã" horiz-adv-x="624" d="M484 68Q412-8 300-8q-56 0-102.5 20.5T117 68t-52.5 82T46 250t18.5 100 52.5 82 80.5 55.5T300 508q55 0 101.5-19t82.5-58v69h57V0h-57v68zM300 45q67 0 114 29t70 71v211q-24 42-71 70.5T300 455q-43 0-79-16.5t-61.5-44-40-65T105 250t14.5-79.5 40-65 61.5-44T300 45zM151 585q9 42 36.5 64t60.5 22q21 0 38-7.5t32.5-16 29.5-16 28-7.5q22 0 33.5 12t16.5 35h52l-3-14q-8-37-33.5-61T379 572q-21 0-39 7.5t-33.5 16-30 16T248 619q-21 0-32-12t-16-35h-52z"/><glyph glyph-name="adieresis" unicode="ä" horiz-adv-x="624" d="M484 68Q412-8 300-8q-56 0-102.5 20.5T117 68t-52.5 82T46 250t18.5 100 52.5 82 80.5 55.5T300 508q55 0 101.5-19t82.5-58v69h57V0h-57v68zM300 45q67 0 114 29t70 71v211q-24 42-71 70.5T300 455q-43 0-79-16.5t-61.5-44-40-65T105 250t14.5-79.5 40-65 61.5-44T300 45zm-91 535q-22 0-37 15t-15 37 15 37 37 15 37-15 15-37-15-37-37-15zm220 0q-22 0-37 15t-15 37 15 37 37 15 37-15 15-37-15-37-37-15z"/><glyph glyph-name="aring" unicode="å" horiz-adv-x="624" d="M484 68Q412-8 300-8q-56 0-102.5 20.5T117 68t-52.5 82T46 250t18.5 100 52.5 82 80.5 55.5T300 508q55 0 101.5-19t82.5-58v69h57V0h-57v68zM300 45q67 0 114 29t70 71v211q-24 42-71 70.5T300 455q-43 0-79-16.5t-61.5-44-40-65T105 250t14.5-79.5 40-65 61.5-44T300 45zm0 565q22 0 37.5 15.5T353 664q0 22-15.5 38T300 718t-38-16-16-38q0-23 16-38.5t38-15.5zm0-37q-19 0-36 7t-29.5 19.5-19.5 29-7 35.5 7 35.5 19.5 29T264 748t36 7q38 0 65-26.5t27-64.5-27-64.5-65-26.5z"/><glyph glyph-name="ae" unicode="æ" horiz-adv-x="932" d="M669-8q-69 0-124 30.5T457 104q-42-54-97-83T234-8Q140-8 90 38.5T40 158q0 36 14 66t40.5 52 64.5 34.5 85 12.5q59 0 100-12t70-29v35q0 41-12.5 67.5T368 427t-48 22-56 6q-51 0-89.5-17.5T108 394l-36 40q31 30 79 52t113 22q31 0 61.5-6.5t56-20T427 447t31-51q33 51 85.5 81.5T659 508q49 0 91.5-15.5t74.5-48 50.5-81T896 249H474q0-42 14.5-79t40.5-65 62-44 78-16q51 0 89.5 17.5T825 106l36-40q-32-30-79.5-52T669-8zM235 45q66 0 111 27t68 69v78q-29 23-69.5 37.5T246 271q-30 0-56.5-7.5t-47-21.5-32-35.5T99 158q0-28 11-49t29.5-35.5T183 52t52-7zm422 410q-32 0-61.5-11T542 412.5t-40.5-49T478 300h355q-4 39-19.5 68t-39 48.5-54 29T657 455z"/><glyph glyph-name="ccedilla" unicode="ç" horiz-adv-x="524" d="M280-7q-51 4-94 25.5t-74 56T63.5 154 46 250q0 53 19 100t53 82 80.5 55.5T300 508q65 0 112-22t79-52l-36-41q-28 26-66 44t-89 18q-42 0-78-16.5t-62-44-40.5-65T105 250t14.5-79.5 40.5-65 62-44T300 45q51 0 89 18t66 44l36-41q-29-28-70.5-48T322-7l-49-130h-74z"/><glyph glyph-name="egrave" unicode="è" horiz-adv-x="563" d="M300-8q-56 0-102.5 20.5t-80 55.5T65 150 46 250q0 54 19 101t52 82 77.5 55 95.5 20q49 0 91.5-15.5t74.5-48 50.5-81T527 249H105q0-42 14.5-79t40.5-65 62-44 78-16q51 0 89.5 17.5T456 106l36-40q-32-30-79.5-52T300-8zm-12 463q-32 0-61.5-11T173 412.5t-40.5-49T109 300h355q-4 39-19.5 68t-39 48.5-54 29T288 455zM172 710h81l91-165h-54z"/><glyph glyph-name="eacute" unicode="é" horiz-adv-x="563" d="M300-8q-56 0-102.5 20.5t-80 55.5T65 150 46 250q0 54 19 101t52 82 77.5 55 95.5 20q49 0 91.5-15.5t74.5-48 50.5-81T527 249H105q0-42 14.5-79t40.5-65 62-44 78-16q51 0 89.5 17.5T456 106l36-40q-32-30-79.5-52T300-8zm-12 463q-32 0-61.5-11T173 412.5t-40.5-49T109 300h355q-4 39-19.5 68t-39 48.5-54 29T288 455zm46 255h81L297 545h-54z"/><glyph glyph-name="ecircumflex" unicode="ê" horiz-adv-x="563" d="M300-8q-56 0-102.5 20.5t-80 55.5T65 150 46 250q0 54 19 101t52 82 77.5 55 95.5 20q49 0 91.5-15.5t74.5-48 50.5-81T527 249H105q0-42 14.5-79t40.5-65 62-44 78-16q51 0 89.5 17.5T456 106l36-40q-32-30-79.5-52T300-8zm-12 463q-32 0-61.5-11T173 412.5t-40.5-49T109 300h355q-4 39-19.5 68t-39 48.5-54 29T288 455zM124 606l167 112 166-111-27-44-139 95-140-95z"/><glyph glyph-name="edieresis" unicode="ë" horiz-adv-x="563" d="M300-8q-56 0-102.5 20.5t-80 55.5T65 150 46 250q0 54 19 101t52 82 77.5 55 95.5 20q49 0 91.5-15.5t74.5-48 50.5-81T527 249H105q0-42 14.5-79t40.5-65 62-44 78-16q51 0 89.5 17.5T456 106l36-40q-32-30-79.5-52T300-8zm-12 463q-32 0-61.5-11T173 412.5t-40.5-49T109 300h355q-4 39-19.5 68t-39 48.5-54 29T288 455zM181 580q-22 0-37 15t-15 37 15 37 37 15 37-15 15-37-15-37-37-15zm220 0q-22 0-37 15t-15 37 15 37 37 15 37-15 15-37-15-37-37-15z"/><glyph glyph-name="igrave" unicode="ì" horiz-adv-x="223" d="M83 500h57V0H83v500zM-2 710h81l91-165h-54z"/><glyph glyph-name="iacute" unicode="í" horiz-adv-x="223" d="M83 500h57V0H83v500zm61 210h81L107 545H53z"/><glyph glyph-name="icircumflex" unicode="î" horiz-adv-x="223" d="M83 500h57V0H83v500zM-56 606l167 112 166-111-27-44-139 95-140-95z"/><glyph glyph-name="idieresis" unicode="ï" horiz-adv-x="223" d="M3 580q-22 0-37 15t-15 37 15 37 37 15 37-15 15-37-15-37-37-15zm220 0q-22 0-37 15t-15 37 15 37 37 15 37-15 15-37-15-37-37-15zM83 500h57V0H83v500z"/><glyph glyph-name="eth" unicode="ð" horiz-adv-x="611" d="M204 627h91l-58 83h62l58-83h135v-55h-96l113-159q33-47 44-86t11-77q0-53-19-100t-53.5-82-82-55.5T305-8 200.5 12.5t-82 55.5T65 150 46 250t19 100 53.5 82 82 55.5T305 508q44 0 84-14l-55 78H204v55zM305 45q46 0 83 16.5t63 44 40 65 14 79.5-14 79.5-40 65-63 44-83 16.5q-45 0-81.5-16.5t-62.5-44-40.5-65T106 250t14.5-79.5 40.5-65 62.5-44T305 45z"/><glyph glyph-name="ntilde" unicode="ñ" d="M83 500h57v-72q30 45 76 62.5t96 17.5q39 0 72.5-13t58-38 38.5-60.5 14-80.5V0h-57v308q0 72-39 109.5T297 455q-65 0-104-34.5T140 332V0H83v500zm44 85q9 42 36.5 64t60.5 22q21 0 38-7.5t32.5-16 29.5-16 28-7.5q22 0 33.5 12t16.5 35h52l-3-14q-8-37-33.5-61T355 572q-21 0-39 7.5t-33.5 16-30 16T224 619q-21 0-32-12t-16-35h-52z"/><glyph glyph-name="ograve" unicode="ò" horiz-adv-x="610" d="M305 45q45 0 82 16.5t63.5 44 40.5 65 14 79.5-14 79.5-40.5 65-63.5 44-82 16.5-81.5-16.5-63-44-41-65T105 250t14.5-79.5 41-65 63-44T305 45zm0-53q-57 0-104.5 20.5t-82 55.5T65 150 46 250t19 100 53.5 82 82 55.5T305 508t104.5-20.5 82-55.5 53.5-82 19-100-19-100-53.5-82-82-55.5T305-8zM181 710h81l91-165h-54z"/><glyph glyph-name="oacute" unicode="ó" horiz-adv-x="610" d="M305 45q45 0 82 16.5t63.5 44 40.5 65 14 79.5-14 79.5-40.5 65-63.5 44-82 16.5-81.5-16.5-63-44-41-65T105 250t14.5-79.5 41-65 63-44T305 45zm0-53q-57 0-104.5 20.5t-82 55.5T65 150 46 250t19 100 53.5 82 82 55.5T305 508t104.5-20.5 82-55.5 53.5-82 19-100-19-100-53.5-82-82-55.5T305-8zm53 718h81L321 545h-54z"/><glyph glyph-name="ocircumflex" unicode="ô" horiz-adv-x="610" d="M305 45q45 0 82 16.5t63.5 44 40.5 65 14 79.5-14 79.5-40.5 65-63.5 44-82 16.5-81.5-16.5-63-44-41-65T105 250t14.5-79.5 41-65 63-44T305 45zm0-53q-57 0-104.5 20.5t-82 55.5T65 150 46 250t19 100 53.5 82 82 55.5T305 508t104.5-20.5 82-55.5 53.5-82 19-100-19-100-53.5-82-82-55.5T305-8zM138 606l167 112 166-111-27-44-139 95-140-95z"/><glyph glyph-name="otilde" unicode="õ" horiz-adv-x="610" d="M305 45q45 0 82 16.5t63.5 44 40.5 65 14 79.5-14 79.5-40.5 65-63.5 44-82 16.5-81.5-16.5-63-44-41-65T105 250t14.5-79.5 41-65 63-44T305 45zm0-53q-57 0-104.5 20.5t-82 55.5T65 150 46 250t19 100 53.5 82 82 55.5T305 508t104.5-20.5 82-55.5 53.5-82 19-100-19-100-53.5-82-82-55.5T305-8zM143 585q9 42 36.5 64t60.5 22q21 0 38-7.5t32.5-16 29.5-16 28-7.5q22 0 33.5 12t16.5 35h52l-3-14q-8-37-33.5-61T371 572q-21 0-39 7.5t-33.5 16-30 16T240 619q-21 0-32-12t-16-35h-52z"/><glyph glyph-name="odieresis" unicode="ö" horiz-adv-x="610" d="M305 45q45 0 82 16.5t63.5 44 40.5 65 14 79.5-14 79.5-40.5 65-63.5 44-82 16.5-81.5-16.5-63-44-41-65T105 250t14.5-79.5 41-65 63-44T305 45zm0-53q-57 0-104.5 20.5t-82 55.5T65 150 46 250t19 100 53.5 82 82 55.5T305 508t104.5-20.5 82-55.5 53.5-82 19-100-19-100-53.5-82-82-55.5T305-8zM195 580q-22 0-37 15t-15 37 15 37 37 15 37-15 15-37-15-37-37-15zm220 0q-22 0-37 15t-15 37 15 37 37 15 37-15 15-37-15-37-37-15z"/><glyph glyph-name="divide" unicode="÷" horiz-adv-x="590" d="M295 71q-25 0-42.5 17.5T235 131t17.5 42.5T295 191q24 0 41.5-17.5T354 131t-17.5-42.5T295 71zM75 298h440v-55H75v55zm220 52q-25 0-42.5 17.5T235 410t17.5 42.5T295 470q24 0 41.5-17.5T354 410t-17.5-42.5T295 350z"/><glyph glyph-name="oslash" unicode="ø" horiz-adv-x="619" d="M51 23l58 60q-28 34-43 76.5T51 250q0 53 19 100t53.5 82 82 55.5T310 508q47 0 87.5-14t72.5-39l56 57 37-35-56-58q29-34 45.5-77t16.5-92q0-53-19-100t-53.5-82-82-55.5T310-8q-48 0-89.5 14.5T147 47L89-13zm259 22q45 0 82 16.5t63.5 44 40.5 65 14 79.5q0 73-42 129L185 87q25-20 56.5-31T310 45zM110 250q0-35 10-67.5t29-58.5l283 291q-25 19-55.5 29.5T310 455q-45 0-81.5-16.5t-63-44-41-65T110 250z"/><glyph glyph-name="ugrave" unicode="ù" d="M431 70q-31-44-77-61T260-8q-39 0-73 13t-58.5 38T90 103.5 76 184v316h57V192q0-72 39.5-109.5T275 45t102.5 34 53.5 88v333h57V0h-57v70zM158 710h81l91-165h-54z"/><glyph glyph-name="uacute" unicode="ú" d="M431 70q-31-44-77-61T260-8q-39 0-73 13t-58.5 38T90 103.5 76 184v316h57V192q0-72 39.5-109.5T275 45t102.5 34 53.5 88v333h57V0h-57v70zM325 710h81L288 545h-54z"/><glyph glyph-name="ucircumflex" unicode="û" d="M431 70q-31-44-77-61T260-8q-39 0-73 13t-58.5 38T90 103.5 76 184v316h57V192q0-72 39.5-109.5T275 45t102.5 34 53.5 88v333h57V0h-57v70zM115 606l167 112 166-111-27-44-139 95-140-95z"/><glyph glyph-name="udieresis" unicode="ü" d="M431 70q-31-44-77-61T260-8q-39 0-73 13t-58.5 38T90 103.5 76 184v316h57V192q0-72 39.5-109.5T275 45t102.5 34 53.5 88v333h57V0h-57v70zM172 580q-22 0-37 15t-15 37 15 37 37 15 37-15 15-37-15-37-37-15zm220 0q-22 0-37 15t-15 37 15 37 37 15 37-15 15-37-15-37-37-15z"/><glyph glyph-name="yacute" unicode="ý" horiz-adv-x="502" d="M222 55L8 500h64l180-389 181 389h64L168-184h-61zm94 655h81L279 545h-54z"/><glyph glyph-name="thorn" unicode="þ" horiz-adv-x="626" d="M83 710h57V430q72 78 185 78 56 0 102.5-20.5T508 432t52.5-82T579 250t-18.5-100T508 68t-80.5-55.5T325-8Q211-8 140 69v-253H83v894zm242-255q-67 0-114.5-29.5T140 354V145q23-42 70.5-71T325 45q43 0 79 16.5t61.5 44 40 65T520 250t-14.5 79.5-40 65-61.5 44-79 16.5z"/><glyph glyph-name="ydieresis" unicode="ÿ" horiz-adv-x="502" d="M222 55L8 500h64l180-389 181 389h64L168-184h-61zm-80 525q-22 0-37 15t-15 37 15 37 37 15 37-15 15-37-15-37-37-15zm220 0q-22 0-37 15t-15 37 15 37 37 15 37-15 15-37-15-37-37-15z"/><glyph glyph-name="Amacron" unicode="Ā" horiz-adv-x="678" d="M339 718L682 0h-65L513 217H165L62 0H-3zM193 276h292L339 583zm7 583h278v-50H200v50z"/><glyph glyph-name="amacron" unicode="ā" horiz-adv-x="624" d="M484 68Q412-8 300-8q-56 0-102.5 20.5T117 68t-52.5 82T46 250t18.5 100 52.5 82 80.5 55.5T300 508q55 0 101.5-19t82.5-58v69h57V0h-57v68zM300 45q67 0 114 29t70 71v211q-24 42-71 70.5T300 455q-43 0-79-16.5t-61.5-44-40-65T105 250t14.5-79.5 40-65 61.5-44T300 45zM178 680h278v-51H178v51z"/><glyph glyph-name="Abreve" unicode="Ă" horiz-adv-x="678" d="M339 718L682 0h-65L513 217H165L62 0H-3zM193 276h292L339 583zm145 505q-66 0-103.5 35T193 900h53q4-29 26.5-51.5T339 826q45 0 68 22.5t27 51.5h53q-3-24-13.5-46t-29-38-45-25.5T338 781z"/><glyph glyph-name="abreve" unicode="ă" horiz-adv-x="624" d="M484 68Q412-8 300-8q-56 0-102.5 20.5T117 68t-52.5 82T46 250t18.5 100 52.5 82 80.5 55.5T300 508q55 0 101.5-19t82.5-58v69h57V0h-57v68zM300 45q67 0 114 29t70 71v211q-24 42-71 70.5T300 455q-43 0-79-16.5t-61.5-44-40-65T105 250t14.5-79.5 40-65 61.5-44T300 45zm-1 546q-66 0-103.5 34.5T154 710h53q4-29 26.5-51.5T300 636q45 0 68 22.5t27 51.5h53q-5-50-42-84.5T299 591z"/><glyph glyph-name="Aogonek" unicode="Ą" horiz-adv-x="678" d="M628-189q-20 0-39 5.5t-33.5 16T532-141t-9 37q0 17 8 33t21.5 30T583-16.5 618 0h-1L513 217H165L62 0H-3l342 718L682 0h-2q-45-20-68-44.5T589-92q0-17 14-31.5t43-14.5q21 0 36 5v-49q-24-7-54-7zM193 276h292L339 583z"/><glyph glyph-name="aogonek" unicode="ą" horiz-adv-x="624" d="M494-174q-20 0-39 4.5T421.5-155 398-130t-9 36q0 17 8 31.5T418.5-36 449-15t35 15v68Q412-8 300-8q-56 0-102.5 20.5T117 68t-52.5 82T46 250t18.5 100 52.5 82 80.5 55.5T300 508q55 0 101.5-19t82.5-58v69h57V0q-86-38-86-82 0-17 14-29t43-12q21 0 36 5v-49q-24-7-54-7zM300 45q67 0 114 29t70 71v211q-24 42-71 70.5T300 455q-43 0-79-16.5t-61.5-44-40-65T105 250t14.5-79.5 40-65 61.5-44T300 45z"/><glyph glyph-name="Cacute" unicode="Ć" horiz-adv-x="668" d="M413-8q-77 0-143 27.5T155 96 78 211.5 50 355t28 143.5 77 115T270 690t143 28q65 0 122-19.5T638 641l-34-50q-38 32-86 50t-105 18q-64 0-119-23.5t-95-64-62.5-96.5T114 355q0-65 22.5-120.5t62.5-96 95-64T413 51q57 0 105.5 18t86.5 50l33-50q-45-37-102.5-57T413-8zm29 921h82L415 768h-55z"/><glyph glyph-name="cacute" unicode="ć" horiz-adv-x="524" d="M300-8q-55 0-101.5 20.5T118 68t-53 82-19 100 19 100 53 82 80.5 55.5T300 508q65 0 112-22t79-52l-36-41q-28 26-66 44t-89 18q-42 0-78-16.5t-62-44-40.5-65T105 250t14.5-79.5 40.5-65 62-44T300 45q51 0 89 18t66 44l36-41q-32-30-79-52T300-8zm37 718h81L300 545h-54z"/><glyph glyph-name="Ccircumflex" unicode="Ĉ" horiz-adv-x="668" d="M413-8q-77 0-143 27.5T155 96 78 211.5 50 355t28 143.5 77 115T270 690t143 28q65 0 122-19.5T638 641l-34-50q-38 32-86 50t-105 18q-64 0-119-23.5t-95-64-62.5-96.5T114 355q0-65 22.5-120.5t62.5-96 95-64T413 51q57 0 105.5 18t86.5 50l33-50q-45-37-102.5-57T413-8zM242 816l172 112 173-111-32-44-141 93-141-93z"/><glyph glyph-name="ccircumflex" unicode="ĉ" horiz-adv-x="524" d="M300-8q-55 0-101.5 20.5T118 68t-53 82-19 100 19 100 53 82 80.5 55.5T300 508q65 0 112-22t79-52l-36-41q-28 26-66 44t-89 18q-42 0-78-16.5t-62-44-40.5-65T105 250t14.5-79.5 40.5-65 62-44T300 45q51 0 89 18t66 44l36-41q-32-30-79-52T300-8zM132 606l167 112 166-111-27-44-139 95-140-95z"/><glyph glyph-name="Cdotaccent" unicode="Ċ" horiz-adv-x="668" d="M413-8q-77 0-143 27.5T155 96 78 211.5 50 355t28 143.5 77 115T270 690t143 28q65 0 122-19.5T638 641l-34-50q-38 32-86 50t-105 18q-64 0-119-23.5t-95-64-62.5-96.5T114 355q0-65 22.5-120.5t62.5-96 95-64T413 51q57 0 105.5 18t86.5 50l33-50q-45-37-102.5-57T413-8zm0 799q-22 0-37 15t-15 37 15 37 37 15 37-15 15-37-15-37-37-15z"/><glyph glyph-name="cdotaccent" unicode="ċ" horiz-adv-x="524" d="M300-8q-55 0-101.5 20.5T118 68t-53 82-19 100 19 100 53 82 80.5 55.5T300 508q65 0 112-22t79-52l-36-41q-28 26-66 44t-89 18q-42 0-78-16.5t-62-44-40.5-65T105 250t14.5-79.5 40.5-65 62-44T300 45q51 0 89 18t66 44l36-41q-32-30-79-52T300-8zm0 588q-22 0-37 15t-15 37 15 37 37 15 37-15 15-37-15-37-37-15z"/><glyph glyph-name="Ccaron" unicode="Č" horiz-adv-x="668" d="M413-8q-77 0-143 27.5T155 96 78 211.5 50 355t28 143.5 77 115T270 690t143 28q65 0 122-19.5T638 641l-34-50q-38 32-86 50t-105 18q-64 0-119-23.5t-95-64-62.5-96.5T114 355q0-65 22.5-120.5t62.5-96 95-64T413 51q57 0 105.5 18t86.5 50l33-50q-45-37-102.5-57T413-8zM242 883l31 43 141-93 141 93 32-44-173-111z"/><glyph glyph-name="ccaron" unicode="č" horiz-adv-x="524" d="M300-8q-55 0-101.5 20.5T118 68t-53 82-19 100 19 100 53 82 80.5 55.5T300 508q65 0 112-22t79-52l-36-41q-28 26-66 44t-89 18q-42 0-78-16.5t-62-44-40.5-65T105 250t14.5-79.5 40.5-65 62-44T300 45q51 0 89 18t66 44l36-41q-32-30-79-52T300-8zm0 593L133 697l27 43 140-95 139 95 27-44z"/><glyph glyph-name="Dcaron" unicode="Ď" horiz-adv-x="734" d="M299 59q73 0 132 22t101 61.5 65 93.5 23 119q0 64-23 118.5t-65 94T431 629t-132 22H164V59h135zM102 710h197q85 0 155.5-26.5t121.5-74T655.5 497 684 355t-28.5-142.5T576 100 454.5 26.5 299 0H102v710zm59 173l31 43 141-93 141 93 32-44-173-111z"/><glyph glyph-name="dcaron" unicode="ď" horiz-adv-x="648" d="M484 68Q412-8 300-8q-56 0-102.5 20.5T117 68t-52.5 82T46 250t18.5 100 52.5 82 80.5 55.5T300 508q55 0 101.5-19t82.5-58v279h57V0h-57v68zM300 45q67 0 114 29t70 71v211q-24 42-71 70.5T300 455q-43 0-79-16.5t-61.5-44-40-65T105 250t14.5-79.5 40-65 61.5-44T300 45zm336 665h58l-42-167h-41z"/><glyph glyph-name="Dcroat" unicode="Đ" horiz-adv-x="750" d="M14 400h104v310h197q85 0 155.5-26.5t121.5-74T671.5 497 700 355t-28.5-142.5T592 100 470.5 26.5 315 0H118v342H14v58zM315 59q73 0 132 22t101 61.5 65 93.5 23 119q0 64-23 118.5t-65 94T447 629t-132 22H180V400h140v-58H180V59h135z"/><glyph glyph-name="dcroat" unicode="đ" horiz-adv-x="624" d="M308 638h176v72h57v-72h73v-54h-73V0h-57v68Q412-8 300-8q-56 0-102.5 20.5T117 68t-52.5 82T46 250t18.5 100 52.5 82 80.5 55.5T300 508q55 0 101.5-19t82.5-58v153H308v54zm-8-593q67 0 114 29t70 71v211q-24 42-71 70.5T300 455q-43 0-79-16.5t-61.5-44-40-65T105 250t14.5-79.5 40-65 61.5-44T300 45z"/><glyph glyph-name="Emacron" unicode="Ē" horiz-adv-x="549" d="M102 710h398v-59H164V396h276v-60H164V59h336V0H102v710zm60 149h278v-50H162v50z"/><glyph glyph-name="emacron" unicode="ē" horiz-adv-x="563" d="M300-8q-56 0-102.5 20.5t-80 55.5T65 150 46 250q0 54 19 101t52 82 77.5 55 95.5 20q49 0 91.5-15.5t74.5-48 50.5-81T527 249H105q0-42 14.5-79t40.5-65 62-44 78-16q51 0 89.5 17.5T456 106l36-40q-32-30-79.5-52T300-8zm-12 463q-32 0-61.5-11T173 412.5t-40.5-49T109 300h355q-4 39-19.5 68t-39 48.5-54 29T288 455zM151 680h278v-51H151v51z"/><glyph glyph-name="Ebreve" unicode="Ĕ" horiz-adv-x="549" d="M102 710h398v-59H164V396h276v-60H164V59h336V0H102v710zm197 71q-66 0-103.5 35T154 900h53q4-29 26.5-51.5T300 826q45 0 68 22.5t27 51.5h53q-3-24-13.5-46t-29-38-45-25.5T299 781z"/><glyph glyph-name="ebreve" unicode="ĕ" horiz-adv-x="563" d="M300-8q-56 0-102.5 20.5t-80 55.5T65 150 46 250q0 54 19 101t52 82 77.5 55 95.5 20q49 0 91.5-15.5t74.5-48 50.5-81T527 249H105q0-42 14.5-79t40.5-65 62-44 78-16q51 0 89.5 17.5T456 106l36-40q-32-30-79.5-52T300-8zm-12 463q-32 0-61.5-11T173 412.5t-40.5-49T109 300h355q-4 39-19.5 68t-39 48.5-54 29T288 455zm3 136q-66 0-103.5 34.5T146 710h53q4-29 26.5-51.5T292 636q45 0 68 22.5t27 51.5h53q-5-50-42-84.5T291 591z"/><glyph glyph-name="Edotaccent" unicode="Ė" horiz-adv-x="549" d="M102 710h398v-59H164V396h276v-60H164V59h336V0H102v710zm200 82q-22 0-37 15t-15 37 15 37 37 15 37-15 15-37-15-37-37-15z"/><glyph glyph-name="edotaccent" unicode="ė" horiz-adv-x="563" d="M300-8q-56 0-102.5 20.5t-80 55.5T65 150 46 250q0 54 19 101t52 82 77.5 55 95.5 20q49 0 91.5-15.5t74.5-48 50.5-81T527 249H105q0-42 14.5-79t40.5-65 62-44 78-16q51 0 89.5 17.5T456 106l36-40q-32-30-79.5-52T300-8zm-12 463q-32 0-61.5-11T173 412.5t-40.5-49T109 300h355q-4 39-19.5 68t-39 48.5-54 29T288 455zm5 125q-22 0-37 15t-15 37 15 37 37 15 37-15 15-37-15-37-37-15z"/><glyph glyph-name="Eogonek" unicode="Ę" horiz-adv-x="549" d="M102 710h398v-59H164V396h276v-60H164V59h336V0q-45-20-68-44.5T409-92q0-17 14-31.5t43-14.5q21 0 36 5v-49q-24-7-54-7-20 0-39 5.5t-33.5 16T352-141t-9 37q0 17 8 33t21.5 30T403-16.5 438 0H102v710z"/><glyph glyph-name="eogonek" unicode="ę" horiz-adv-x="564" d="M313-174q-20 0-39 4.5T240.5-155 217-130t-9 36q0 29 22 51t53 36q-52 3-95.5 24.5t-74.5 56-48.5 80T47 250q0 54 19 101t52 82 77.5 55 95.5 20q49 0 91.5-15.5t74.5-48 50.5-81T528 249H106q0-42 14.5-79t40.5-65 62-44 78-16q51 0 89.5 17.5T457 106l36-40q-25-23-58-41.5T360-2q-86-38-86-80 0-17 14-29t43-12q21 0 36 5v-49q-24-7-54-7zm-24 629q-32 0-61.5-11T174 412.5t-40.5-49T110 300h355q-4 39-19.5 68t-39 48.5-54 29T289 455z"/><glyph glyph-name="Ecaron" unicode="Ě" horiz-adv-x="549" d="M102 710h398v-59H164V396h276v-60H164V59h336V0H102v710zm27 173l31 43 141-93 141 93 32-44-173-111z"/><glyph glyph-name="ecaron" unicode="ě" horiz-adv-x="563" d="M300-8q-56 0-102.5 20.5t-80 55.5T65 150 46 250q0 54 19 101t52 82 77.5 55 95.5 20q49 0 91.5-15.5t74.5-48 50.5-81T527 249H105q0-42 14.5-79t40.5-65 62-44 78-16q51 0 89.5 17.5T456 106l36-40q-32-30-79.5-52T300-8zm-12 463q-32 0-61.5-11T173 412.5t-40.5-49T109 300h355q-4 39-19.5 68t-39 48.5-54 29T288 455zm3 130L124 697l27 43 140-95 139 95 27-44z"/><glyph glyph-name="Gcircumflex" unicode="Ĝ" horiz-adv-x="723" d="M413-8q-77 0-143 27.5T155 96 78 211.5 50 355t28 143.5 77 115T270 690t143 28q69 0 128-20t107-56l-35-50q-38 31-88 49t-112 18q-64 0-119-23.5t-95-64-62.5-96.5T114 355q0-65 22.5-120.5t62.5-96 95-64T413 51q48 0 96 11t86 32v242H389l27 60h241V61q-50-32-114.5-50.5T413-8zM241 816l172 112 173-111-32-44-141 93-141-93z"/><glyph glyph-name="gcircumflex" unicode="ĝ" horiz-adv-x="617" d="M292-194q-57 0-113 16t-97 44l30 48q16-12 37.5-22t46-17.5 51-11.5 52.5-4q36 0 70.5 8t61 26 43 46T490 7q0 17-3.5 39.5T475 85Q405 9 294 9q-56 0-101 19.5T115.5 82t-50 79.5T48 258q0 52 17.5 97.5t50 79.5 77.5 53.5T294 508t100-18.5 80-56.5v67h57V103q9-25 13.5-50T549 6q0-54-22.5-92T468-148t-82-35-94-11zm2 256q66 0 111.5 28t68.5 69v199q-23 42-68.5 69.5T294 455q-43 0-77.5-15.5t-59-42T120 335t-13-77 13-76.5 37.5-62 59-42T294 62zM128 606l167 112 166-111-27-44-139 95-140-95z"/><glyph glyph-name="Gbreve" unicode="Ğ" horiz-adv-x="723" d="M413-8q-77 0-143 27.5T155 96 78 211.5 50 355t28 143.5 77 115T270 690t143 28q69 0 128-20t107-56l-35-50q-38 31-88 49t-112 18q-64 0-119-23.5t-95-64-62.5-96.5T114 355q0-65 22.5-120.5t62.5-96 95-64T413 51q48 0 96 11t86 32v242H389l27 60h241V61q-50-32-114.5-50.5T413-8zm-2 789q-66 0-103.5 35T266 900h53q4-29 26.5-51.5T412 826q45 0 68 22.5t27 51.5h53q-3-24-13.5-46t-29-38-45-25.5T411 781z"/><glyph glyph-name="gbreve" unicode="ğ" horiz-adv-x="617" d="M292-194q-57 0-113 16t-97 44l30 48q16-12 37.5-22t46-17.5 51-11.5 52.5-4q36 0 70.5 8t61 26 43 46T490 7q0 17-3.5 39.5T475 85Q405 9 294 9q-56 0-101 19.5T115.5 82t-50 79.5T48 258q0 52 17.5 97.5t50 79.5 77.5 53.5T294 508t100-18.5 80-56.5v67h57V103q9-25 13.5-50T549 6q0-54-22.5-92T468-148t-82-35-94-11zm2 256q66 0 111.5 28t68.5 69v199q-23 42-68.5 69.5T294 455q-43 0-77.5-15.5t-59-42T120 335t-13-77 13-76.5 37.5-62 59-42T294 62zm1 529q-66 0-103.5 34.5T150 710h53q4-29 26.5-51.5T296 636q45 0 68 22.5t27 51.5h53q-5-50-42-84.5T295 591z"/><glyph glyph-name="Gdotaccent" unicode="Ġ" horiz-adv-x="723" d="M413-8q-77 0-143 27.5T155 96 78 211.5 50 355t28 143.5 77 115T270 690t143 28q69 0 128-20t107-56l-35-50q-38 31-88 49t-112 18q-64 0-119-23.5t-95-64-62.5-96.5T114 355q0-65 22.5-120.5t62.5-96 95-64T413 51q48 0 96 11t86 32v242H389l27 60h241V61q-50-32-114.5-50.5T413-8zm1 799q-22 0-37 15t-15 37 15 37 37 15 37-15 15-37-15-37-37-15z"/><glyph glyph-name="gdotaccent" unicode="ġ" horiz-adv-x="617" d="M292-194q-57 0-113 16t-97 44l30 48q16-12 37.5-22t46-17.5 51-11.5 52.5-4q36 0 70.5 8t61 26 43 46T490 7q0 17-3.5 39.5T475 85Q405 9 294 9q-56 0-101 19.5T115.5 82t-50 79.5T48 258q0 52 17.5 97.5t50 79.5 77.5 53.5T294 508t100-18.5 80-56.5v67h57V103q9-25 13.5-50T549 6q0-54-22.5-92T468-148t-82-35-94-11zm2 256q66 0 111.5 28t68.5 69v199q-23 42-68.5 69.5T294 455q-43 0-77.5-15.5t-59-42T120 335t-13-77 13-76.5 37.5-62 59-42T294 62zm1 518q-22 0-37 15t-15 37 15 37 37 15 37-15 15-37-15-37-37-15z"/><glyph glyph-name="uni0122" unicode="Ģ" horiz-adv-x="723" d="M413-8q-77 0-143 27.5T155 96 78 211.5 50 355t28 143.5 77 115T270 690t143 28q69 0 128-20t107-56l-35-50q-38 31-88 49t-112 18q-64 0-119-23.5t-95-64-62.5-96.5T114 355q0-65 22.5-120.5t62.5-96 95-64T413 51q48 0 96 11t86 32v242H389l27 60h241V61q-50-32-114.5-50.5T413-8zm-40-42h81L336-215h-54z"/><glyph glyph-name="uni0123" unicode="ģ" horiz-adv-x="617" d="M336.006 584.997h-80.995l117.993 164.99H427zM292-194q-57 0-113 16t-97 44l30 48q16-12 37.5-22t46-17.5 51-11.5 52.5-4q36 0 70.5 8t61 26 43 46T490 7q0 17-3.5 39.5T475 85Q405 9 294 9q-56 0-101 19.5T115.5 82t-50 79.5T48 258q0 52 17.5 97.5t50 79.5 77.5 53.5T294 508t100-18.5 80-56.5v67h57V103q9-25 13.5-50T549 6q0-54-22.5-92T468-148t-82-35-94-11zm2 256q66 0 111.5 28t68.5 69v199q-23 42-68.5 69.5T294 455q-43 0-77.5-15.5t-59-42T120 335t-13-77 13-76.5 37.5-62 59-42T294 62z"/><glyph glyph-name="Hcircumflex" unicode="Ĥ" horiz-adv-x="765" d="M102 710h62V396h437v314h62V0h-62v336H164V0h-62v710zm108 106l172 112 173-111-32-44-141 93-141-93z"/><glyph glyph-name="hcircumflex" unicode="ĥ" d="M83 710h57V428q30 45 76 62.5t96 17.5q39 0 72.5-13t58-38 38.5-60.5 14-80.5V0h-57v308q0 72-39 109.5T297 455q-65 0-104-34.5T140 332V0H83v710zm34 106l172 112 173-111-32-44-141 93-141-93z"/><glyph glyph-name="Hbar" unicode="Ħ" horiz-adv-x="767" d="M40 581h63v129h62V581h437v129h62V581h63v-58h-63V0h-62v336H165V0h-62v523H40v58zm562-185v127H165V396h437z"/><glyph glyph-name="hbar" unicode="ħ" d="M1 638h82v72h57v-72h167v-54H140V428q30 45 76 62.5t96 17.5q39 0 72.5-13t58-38 38.5-60.5 14-80.5V0h-57v308q0 72-39 109.5T297 455q-65 0-104-34.5T140 332V0H83v584H1v54z"/><glyph glyph-name="Itilde" unicode="Ĩ" horiz-adv-x="266" d="M102 710h62V0h-62v710zm98 79q-21 0-39 7.5T127.5 813t-30 16.5T69 837q-21 0-32-11.5T21 791h-55l3 14q9 42 38 64.5T69 892q21 0 38-7.5t32.5-16 29.5-16 28-7.5q22 0 33.5 11t16.5 34h55l-3-14q-8-40-35.5-63.5T200 789z"/><glyph glyph-name="itilde" unicode="ĩ" horiz-adv-x="223" d="M83 500h57V0H83v500zm-132 85q9 42 36.5 64T48 671q21 0 38-7.5t32.5-16 29.5-16 28-7.5q22 0 33.5 12t16.5 35h52l-3-14q-8-37-33.5-61T179 572q-21 0-39 7.5t-33.5 16-30 16T48 619q-21 0-32-12T0 572h-52z"/><glyph glyph-name="Imacron" unicode="Ī" horiz-adv-x="266" d="M102 710h62V0h-62v710zM-5 859h278v-50H-5v50z"/><glyph glyph-name="imacron" unicode="ī" horiz-adv-x="223" d="M83 500h57V0H83v500zM-27 680h278v-51H-27v51z"/><glyph glyph-name="Ibreve" unicode="Ĭ" horiz-adv-x="266" d="M102 710h62V0h-62v710zm30 71q-66 0-103.5 35T-13 900h53q4-29 26.5-51.5T133 826q45 0 68 22.5t27 51.5h53q-3-24-13.5-46t-29-38-45-25.5T132 781z"/><glyph glyph-name="ibreve" unicode="ĭ" horiz-adv-x="223" d="M83 500h57V0H83v500zm27 91q-66 0-103.5 34.5T-35 710h53q4-29 26.5-51.5T111 636q45 0 68 22.5t27 51.5h53q-5-50-42-84.5T110 591z"/><glyph glyph-name="Iogonek" unicode="Į" horiz-adv-x="266" d="M102 710h62V0q-45-20-68-44.5T73-92q0-17 14-31.5t43-14.5q21 0 36 5v-49q-24-7-54-7-20 0-39 5.5t-33.5 16T16-141t-9 37q0 17 8 33t21.5 30T67-16.5 102 0v710z"/><glyph glyph-name="iogonek" unicode="į" horiz-adv-x="223" d="M93-174q-20 0-39 4.5T20.5-155-3-130t-9 36q0 17 8 31.5T17.5-36 48-15 83 0v500h57V0Q54-38 54-82q0-17 14-29t43-12q21 0 36 5v-49q-24-7-54-7zm-9 801q-10 7-16 17.5T62 668q0 20 15 35t35 15 35-15 15-35q0-13-6-23.5T140 627H84z"/><glyph glyph-name="Idotaccent" unicode="İ" horiz-adv-x="266" d="M102 710h62V0h-62v710zm30 81q-22 0-37 15t-15 37 15 37 37 15 37-15 15-37-15-37-37-15z"/><glyph glyph-name="dotlessi" unicode="ı" horiz-adv-x="223" d="M83 500h57V0H83v500z"/><glyph glyph-name="Jcircumflex" unicode="Ĵ" horiz-adv-x="509" d="M218-8q-42 0-77.5 13.5T78.5 44 37 105t-15 82h62q0-35 10.5-60T123 85.5t42.5-25T217 51q60 0 97.5 33.5T352 187v523h62V177q0-46-15.5-80.5t-42-58-62-35T218-8zm-7 824l172 112 173-111-32-44-141 93-141-93z"/><glyph glyph-name="jcircumflex" unicode="ĵ" horiz-adv-x="231" d="M-15-129h34q42 0 57 19.5T91-48v548h57V-41q0-72-28.5-107.5T18-184h-33v55zm-32 735l167 112 166-111-27-44-139 95-140-95z"/><glyph glyph-name="uni0136" unicode="Ķ" horiz-adv-x="618" d="M102 710h62V355l352 355h80L238 348 623 0h-87L164 338V0h-62v710zM293-50h81L256-215h-54z"/><glyph glyph-name="uni0137" unicode="ķ" horiz-adv-x="486" d="M224-50h81L187-215h-54zM83 710h57V272l249 228h75L206 263 487 0h-79L140 250V0H83v710z"/><glyph glyph-name="Lacute" unicode="Ĺ" horiz-adv-x="506" d="M188 913h82L161 768h-55zm-86-203h62V59h327V0H102v710z"/><glyph glyph-name="lacute" unicode="ĺ" horiz-adv-x="223" d="M83 710h57V0H83v710zm83 203h82L139 768H84z"/><glyph glyph-name="uni013B" unicode="Ļ" horiz-adv-x="506" d="M102 710h62V59h327V0H102v710zM247-50h81L210-215h-54z"/><glyph glyph-name="uni013C" unicode="ļ" horiz-adv-x="223" d="M83 710h57V0H83v710zM73-50h81L36-215h-54z"/><glyph glyph-name="Lcaron" unicode="Ľ" horiz-adv-x="507" d="M102 710h62V59h327V0H102v710zm208 0h58l-42-167h-41z"/><glyph glyph-name="lcaron" unicode="ľ" horiz-adv-x="247" d="M83 710h57V0H83v710zm153 0h58l-42-167h-41z"/><glyph glyph-name="Ldot" unicode="Ŀ" horiz-adv-x="511" d="M102 710h62V59h327V0H102v710zm281-383q-22 0-37 15t-15 37 15 37 37 15 37-15 15-37-15-37-37-15z"/><glyph glyph-name="ldot" unicode="ŀ" horiz-adv-x="283" d="M83 710h57V0H83v710zm169-406q-22 0-37 15t-15 37 15 37 37 15 37-15 15-37-15-37-37-15z"/><glyph glyph-name="Lslash" unicode="Ł" horiz-adv-x="529" d="M15 256l107 73v381h62V372l203 140 32-52-235-161V59h327V0H122v256l-75-51z"/><glyph glyph-name="lslash" unicode="ł" horiz-adv-x="321" d="M20 314l117 80v316h57V433l87 60 29-48-116-80V0h-57v326l-87-59z"/><glyph glyph-name="Nacute" unicode="Ń" horiz-adv-x="795" d="M164 565V0h-62v718l529-573v565h62V-8zm261 348h82L398 768h-55z"/><glyph glyph-name="nacute" unicode="ń" d="M83 500h57v-72q30 45 76 62.5t96 17.5q39 0 72.5-13t58-38 38.5-60.5 14-80.5V0h-57v308q0 72-39 109.5T297 455q-65 0-104-34.5T140 332V0H83v500zm240 210h81L286 545h-54z"/><glyph glyph-name="uni0145" unicode="Ņ" horiz-adv-x="795" d="M164 565V0h-62v718l529-573v565h62V-8zM373-50h81L336-215h-54z"/><glyph glyph-name="uni0146" unicode="ņ" d="M83 500h57v-72q30 45 76 62.5t96 17.5q39 0 72.5-13t58-38 38.5-60.5 14-80.5V0h-57v308q0 72-39 109.5T297 455q-65 0-104-34.5T140 332V0H83v500zM247-50h81L210-215h-54z"/><glyph glyph-name="Ncaron" unicode="Ň" horiz-adv-x="795" d="M164 565V0h-62v718l529-573v565h62V-8zm61 318l31 43 141-93 141 93 32-44-173-111z"/><glyph glyph-name="ncaron" unicode="ň" d="M83 500h57v-72q30 45 76 62.5t96 17.5q39 0 72.5-13t58-38 38.5-60.5 14-80.5V0h-57v308q0 72-39 109.5T297 455q-65 0-104-34.5T140 332V0H83v500zm205 85L121 697l27 43 140-95 139 95 27-44z"/><glyph glyph-name="Omacron" unicode="Ō" horiz-adv-x="826" d="M413 51q64 0 119 23.5t95 64 62.5 96T712 355q0 64-22.5 120T627 571.5t-95 64T413 659t-119-23.5-95-64-62.5-96.5T114 355q0-65 22.5-120.5t62.5-96 95-64T413 51zm0-59q-77 0-143 27.5T155 96 78 211.5 50 355t28 143.5 77 115T270 690t143 28q76 0 142.5-28T671 613.5t77-115T776 355t-28-143.5T671 96 555.5 19.5 413-8zM274 859h278v-50H274v50z"/><glyph glyph-name="omacron" unicode="ō" horiz-adv-x="610" d="M305 45q45 0 82 16.5t63.5 44 40.5 65 14 79.5-14 79.5-40.5 65-63.5 44-82 16.5-81.5-16.5-63-44-41-65T105 250t14.5-79.5 41-65 63-44T305 45zm0-53q-57 0-104.5 20.5t-82 55.5T65 150 46 250t19 100 53.5 82 82 55.5T305 508t104.5-20.5 82-55.5 53.5-82 19-100-19-100-53.5-82-82-55.5T305-8zM166 680h278v-51H166v51z"/><glyph glyph-name="Obreve" unicode="Ŏ" horiz-adv-x="826" d="M413 51q64 0 119 23.5t95 64 62.5 96T712 355q0 64-22.5 120T627 571.5t-95 64T413 659t-119-23.5-95-64-62.5-96.5T114 355q0-65 22.5-120.5t62.5-96 95-64T413 51zm0-59q-77 0-143 27.5T155 96 78 211.5 50 355t28 143.5 77 115T270 690t143 28q76 0 142.5-28T671 613.5t77-115T776 355t-28-143.5T671 96 555.5 19.5 413-8zm-1 789q-66 0-103.5 35T267 900h53q4-29 26.5-51.5T413 826q45 0 68 22.5t27 51.5h53q-3-24-13.5-46t-29-38-45-25.5T412 781z"/><glyph glyph-name="obreve" unicode="ŏ" horiz-adv-x="610" d="M305 45q45 0 82 16.5t63.5 44 40.5 65 14 79.5-14 79.5-40.5 65-63.5 44-82 16.5-81.5-16.5-63-44-41-65T105 250t14.5-79.5 41-65 63-44T305 45zm0-53q-57 0-104.5 20.5t-82 55.5T65 150 46 250t19 100 53.5 82 82 55.5T305 508t104.5-20.5 82-55.5 53.5-82 19-100-19-100-53.5-82-82-55.5T305-8zm-1 599q-66 0-103.5 34.5T159 710h53q4-29 26.5-51.5T305 636q45 0 68 22.5t27 51.5h53q-5-50-42-84.5T304 591z"/><glyph glyph-name="Ohungarumlaut" unicode="Ő" horiz-adv-x="826" d="M413 51q64 0 119 23.5t95 64 62.5 96T712 355q0 64-22.5 120T627 571.5t-95 64T413 659t-119-23.5-95-64-62.5-96.5T114 355q0-65 22.5-120.5t62.5-96 95-64T413 51zm0-59q-77 0-143 27.5T155 96 78 211.5 50 355t28 143.5 77 115T270 690t143 28q76 0 142.5-28T671 613.5t77-115T776 355t-28-143.5T671 96 555.5 19.5 413-8zm-60 921h82L327 768h-56zm200 0h82L527 768h-56z"/><glyph glyph-name="ohungarumlaut" unicode="ő" horiz-adv-x="610" d="M305 45q45 0 82 16.5t63.5 44 40.5 65 14 79.5-14 79.5-40.5 65-63.5 44-82 16.5-81.5-16.5-63-44-41-65T105 250t14.5-79.5 41-65 63-44T305 45zm0-53q-57 0-104.5 20.5t-82 55.5T65 150 46 250t19 100 53.5 82 82 55.5T305 508t104.5-20.5 82-55.5 53.5-82 19-100-19-100-53.5-82-82-55.5T305-8zm-25 718h81L243 545h-54zm160 0h81L403 545h-54z"/><glyph glyph-name="OE" unicode="Œ" horiz-adv-x="1099" d="M413-8q-77 0-143 27.5T155 96 78 211.5 50 355t28 143.5 77 115T270 690t143 28q69 0 130-23t109-64v79h398v-59H714v-89q24-36 39.5-77.5T774 396h216v-60H775q-2-54-18-101t-43-87V59h336V0H652v79q-48-42-109-64.5T413-8zm0 59q64 0 119 23.5t95 64 62.5 96T712 355q0 64-22.5 120T627 571.5t-95 64T413 659t-119-23.5-95-64-62.5-96.5T114 355q0-65 22.5-120.5t62.5-96 95-64T413 51z"/><glyph glyph-name="oe" unicode="œ" horiz-adv-x="1022" d="M305-8q-57 0-104.5 20.5t-82 55.5T65 150 46 250t19 100 53.5 82 82 55.5T305 508q78 0 137.5-37.5T534 373q32 61 88.5 98T749 508q49 0 91.5-15.5t74.5-48 50.5-81T986 249H563q0-42 15-79t41-65 62-44 78-16q51 0 89.5 17.5T915 106l36-40q-32-30-79.5-52T759-8q-77 0-135 37.5T534 127q-32-60-91.5-97.5T305-8zm0 53q45 0 82.5 16.5t63.5 44 40.5 65T506 250t-14.5 79.5-40.5 65-63.5 44T305 455t-81.5-16.5-63-44-41-65T105 250t14.5-79.5 41-65 63-44T305 45zm618 255q-4 39-19.5 68t-39 48.5-54 29T747 455q-32 0-61.5-11T632 412.5t-41-49-24-63.5h356z"/><glyph glyph-name="Racute" unicode="Ŕ" horiz-adv-x="602" d="M256 321h-92V0h-62v710h188q110 0 170.5-51.5T521 515q0-82-50.5-133T328 322L597 0h-77zm32 57q85 0 126.5 35.5T456 515t-41.5 101.5T288 652H164V378h124zm39 535h82L300 768h-55z"/><glyph glyph-name="racute" unicode="ŕ" horiz-adv-x="337" d="M83 500h57v-76q26 38 65 58.5t85 20.5q16 0 33-3v-59q-22 5-39 5-49 0-88-28t-56-76V0H83v500zm154 210h81L200 545h-54z"/><glyph glyph-name="uni0156" unicode="Ŗ" horiz-adv-x="602" d="M283-50h81L246-215h-54zm-27 371h-92V0h-62v710h188q110 0 170.5-51.5T521 515q0-82-50.5-133T328 322L597 0h-77zm32 57q85 0 126.5 35.5T456 515t-41.5 101.5T288 652H164V378h124z"/><glyph glyph-name="uni0157" unicode="ŗ" horiz-adv-x="337" d="M84-50h81L47-215H-7zm-1 550h57v-76q26 38 65 58.5t85 20.5q16 0 33-3v-59q-22 5-39 5-49 0-88-28t-56-76V0H83v500z"/><glyph glyph-name="Rcaron" unicode="Ř" horiz-adv-x="602" d="M256 321h-92V0h-62v710h188q110 0 170.5-51.5T521 515q0-82-50.5-133T328 322L597 0h-77zm32 57q85 0 126.5 35.5T456 515t-41.5 101.5T288 652H164V378h124zM112 883l31 43 141-93 141 93 32-44-173-111z"/><glyph glyph-name="rcaron" unicode="ř" horiz-adv-x="337" d="M83 500h57v-76q26 38 65 58.5t85 20.5q16 0 33-3v-59q-22 5-39 5-49 0-88-28t-56-76V0H83v500zm121 85L37 697l27 43 140-95 139 95 27-44z"/><glyph glyph-name="Sacute" unicode="Ś" horiz-adv-x="527" d="M257-8q-37 0-70 8.5t-61.5 23-51 32T37 91l47 43q13-16 31-31t40-26.5T202.5 58t54.5-7q73 0 117.5 33t44.5 89q0 59-34.5 92T289 325l-75 32q-81 35-116 82T63 551q0 38 17 69t45.5 52.5 65 33.5 74.5 12q63 0 114-25.5t84-64.5l-46-43q-28 33-64 53.5T262 659q-28 0-53-7.5t-43.5-22T136 594t-11-47q0-45 24.5-76t85.5-57l75-32q36-15 67.5-34t54.5-43 36.5-54.5T482 182q0-41-15-75.5t-44-60-71-40T257-8zm50 921h82L280 768h-55z"/><glyph glyph-name="sacute" unicode="ś" horiz-adv-x="417" d="M204-8q-54 0-99.5 25T36 90l49 30q20-36 49-55.5T207 45q23 0 43.5 5.5t35.5 16 24 26 9 34.5q0 37-22.5 59T220 227l-46 16q-34 12-56 28t-35 35-18.5 39-5.5 40q0 25 11 47.5t31 39.5 48 26.5 61 9.5q48 0 85.5-23.5T352 416l-49-21q-11 27-35 43.5T208 455q-37 0-63.5-18.5T118 384q0-29 16-52.5t67-41.5l49-17q63-23 95-58t32-87q0-27-11.5-51.5t-33.5-43-54.5-30T204-8zm70 718h81L237 545h-54z"/><glyph glyph-name="Scircumflex" unicode="Ŝ" horiz-adv-x="527" d="M257-8q-37 0-70 8.5t-61.5 23-51 32T37 91l47 43q13-16 31-31t40-26.5T202.5 58t54.5-7q73 0 117.5 33t44.5 89q0 59-34.5 92T289 325l-75 32q-81 35-116 82T63 551q0 38 17 69t45.5 52.5 65 33.5 74.5 12q63 0 114-25.5t84-64.5l-46-43q-28 33-64 53.5T262 659q-28 0-53-7.5t-43.5-22T136 594t-11-47q0-45 24.5-76t85.5-57l75-32q36-15 67.5-34t54.5-43 36.5-54.5T482 182q0-41-15-75.5t-44-60-71-40T257-8zM95 816l172 112 173-111-32-44-141 93-141-93z"/><glyph glyph-name="scircumflex" unicode="ŝ" horiz-adv-x="417" d="M204-8q-54 0-99.5 25T36 90l49 30q20-36 49-55.5T207 45q23 0 43.5 5.5t35.5 16 24 26 9 34.5q0 37-22.5 59T220 227l-46 16q-34 12-56 28t-35 35-18.5 39-5.5 40q0 25 11 47.5t31 39.5 48 26.5 61 9.5q48 0 85.5-23.5T352 416l-49-21q-11 27-35 43.5T208 455q-37 0-63.5-18.5T118 384q0-29 16-52.5t67-41.5l49-17q63-23 95-58t32-87q0-27-11.5-51.5t-33.5-43-54.5-30T204-8zM43 606l167 112 166-111-27-44-139 95-140-95z"/><glyph glyph-name="Scedilla" unicode="Ş" horiz-adv-x="527" d="M238-7q-68 5-120.5 34.5T37 91l47 43q13-16 31-31t40-26.5T202.5 58t54.5-7q73 0 117.5 33t44.5 89q0 59-34.5 92T289 325l-75 32q-81 35-116 82T63 551q0 38 17 69t45.5 52.5 65 33.5 74.5 12q63 0 114-25.5t84-64.5l-46-43q-28 33-64 53.5T262 659q-28 0-53-7.5t-43.5-22T136 594t-11-47q0-45 24.5-76t85.5-57l75-32q36-15 67.5-34t54.5-43 36.5-54.5T482 182q0-75-50-127T292-6l-38-131h-83z"/><glyph glyph-name="scedilla" unicode="ş" horiz-adv-x="417" d="M191-7q-50 3-92 27.5T36 90l49 30q20-36 49-55.5T207 45q23 0 43.5 5.5t35.5 16 24 26 9 34.5q0 37-22.5 59T220 227l-46 16q-34 12-56 28t-35 35-18.5 39-5.5 40q0 25 11 47.5t31 39.5 48 26.5 61 9.5q48 0 85.5-23.5T352 416l-49-21q-11 27-35 43.5T208 455q-37 0-63.5-18.5T118 384q0-29 16-52.5t67-41.5l49-17q63-23 95-58t32-87q0-49-37.5-87.5T233-6l-49-131h-74z"/><glyph glyph-name="Scaron" unicode="Š" horiz-adv-x="527" d="M257-8q-37 0-70 8.5t-61.5 23-51 32T37 91l47 43q13-16 31-31t40-26.5T202.5 58t54.5-7q73 0 117.5 33t44.5 89q0 59-34.5 92T289 325l-75 32q-81 35-116 82T63 551q0 38 17 69t45.5 52.5 65 33.5 74.5 12q63 0 114-25.5t84-64.5l-46-43q-28 33-64 53.5T262 659q-28 0-53-7.5t-43.5-22T136 594t-11-47q0-45 24.5-76t85.5-57l75-32q36-15 67.5-34t54.5-43 36.5-54.5T482 182q0-41-15-75.5t-44-60-71-40T257-8zM95 883l31 43 141-93 141 93 32-44-173-111z"/><glyph glyph-name="scaron" unicode="š" horiz-adv-x="417" d="M204-8q-54 0-99.5 25T36 90l49 30q20-36 49-55.5T207 45q23 0 43.5 5.5t35.5 16 24 26 9 34.5q0 37-22.5 59T220 227l-46 16q-34 12-56 28t-35 35-18.5 39-5.5 40q0 25 11 47.5t31 39.5 48 26.5 61 9.5q48 0 85.5-23.5T352 416l-49-21q-11 27-35 43.5T208 455q-37 0-63.5-18.5T118 384q0-29 16-52.5t67-41.5l49-17q63-23 95-58t32-87q0-27-11.5-51.5t-33.5-43-54.5-30T204-8zm6 593L43 697l27 43 140-95 139 95 27-44z"/><glyph glyph-name="uni0162" unicode="Ţ" horiz-adv-x="495" d="M216 651H15v59h465v-59H278V0h-62v651zm-6-701h81L173-215h-54z"/><glyph glyph-name="uni0163" unicode="ţ" horiz-adv-x="337" d="M11 500h100v122l57 28V500h149l-13-55H168V134q0-42 17.5-60.5T249 55h61V0h-62q-67 0-102 30t-35 102v313H24zM187-50h81L150-215H96z"/><glyph glyph-name="Tcaron" unicode="Ť" horiz-adv-x="495" d="M216 651H15v59h465v-59H278V0h-62v651zM75 883l31 43 141-93 141 93 32-44-173-111z"/><glyph glyph-name="tcaron" unicode="ť" horiz-adv-x="338" d="M11 500h100v122l57 28V500h149l-13-55H168V134q0-42 17.5-60.5T249 55h61V0h-62q-67 0-102 30t-35 102v313H24zm262 210h58l-42-167h-41z"/><glyph glyph-name="Utilde" unicode="Ũ" horiz-adv-x="743" d="M371-8q-62 0-113 18t-87.5 52.5-57 85T93 263v447h62V260q0-53 15.5-92t44-65T283 64t88-13q49 0 89 13t68.5 39 44 65 15.5 92v450h62V263q0-65-20.5-115.5t-57.5-85T483.5 10 371-8zm66 797q-21 0-39 7.5T364.5 813t-30 16.5T306 837q-21 0-32-11.5T258 791h-55l3 14q9 42 38 64.5t62 22.5q21 0 38-7.5t32.5-16 29.5-16 28-7.5q22 0 33.5 11t16.5 34h55l-3-14q-8-40-35.5-63.5T437 789z"/><glyph glyph-name="utilde" unicode="ũ" d="M431 70q-31-44-77-61T260-8q-39 0-73 13t-58.5 38T90 103.5 76 184v316h57V192q0-72 39.5-109.5T275 45t102.5 34 53.5 88v333h57V0h-57v70zM120 585q9 42 36.5 64t60.5 22q21 0 38-7.5t32.5-16 29.5-16 28-7.5q22 0 33.5 12t16.5 35h52l-3-14q-8-37-33.5-61T348 572q-21 0-39 7.5t-33.5 16-30 16T217 619q-21 0-32-12t-16-35h-52z"/><glyph glyph-name="Umacron" unicode="Ū" horiz-adv-x="743" d="M371-8q-62 0-113 18t-87.5 52.5-57 85T93 263v447h62V260q0-53 15.5-92t44-65T283 64t88-13q49 0 89 13t68.5 39 44 65 15.5 92v450h62V263q0-65-20.5-115.5t-57.5-85T483.5 10 371-8zM232 859h278v-50H232v50z"/><glyph glyph-name="umacron" unicode="ū" d="M431 70q-31-44-77-61T260-8q-39 0-73 13t-58.5 38T90 103.5 76 184v316h57V192q0-72 39.5-109.5T275 45t102.5 34 53.5 88v333h57V0h-57v70zM143 680h278v-51H143v51z"/><glyph glyph-name="Ubreve" unicode="Ŭ" horiz-adv-x="743" d="M371-8q-62 0-113 18t-87.5 52.5-57 85T93 263v447h62V260q0-53 15.5-92t44-65T283 64t88-13q49 0 89 13t68.5 39 44 65 15.5 92v450h62V263q0-65-20.5-115.5t-57.5-85T483.5 10 371-8zm-2 789q-66 0-103.5 35T224 900h53q4-29 26.5-51.5T370 826q45 0 68 22.5t27 51.5h53q-3-24-13.5-46t-29-38-45-25.5T369 781z"/><glyph glyph-name="ubreve" unicode="ŭ" d="M431 70q-31-44-77-61T260-8q-39 0-73 13t-58.5 38T90 103.5 76 184v316h57V192q0-72 39.5-109.5T275 45t102.5 34 53.5 88v333h57V0h-57v70zM281 591q-66 0-103.5 34.5T136 710h53q4-29 26.5-51.5T282 636q45 0 68 22.5t27 51.5h53q-5-50-42-84.5T281 591z"/><glyph glyph-name="Uring" unicode="Ů" horiz-adv-x="743" d="M371-8q-62 0-113 18t-87.5 52.5-57 85T93 263v447h62V260q0-53 15.5-92t44-65T283 64t88-13q49 0 89 13t68.5 39 44 65 15.5 92v450h62V263q0-65-20.5-115.5t-57.5-85T483.5 10 371-8zm0 796q21 0 35.5 13t14.5 35-14.5 35.5T371 885q-20 0-34.5-13.5T322 836t14.5-35 34.5-13zm0-37q-37 0-63 24t-26 61q0 38 26.5 61.5T371 921q38 0 64.5-23.5T462 836q0-37-26.5-61T371 751z"/><glyph glyph-name="uring" unicode="ů" d="M431 70q-31-44-77-61T260-8q-39 0-73 13t-58.5 38T90 103.5 76 184v316h57V192q0-72 39.5-109.5T275 45t102.5 34 53.5 88v333h57V0h-57v70zM283 610q22 0 37.5 15.5T336 664q0 22-15.5 38T283 718t-38-16-16-38q0-23 16-38.5t38-15.5zm0-37q-19 0-36 7t-29.5 19.5-19.5 29-7 35.5 7 35.5 19.5 29T247 748t36 7q38 0 65-26.5t27-64.5-27-64.5-65-26.5z"/><glyph glyph-name="Uhungarumlaut" unicode="Ű" horiz-adv-x="743" d="M371-8q-62 0-113 18t-87.5 52.5-57 85T93 263v447h62V260q0-53 15.5-92t44-65T283 64t88-13q49 0 89 13t68.5 39 44 65 15.5 92v450h62V263q0-65-20.5-115.5t-57.5-85T483.5 10 371-8zm-60 921h82L285 768h-56zm200 0h82L485 768h-56z"/><glyph glyph-name="uhungarumlaut" unicode="ű" d="M431 70q-31-44-77-61T260-8q-39 0-73 13t-58.5 38T90 103.5 76 184v316h57V192q0-72 39.5-109.5T275 45t102.5 34 53.5 88v333h57V0h-57v70zM257 710h81L220 545h-54zm160 0h81L380 545h-54z"/><glyph glyph-name="Uogonek" unicode="Ų" horiz-adv-x="743" d="M396-189q-20 0-39 5.5t-33.5 16T300-141t-9 37q0 29 22 55.5T365-8q-60 1-110 19.5t-86 53-56 84.5-20 114v447h62V260q0-53 15.5-92t44-65T283 64t88-13q49 0 89 13t68.5 39 44 65 15.5 92v450h62V263q0-109-55-176T448 0q-45-20-68-44.5T357-92q0-17 14-31.5t43-14.5q21 0 36 5v-49q-24-7-54-7z"/><glyph glyph-name="uogonek" unicode="ų" d="M438-174q-20 0-39 4.5T365.5-155 342-130t-9 36q0 17 8.5 31.5T364-36t31.5 21T431 0v70q-31-44-77-61T260-8q-39 0-73 13t-58.5 38T90 103.5 76 184v316h57V192q0-72 39.5-109.5T275 45t102.5 34 53.5 88v333h57V0q-89-39-89-82 0-17 14-29t43-12q21 0 36 5v-49q-24-7-54-7z"/><glyph glyph-name="Wcircumflex" unicode="Ŵ" horiz-adv-x="898" d="M13 710h64l178-549 194 557 194-557 178 549h64L644-8 449 557 254-8zm264 106l172 112 173-111-32-44-141 93-141-93z"/><glyph glyph-name="wcircumflex" unicode="ŵ" horiz-adv-x="691" d="M15 500h59l126-400 146 408 145-408 126 400h59L517 0h-41L346 359 218 0h-43zm164 106l167 112 166-111-27-44-139 95-140-95z"/><glyph glyph-name="Ycircumflex" unicode="Ŷ" horiz-adv-x="606" d="M272 302L13 710h71l220-350 219 350h70L334 302V0h-62v302zM131 816l172 112 173-111-32-44-141 93-141-93z"/><glyph glyph-name="ycircumflex" unicode="ŷ" horiz-adv-x="502" d="M222 55L8 500h64l180-389 181 389h64L168-184h-61zM85 606l167 112 166-111-27-44-139 95-140-95z"/><glyph glyph-name="Ydieresis" unicode="Ÿ" horiz-adv-x="606" d="M272 302L13 710h71l220-350 219 350h70L334 302V0h-62v302zm-79 489q-22 0-37 15t-15 37 15 37 37 15 37-15 15-37-15-37-37-15zm220 0q-22 0-37 15t-15 37 15 37 37 15 37-15 15-37-15-37-37-15z"/><glyph glyph-name="Zacute" unicode="Ź" horiz-adv-x="578" d="M435 651H54v59h488L117 59h435V0H10zM329 913h82L302 768h-55z"/><glyph glyph-name="zacute" unicode="ź" horiz-adv-x="473" d="M339 445H49v55h393L121 55h315V0H19zm-51 265h81L251 545h-54z"/><glyph glyph-name="Zdotaccent" unicode="Ż" horiz-adv-x="578" d="M435 651H54v59h488L117 59h435V0H10zM298 791q-22 0-37 15t-15 37 15 37 37 15 37-15 15-37-15-37-37-15z"/><glyph glyph-name="zdotaccent" unicode="ż" horiz-adv-x="473" d="M339 445H49v55h393L121 55h315V0H19zm-94 135q-22 0-37 15t-15 37 15 37 37 15 37-15 15-37-15-37-37-15z"/><glyph glyph-name="Zcaron" unicode="Ž" horiz-adv-x="578" d="M435 651H54v59h488L117 59h435V0H10zM127 883l31 43 141-93 141 93 32-44-173-111z"/><glyph glyph-name="zcaron" unicode="ž" horiz-adv-x="473" d="M339 445H49v55h393L121 55h315V0H19zm-94 140L78 697l27 43 140-95 139 95 27-44z"/><glyph glyph-name="uni0218" unicode="Ș" horiz-adv-x="527" d="M228-50h81L191-215h-54zm29 42q-37 0-70 8.5t-61.5 23-51 32T37 91l47 43q13-16 31-31t40-26.5T202.5 58t54.5-7q73 0 117.5 33t44.5 89q0 59-34.5 92T289 325l-75 32q-81 35-116 82T63 551q0 38 17 69t45.5 52.5 65 33.5 74.5 12q63 0 114-25.5t84-64.5l-46-43q-28 33-64 53.5T262 659q-28 0-53-7.5t-43.5-22T136 594t-11-47q0-45 24.5-76t85.5-57l75-32q36-15 67.5-34t54.5-43 36.5-54.5T482 182q0-41-15-75.5t-44-60-71-40T257-8z"/><glyph glyph-name="uni0219" unicode="ș" horiz-adv-x="417" d="M169-50h81L132-215H78zm35 42q-54 0-99.5 25T36 90l49 30q20-36 49-55.5T207 45q23 0 43.5 5.5t35.5 16 24 26 9 34.5q0 37-22.5 59T220 227l-46 16q-34 12-56 28t-35 35-18.5 39-5.5 40q0 25 11 47.5t31 39.5 48 26.5 61 9.5q48 0 85.5-23.5T352 416l-49-21q-11 27-35 43.5T208 455q-37 0-63.5-18.5T118 384q0-29 16-52.5t67-41.5l49-17q63-23 95-58t32-87q0-27-11.5-51.5t-33.5-43-54.5-30T204-8z"/><glyph glyph-name="uni021A" unicode="Ț" horiz-adv-x="495" d="M216 651H15v59h465v-59H278V0h-62v651zm-6-701h81L173-215h-54z"/><glyph glyph-name="uni021B" unicode="ț" horiz-adv-x="337" d="M11 500h100v122l57 28V500h149l-13-55H168V134q0-42 17.5-60.5T249 55h61V0h-62q-67 0-102 30t-35 102v313H24zM187-50h81L150-215H96z"/><glyph glyph-name="uni0232" unicode="Ȳ" horiz-adv-x="606" d="M272 302L13 710h71l220-350 219 350h70L334 302V0h-62v302zM164 859h278v-50H164v50z"/><glyph glyph-name="uni0233" unicode="ȳ" horiz-adv-x="502" d="M222 55L8 500h64l180-389 181 389h64L168-184h-61zM113 680h278v-51H113v51z"/><glyph glyph-name="uni0237" unicode="ȷ" horiz-adv-x="231" d="M-15-129h34q42 0 57 19.5T91-48v548h57V-41q0-72-28.5-107.5T18-184h-33v55z"/><glyph glyph-name="circumflex" unicode="ˆ" horiz-adv-x="356" d="M8 606l167 112 166-111-27-44-139 95-140-95z"/><glyph glyph-name="caron" unicode="ˇ" horiz-adv-x="366" d="M175 585L8 697l27 43 140-95 139 95 27-44z"/><glyph glyph-name="breve" unicode="˘" horiz-adv-x="338" d="M167 591q-66 0-103.5 34.5T22 710h53q4-29 26.5-51.5T168 636q45 0 68 22.5t27 51.5h53q-5-50-42-84.5T167 591z"/><glyph glyph-name="dotaccent" unicode="˙" horiz-adv-x="121" d="M61 580q-22 0-37 15T9 632t15 37 37 15 37-15 15-37-15-37-37-15z"/><glyph glyph-name="ring" unicode="˚" horiz-adv-x="223" d="M113 610q22 0 37.5 15.5T166 664q0 22-15.5 38T113 718t-38-16-16-38q0-23 16-38.5t38-15.5zm0-37q-19 0-36 7t-29.5 19.5-19.5 29-7 35.5 7 35.5 19.5 29T77 748t36 7q38 0 65-26.5t27-64.5-27-64.5-65-26.5z"/><glyph glyph-name="ogonek" unicode="˛" horiz-adv-x="203" d="M127-174q-20 0-39 4.5T54.5-155 31-130t-9 36q0 17 8 31.5T51.5-36 82-15t35 15h62q-45-20-68-39.5T88-82q0-17 14-29t43-12q21 0 36 5v-49q-24-7-54-7z"/><glyph glyph-name="tilde" unicode="˜" horiz-adv-x="396" d="M36 585q9 42 36.5 64t60.5 22q21 0 38-7.5t32.5-16 29.5-16 28-7.5q22 0 33.5 12t16.5 35h52l-3-14q-8-37-33.5-61T264 572q-21 0-39 7.5t-33.5 16-30 16T133 619q-21 0-32-12t-16-35H33z"/><glyph glyph-name="hungarumlaut" unicode="˝" horiz-adv-x="364" d="M102 710h81L65 545H11zm160 0h81L225 545h-54z"/><glyph glyph-name="Wgrave" unicode="Ẁ" horiz-adv-x="898" d="M13 710h64l178-549 194 557 194-557 178 549h64L644-8 449 557 254-8zm300 203h82l82-145h-56z"/><glyph glyph-name="wgrave" unicode="ẁ" horiz-adv-x="691" d="M15 500h59l126-400 146 408 145-408 126 400h59L517 0h-41L346 359 218 0h-43zm186 210h81l91-165h-54z"/><glyph glyph-name="Wacute" unicode="Ẃ" horiz-adv-x="898" d="M13 710h64l178-549 194 557 194-557 178 549h64L644-8 449 557 254-8zm491 203h82L477 768h-55z"/><glyph glyph-name="wacute" unicode="ẃ" horiz-adv-x="691" d="M15 500h59l126-400 146 408 145-408 126 400h59L517 0h-41L346 359 218 0h-43zm395 210h81L373 545h-54z"/><glyph glyph-name="Wdieresis" unicode="Ẅ" horiz-adv-x="898" d="M13 710h64l178-549 194 557 194-557 178 549h64L644-8 449 557 254-8zm325 81q-22 0-37 15t-15 37 15 37 37 15 37-15 15-37-15-37-37-15zm220 0q-22 0-37 15t-15 37 15 37 37 15 37-15 15-37-15-37-37-15z"/><glyph glyph-name="wdieresis" unicode="ẅ" horiz-adv-x="691" d="M15 500h59l126-400 146 408 145-408 126 400h59L517 0h-41L346 359 218 0h-43zm221 80q-22 0-37 15t-15 37 15 37 37 15 37-15 15-37-15-37-37-15zm220 0q-22 0-37 15t-15 37 15 37 37 15 37-15 15-37-15-37-37-15z"/><glyph glyph-name="uni1ECA" unicode="Ị" horiz-adv-x="266" d="M102 710h62V0h-62v710zm31-894q-22 0-37 15t-15 37 15 37 37 15 37-15 15-37-15-37-37-15z"/><glyph glyph-name="uni1ECB" unicode="ị" horiz-adv-x="223" d="M84 627q-10 7-16 17.5T62 668q0 20 15 35t35 15 35-15 15-35q0-13-6-23.5T140 627H84zm-1-127h57V0H83v500zm29-684q-22 0-37 15t-15 37 15 37 37 15 37-15 15-37-15-37-37-15z"/><glyph glyph-name="uni1ECC" unicode="Ọ" horiz-adv-x="826" d="M413 51q64 0 119 23.5t95 64 62.5 96T712 355q0 64-22.5 120T627 571.5t-95 64T413 659t-119-23.5-95-64-62.5-96.5T114 355q0-65 22.5-120.5t62.5-96 95-64T413 51zm0-59q-77 0-143 27.5T155 96 78 211.5 50 355t28 143.5 77 115T270 690t143 28q76 0 142.5-28T671 613.5t77-115T776 355t-28-143.5T671 96 555.5 19.5 413-8zm0-176q-22 0-37 15t-15 37 15 37 37 15 37-15 15-37-15-37-37-15z"/><glyph glyph-name="uni1ECD" unicode="ọ" horiz-adv-x="610" d="M305 45q45 0 82 16.5t63.5 44 40.5 65 14 79.5-14 79.5-40.5 65-63.5 44-82 16.5-81.5-16.5-63-44-41-65T105 250t14.5-79.5 41-65 63-44T305 45zm0-53q-57 0-104.5 20.5t-82 55.5T65 150 46 250t19 100 53.5 82 82 55.5T305 508t104.5-20.5 82-55.5 53.5-82 19-100-19-100-53.5-82-82-55.5T305-8zm0-176q-22 0-37 15t-15 37 15 37 37 15 37-15 15-37-15-37-37-15z"/><glyph glyph-name="uni1EE4" unicode="Ụ" horiz-adv-x="743" d="M371-8q-62 0-113 18t-87.5 52.5-57 85T93 263v447h62V260q0-53 15.5-92t44-65T283 64t88-13q49 0 89 13t68.5 39 44 65 15.5 92v450h62V263q0-65-20.5-115.5t-57.5-85T483.5 10 371-8zm1-176q-22 0-37 15t-15 37 15 37 37 15 37-15 15-37-15-37-37-15z"/><glyph glyph-name="uni1EE5" unicode="ụ" d="M431 70q-31-44-77-61T260-8q-39 0-73 13t-58.5 38T90 103.5 76 184v316h57V192q0-72 39.5-109.5T275 45t102.5 34 53.5 88v333h57V0h-57v70zM282-184q-22 0-37 15t-15 37 15 37 37 15 37-15 15-37-15-37-37-15z"/><glyph glyph-name="Ygrave" unicode="Ỳ" horiz-adv-x="606" d="M272 302L13 710h71l220-350 219 350h70L334 302V0h-62v302zm-88 611h82l82-145h-56z"/><glyph glyph-name="ygrave" unicode="ỳ" horiz-adv-x="502" d="M222 55L8 500h64l180-389 181 389h64L168-184h-61zm-94 655h81l91-165h-54z"/><glyph glyph-name="endash" unicode="–" horiz-adv-x="548" d="M68 298h412v-55H68v55z"/><glyph glyph-name="emdash" unicode="—" horiz-adv-x="844" d="M68 298h708v-55H68v55z"/><glyph glyph-name="quoteleft" unicode="‘" horiz-adv-x="229" d="M118 572h42V469H64v104l54 137h44z"/><glyph glyph-name="quoteright" unicode="’" horiz-adv-x="220" d="M112 607H70v103h96V606l-54-137H68z"/><glyph glyph-name="quotesinglbase" unicode="‚" horiz-adv-x="244" d="M116 0H74v103h96V-1l-54-137H72z"/><glyph glyph-name="quotedblleft" unicode="“" horiz-adv-x="413" d="M118 572h42V469H64v104l54 137h44zm184 0h42V469h-96v104l54 137h44z"/><glyph glyph-name="quotedblright" unicode="”" horiz-adv-x="404" d="M112 607H70v103h96V606l-54-137H68zm184 0h-42v103h96V606l-54-137h-44z"/><glyph glyph-name="quotedblbase" unicode="„" horiz-adv-x="428" d="M116 0H74v103h96V-1l-54-137H72zm184 0h-42v103h96V-1l-54-137h-44z"/><glyph glyph-name="bullet" unicode="•" horiz-adv-x="430" d="M215 166q-28 0-53 10.5t-43.5 29-29 43.5T79 302t10.5 53 29 43.5 43.5 29 53 10.5 53-10.5 43.5-29 29-43.5 10.5-53-10.5-53-29-43.5-43.5-29-53-10.5z"/><glyph glyph-name="ellipsis" unicode="…" horiz-adv-x="638" d="M117-8Q92-8 75 10T58 51q0 25 17 43t42 18 42-18 17-43q0-23-17-41T117-8zm202 0q-25 0-42 18t-17 41q0 25 17 43t42 18 42-18 17-43q0-23-17-41T319-8zm202 0q-25 0-42 18t-17 41q0 25 17 43t42 18 42-18 17-43q0-23-17-41T521-8z"/><glyph glyph-name="guilsinglleft" unicode="‹" horiz-adv-x="298" d="M48 250l147 213 46-30-126-183L241 67l-46-30z"/><glyph glyph-name="guilsinglright" unicode="›" horiz-adv-x="298" d="M103 37L57 67l126 183L57 433l46 30 147-213z"/><glyph glyph-name="Euro" unicode="€" horiz-adv-x="759" d="M66 460h117q16 57 47.5 104.5t76 81.5 100 53T525 718q67 0 114-14.5t89-41.5l-25-49q-35 23-77.5 37.5T525 665q-51 0-96-15t-81.5-42-63.5-64.5-42-83.5h384l-24-45H231q-2-15-3.5-30t-1.5-30q0-14 1-28t3-28h312l-23-45H240q15-47 42-85.5t64-66T428.5 60 525 45q68 0 126 26V13Q592-8 525-8q-63 0-119 19.5t-101 54-76.5 82.5T182 254H42l24 45h107q-2 14-3 28t-1 28q0 15 1 30t3 30H42z"/><glyph glyph-name="minus" unicode="−" horiz-adv-x="590" d="M75 298h440v-55H75v55z"/><glyph glyph-name="uniFB01" unicode="ﬁ" horiz-adv-x="581" d="M19 500h91q-19 16-29.5 39.5T70 590q0 53 40.5 86.5T219 710h101v-54H216q-36 0-62-18t-26-56q0-41 25.5-61.5T210 500h110v-55H174V0h-57v445H19v55zm423 127q-10 7-16 17.5t-6 23.5q0 20 15 35t35 15 35-15 15-35q0-13-6-23.5T498 627h-56zm-1-127h57V0h-57v500z"/><glyph glyph-name="uniFB02" unicode="ﬂ" horiz-adv-x="582" d="M19 500h91q-19 16-29.5 39.5T70 590q0 53 40.5 86.5T219 710h101v-54H216q-36 0-62-18t-26-56q0-41 25.5-61.5T210 500h110v-55H174V0h-57v445H19v55zm423 210h57V0h-57v710z"/><glyph glyph-name="glyph332" horiz-adv-x="121" d="M61-184q-22 0-37 15T9-132t15 37 37 15 37-15 15-37-15-37-37-15z"/><glyph glyph-name="glyph334" horiz-adv-x="216" d="M102-50h81L65-215H11z"/><glyph glyph-name="glyph338" horiz-adv-x="500" d="M243 710h58l-42-167h-41z"/><glyph glyph-name="glyph339" horiz-adv-x="214" d="M111 913h82L84 768H29z"/><glyph glyph-name="glyph340" horiz-adv-x="338" d="M167 781q-66 0-103.5 35T22 900h53q4-29 26.5-51.5T168 826q45 0 68 22.5t27 51.5h53q-3-24-13.5-46t-29-38-45-25.5T167 781z"/><glyph glyph-name="glyph341" horiz-adv-x="357" d="M6 883l31 43 141-93 141 93 32-44-173-111z"/><glyph glyph-name="glyph342" horiz-adv-x="357" d="M6 816l172 112 173-111-32-44-141 93-141-93z"/><glyph glyph-name="glyph343" horiz-adv-x="344" d="M61 791q-22 0-37 15T9 843t15 37 37 15 37-15 15-37-15-37-37-15zm220 0q-22 0-37 15t-15 37 15 37 37 15 37-15 15-37-15-37-37-15z"/><glyph glyph-name="glyph344" horiz-adv-x="124" d="M61 791q-22 0-37 15T9 843t15 37 37 15 37-15 15-37-15-37-37-15z"/><glyph glyph-name="glyph345" horiz-adv-x="214" d="M24 913h82l82-145h-56z"/><glyph glyph-name="glyph346" horiz-adv-x="412" d="M110 913h82L84 768H28zm200 0h82L284 768h-56z"/><glyph glyph-name="glyph347" horiz-adv-x="322" d="M22 859h278v-50H22v50z"/><glyph glyph-name="glyph348" horiz-adv-x="223" d="M111 788q21 0 35.5 13t14.5 35-14.5 35.5T111 885q-20 0-34.5-13.5T62 836t14.5-35 34.5-13zm0-37q-37 0-63 24t-26 61q0 38 26.5 61.5T111 921q38 0 64.5-23.5T202 836q0-37-26.5-61T111 751z"/><glyph glyph-name="glyph349" horiz-adv-x="396" d="M264 789q-21 0-39 7.5T191.5 813t-30 16.5T133 837q-21 0-32-11.5T85 791H30l3 14q9 42 38 64.5t62 22.5q21 0 38-7.5t32.5-16 29.5-16 28-7.5q22 0 33.5 11t16.5 34h55l-3-14q-8-40-35.5-63.5T264 789z"/></font>
</defs>
</svg>
