<svg xmlns="http://www.w3.org/2000/svg" version="1.1"><defs><font id="Font" horiz-adv-x="612"><font-face font-family="Font" font-weight="250" font-style="italic" font-stretch="normal" units-per-em="1000" panose-1="2 11 2 0 3 0 0 0 0 0" ascent="800" descent="-200" x-height="500" cap-height="710" bbox="-111 -215 1180 928" underline-thickness="19" underline-position="-108" slope="-12" unicode-range="U+000D-FB02"/><glyph glyph-name=".notdef" horiz-adv-x="496"/><glyph glyph-name="glyph1" horiz-adv-x="0"/><glyph glyph-name="uni000D" horiz-adv-x="260"/><glyph glyph-name="space" horiz-adv-x="260"/><glyph glyph-name="exclam" unicode="!" horiz-adv-x="234" d="M161 508l43 202h22l-43-202-78-345H90zM74 0q-4-4-9-4-3 0-6 1t-4 3l22 103h19z"/><glyph glyph-name="quotedbl" unicode="&quot;" horiz-adv-x="380" d="M146 710h19V485h-19v225zm202 0h19V485h-19v225z"/><glyph glyph-name="numbersign" unicode="#" horiz-adv-x="707" d="M452 224H224L154 0h-20l70 224H39v19h171l73 231H119v19h170l68 217h19l-68-217h229l68 217h18l-68-217h160v-19H549l-72-231h157v-19H471L401 0h-19zm-222 19h228l73 231H302z"/><glyph glyph-name="dollar" unicode="$" horiz-adv-x="515" d="M453 163q0-32-12.5-63T402 45 336 6.5 241-8q-8 0-16 .5T209-6l-18-81h-19l19 84q-32 6-59.5 18t-50 29T43 81.5 18 124l18 9q10-24 29-46.5t45.5-39 60-26.5T243 11q47 0 82.5 12T385 55.5t36 48 12 58.5q0 32-8 57.5t-23 47-37 40-51 37.5l-90 59q-48 32-72 68.5T128 556q0 75 49.5 118.5T317 718q6 0 12.5-.5T343 716l18 82h19l-19-84q40-8 77-30.5t67-66.5l-17-11q-34 52-79 72.5T314 699q-36 0-66.5-9.5T195 662t-34.5-44.5T148 557q0-48 23-80t68-61l90-59q61-40 92.5-84.5T453 163z"/><glyph glyph-name="percent" unicode="%" horiz-adv-x="1118" d="M295 339q37 0 69.5 14t56.5 38 38 56.5 14 69.5-14 69.5-38 56.5-56.5 38-69.5 14-69.5-14-56.5-38-38-56.5-14-69.5 14-69.5 38-56.5 56.5-38 69.5-14zm0-19q-41 0-77 15.5T155.5 378t-42 62.5T98 517q0 40 15.5 76t42 63 62.5 42.5 77 15.5q40 0 76-15.5t63-42.5 42.5-63 15.5-76q0-41-15.5-76.5T434 378t-63-42.5-76-15.5zm530 390h22L337 0h-22zm42-695q37 0 69.5 14T993 67t38 56.5 14 69.5-14 69.5-38 56.5-56.5 38-69.5 14-69.5-14-56.5-38-38-56.5-14-69.5 14-69.5T741 67t56.5-38T867 15zm0-19q-41 0-77 15.5T727.5 54t-42 62.5T670 193q0 40 15.5 76t42 63 62.5 42.5 77 15.5q40 0 76-15.5t63-42.5 42.5-63 15.5-76q0-41-15.5-76.5T1006 54t-63-42.5T867-4z"/><glyph glyph-name="ampersand" unicode="&amp;" horiz-adv-x="705" d="M218-8q-31 0-59.5 11T108 34 73 83.5 60 150q0 45 15 78.5t40 59 58.5 46T243 374l50 28q-25 33-43 68t-18 82q0 39 14 70t37.5 52 55 32.5T405 718q28 0 52-9t42-25 28-39 10-50q0-34-18.5-61.5t-46.5-50-61-40.5-62-33l-28-14 161-211 144 157 13-13-145-159L624 0h-23L481 156l-3-3q-30-33-59.5-62.5T358 39 292.5 4.5 218-8zm4 19q35 0 66 11.5t60 32 57.5 49T464 165l6 6-165 216-49-27q-36-20-68-40t-56-44-38-54-14-69q0-35 11.5-61.5t31-44.5 45-27 54.5-9zm30 544q0-42 15.5-74t42.5-70l27 13q37 18 70 37t57.5 39.5 38.5 43 14 49.5q0 46-31 76t-84 30q-27 0-54-9.5T300 662t-34.5-45-13.5-62z"/><glyph glyph-name="quotesingle" unicode="'" horiz-adv-x="178" d="M146 710h19V485h-19v225z"/><glyph glyph-name="parenleft" unicode="(" horiz-adv-x="226" d="M87-116Q70-50 62 13.5T54 131q0 78 10.5 147.5t35 138.5T164 559t100 159l17-8q-55-78-94.5-148T122 423.5t-36.5-139T74 135q0-54 8-118.5T107-108l-20-8z"/><glyph glyph-name="parenright" unicode=")" horiz-adv-x="226" d="M161 718q17-66 25-129.5t8-117.5q0-78-10.5-147.5t-35-138.5T84 43-16-116l-17 8Q22-30 61.5 40T126 178.5 162.5 317 174 467q0 54-8 118.5T141 710l20 8z"/><glyph glyph-name="asterisk" unicode="*" horiz-adv-x="427" d="M179 443l82 113-135 48 6 19 135-47v134h19V577l135 44 6-18-134-44 83-113-17-12-82 113-82-114z"/><glyph glyph-name="plus" unicode="+" horiz-adv-x="590" d="M79 280h211v201h19V280h210v-19H309V54h-19v207H79v19z"/><glyph glyph-name="comma" unicode="," horiz-adv-x="182" d="M39 6l21 97h19L57-1l-83-137h-21z"/><glyph glyph-name="hyphen" unicode="-" horiz-adv-x="380" d="M83 280h227l-4-19H79z"/><glyph glyph-name="period" unicode="." horiz-adv-x="174" d="M31 0l22 103h19L50 0H31z"/><glyph glyph-name="slash" unicode="/" horiz-adv-x="337" d="M356 710h20L28 0H7z"/><glyph glyph-name="zero" unicode="0" horiz-adv-x="590" d="M253 10q46 0 84.5 20.5t69.5 56 54.5 82 39 98.5T524 373.5t8 106.5q0 60-12 101.5t-33 68-48.5 38T381 699q-46 0-84.5-20.5T227 623t-54.5-81.5-39-98.5T110 336t-8-107q0-60 12-101.5T147 60t48.5-38T253 10zm-1-19q-33 0-64 13t-54.5 41T96 117.5 82 226q0 83 18.5 170.5t56 159 94 117T382 718q33 0 64-12.5t54.5-40.5 37.5-73 14-109q0-55-8.5-113t-25-112.5-41.5-103T418.5 70t-75-57.5T252-9z"/><glyph glyph-name="one" unicode="1" horiz-adv-x="590" d="M480 681L152 542l4 20 349 148L354 0h-19z"/><glyph glyph-name="two" unicode="2" horiz-adv-x="590" d="M396 325q34 29 59.5 54t42.5 50.5 26 52.5 9 61q0 37-13 66t-35 49-51 30.5-60 10.5q-39 0-72.5-13.5t-59-37-41-56T183 523h-20q3 41 20 76.5t45 62 65 41.5 81 15q43 0 76-14.5t56-38.5 35-56 12-66q0-63-28.5-109.5T438 336L76 19h381l-4-19H25z"/><glyph glyph-name="three" unicode="3" horiz-adv-x="590" d="M485 234q0-51-18.5-95t-51-77T338 10.5 241-8q-69 0-118.5 28.5T49 94l16 11q25-46 73.5-70T241 11q47 0 88 16.5T400 74t47.5 71 17.5 89q0 43-15.5 77.5t-42 58.5-60 36.5T278 419h-31l250 272H190l4 19h346L289 438q47-3 83.5-21t61.5-46 38-63.5 13-73.5z"/><glyph glyph-name="four" unicode="4" horiz-adv-x="590" d="M397 208H-1l526 510-105-491h153l-4-19H416L372 0h-19zm4 19l92 435L45 227h356z"/><glyph glyph-name="five" unicode="5" horiz-adv-x="590" d="M495 236q0-51-18.5-95.5t-51-77.5T348 11 251-8q-65 0-111.5 28T68 92l17 10q25-45 70-68t96-23q47 0 88 17t71 47 47.5 71.5T475 236q0 43-15.5 77.5t-42 57.5-60 35.5T288 419q-37 0-70-10.5T157 378l-10 12 74 320h332l-4-19H237l-67-282q26 14 56 21.5t63 7.5q49 0 87.5-17t64.5-45 40-64.5 14-75.5z"/><glyph glyph-name="six" unicode="6" horiz-adv-x="590" d="M521 236q0-51-18.5-95.5t-51-77.5T374 11 277-8q-50 0-88.5 17T124 54t-40 64.5T70 195q0 47 16 88t44 74l293 353h24L196 409q53 29 119 29 49 0 87.5-17t64.5-45 40-64.5 14-75.5zM90 195q0-44 15.5-78.5t42-58 60-35.5T277 11q47 0 88 17t71 47 47.5 71.5T501 236q0 43-15.5 77.5t-42 57.5-60 35.5T314 419q-47 0-87.5-17t-71-47-48-71T90 195z"/><glyph glyph-name="seven" unicode="7" horiz-adv-x="590" d="M589 691H168l4 19h454L98 0H74z"/><glyph glyph-name="eight" unicode="8" horiz-adv-x="590" d="M514 237q0-51-18-95.5t-50.5-78-77-52.5T271-8q-50 0-88 16.5t-64.5 44-40 63.5T65 192q0 46 15 87.5t42 73.5 65 53.5 84 27.5q-35 18-53 50t-18 70q0 34 12.5 64t34 52.5 50.5 35 63 12.5 60-11.5 44-30 27-43 9-50.5q0-58-32.5-101T384 425q63-22 96.5-73.5T514 237zM85 194q0-44 15-78.5T141 58t60-35 72-12q45 0 85 17.5T428.5 76t48 71 17.5 88q0 44-15 78t-41 57.5-60 35.5-72 12q-45 0-85-17.5T150.5 353t-48-71T85 194zm256 244q28 0 53.5 11t44.5 30 30 45.5 11 56.5q0 29-10 51t-27 37-39 22.5-45 7.5q-29 0-54-11t-44-30-30-45.5-11-56.5q0-29 10-51t27-37 39-22.5 45-7.5z"/><glyph glyph-name="nine" unicode="9" horiz-adv-x="590" d="M114 474q0 51 18.5 95.5t51 77.5 77 52 97.5 19q49 0 88-17t65-45 40-64.5 14-76.5q0-47-16-88t-44-74L212 0h-24l251 301q-53-29-119-29-49 0-87.5 17T168 334t-40 64.5-14 75.5zm431 41q0 44-15.5 78.5t-42 58-60 35.5-69.5 12q-47 0-88-17t-71-47-47.5-71.5T134 474q0-44 15.5-78t42-57 60-35.5T321 291q46 0 87 17t71.5 47 48 71 17.5 89z"/><glyph glyph-name="colon" unicode=":" horiz-adv-x="170" d="M107 397l22 103h19l-22-103h-19zM23 0l22 103h19L42 0H23z"/><glyph glyph-name="semicolon" unicode=";" horiz-adv-x="215" d="M137 397l22 103h19l-22-103h-19zM54 6l21 97h19L72-1l-83-137h-21z"/><glyph glyph-name="equal" unicode="=" horiz-adv-x="590" d="M73 161h449v-19H73v19zm0 238h449v-19H73v19z"/><glyph glyph-name="question" unicode="?" horiz-adv-x="546" d="M261 291h10q52 0 97 17.5t78.5 47.5 52.5 70.5 19 87.5q0 42-13.5 76.5T466 649t-59 37-74 13q-45 0-83.5-16.5T182 638t-47.5-65.5T111 494H91q5 46 25.5 87t52.5 71.5 74.5 48T334 718q43 0 80.5-14.5t65-40.5 43-64 15.5-84q0-49-18.5-92.5t-53-76-83-52.5T276 271l-16-70h-19zM207-4q-7 0-8 4l22 102h19L218 0q-4-4-11-4z"/><glyph glyph-name="at" unicode="@" horiz-adv-x="842" d="M477 554q43 0 77.5-17.5T610 491l9 42h18l-52-248q-5-24-1-43t14.5-32 26.5-20 35-7q27 0 53 15t46.5 43.5 33 70T805 406q0 72-24.5 127T713 625t-102.5 56T482 700q-83 0-152-28t-119.5-76T132 483t-28-139q0-72 24-133t68-105.5 106-70T441 10q53 0 105 10t97 32l7-18Q603 13 547.5 2.5T441-8q-82 0-147.5 26.5T181.5 92 110 204 85 346q0 79 30 147t83.5 118 127 78.5T485 718q78 0 140.5-22T732 633.5t68-98T824 407q0-58-14.5-103T772 228t-53-47-60-16q-35 0-59 17t-33 45q-30-32-69-47t-77-15q-40 0-70 13.5T301 215t-30 53-10 62q0 44 16.5 84.5t45 71.5 68 49.5T477 554zm128-87q-20 34-55.5 51.5T476 536q-42 0-77.5-16.5t-62-44.5-41.5-65.5-15-79.5q0-30 9.5-57t28-47 45.5-31.5 62-11.5q37 0 74.5 17t63.5 49q-1 13 2 31z"/><glyph glyph-name="A" unicode="A" horiz-adv-x="671" d="M435 718L614 0h-19l-63 249H140L-28 0h-22zM153 268h375L427 673z"/><glyph glyph-name="B" unicode="B" horiz-adv-x="633" d="M212 710h192q48 0 82.5-12.5t57-33 33.5-48 11-57.5q0-40-13.5-72t-36-56-51.5-40-60-24q27-5 51.5-16.5t43.5-31 30.5-46.5 11.5-61q0-42-16.5-80.5t-51-67.5-87-46.5T285 0H61zm79-691q63 0 110.5 15.5t79 41.5 47.5 61.5 16 74.5q0 31-11.5 57.5t-34 46-57 30.5-79.5 11H156L84 19h207zm62 357q48 0 88 14.5t68 39 43.5 57T568 556q0 28-10 52.5t-30.5 43-50.5 29-69 10.5H227l-67-315h193z"/><glyph glyph-name="C" unicode="C" horiz-adv-x="686" d="M628 49Q583 22 528 7T410-8q-80 0-141.5 27.5T165 93t-64 106.5T79 325q0 75 28 146t81 126 128.5 88T487 718q75 0 134-24.5T722 627l-14-14q-39 40-94 63t-127 23q-89 0-160.5-30.5t-122-82-78-119.5T99 325q0-62 20.5-118.5t60-100T277 37t133-26q60 0 112 14.5T618 66l10-17z"/><glyph glyph-name="D" unicode="D" horiz-adv-x="755" d="M261 19q102 0 184.5 33T586 140.5 675.5 268 707 418q0 58-20.5 108T627 613t-95.5 57.5T404 691H227L84 19h177zm-49 691h192q76 0 136-22.5T641.5 626t63.5-92.5T727 418q0-84-34-159.5t-95.5-133-148-91.5T258 0H61z"/><glyph glyph-name="E" unicode="E" horiz-adv-x="546" d="M212 710h389l-4-19H227l-67-315h310l-4-19H156L84 19h370l-4-19H61z"/><glyph glyph-name="F" unicode="F" horiz-adv-x="516" d="M212 710h384l-4-19H227l-67-315h295l-4-19H156L80 0H61z"/><glyph glyph-name="G" unicode="G" horiz-adv-x="763" d="M663 61Q605 25 544 8.5T410-8q-80 0-141.5 27.5T165 93t-64 106.5T79 325q0 75 28 146t81 126 128.5 88T487 718q75 0 136.5-24.5T727 627l-14-14q-39 40-96.5 63T487 699q-89 0-160.5-30.5t-122-82-78-119.5T99 325q0-62 20.5-118.5t60-100T277 37t133-26q68 0 124.5 15T646 73l60 284H475l13 19h242L663 61z"/><glyph glyph-name="H" unicode="H" horiz-adv-x="768" d="M212 710h19l-71-334h502l71 334h19L601 0h-19l76 357H156L80 0H61z"/><glyph glyph-name="I" unicode="I" horiz-adv-x="247" d="M212 710h19L80 0H61z"/><glyph glyph-name="J" unicode="J" horiz-adv-x="517" d="M399 187Q378 87 320.5 39.5T178-8q-36 0-67.5 9T55 28.5t-37.5 46T4 140q0 11 1.5 22.5T9 187h19q-2-12-3.5-23T23 142q0-63 41.5-97T178 11q85 0 134.5 46T380 187l111 523h19L399 187z"/><glyph glyph-name="K" unicode="K" horiz-adv-x="575" d="M502 0L156 353l462 357h28L183 352 528 0h-26zM212 710h19L80 0H61z"/><glyph glyph-name="L" unicode="L" horiz-adv-x="514" d="M212 710h19L84 19h370l-4-19H61z"/><glyph glyph-name="M" unicode="M" horiz-adv-x="882" d="M214 718l238-414 416 414L715 0h-19l140 660-388-386-226 392L80 0H61z"/><glyph glyph-name="N" unicode="N" horiz-adv-x="794" d="M222 668L80 0H61l153 718L617 42l142 668h19L625-8z"/><glyph glyph-name="O" unicode="O" horiz-adv-x="852" d="M99 325q0-62 20.5-118.5t60-100T277 37t133-26q89 0 160.5 30.5t122 82 78 119.5T798 385q0 62-20.5 118.5t-60 100T620 673t-133 26q-89 0-160.5-30.5t-122-82-78-119.5T99 325zm719 60q0-75-28-146t-81-126-128.5-88T410-8q-80 0-141.5 27.5T165 93t-64 106.5T79 325q0 75 28 146t81 126 128.5 88T487 718q79 0 141-27.5T732 617t64-106.5T818 385z"/><glyph glyph-name="P" unicode="P" horiz-adv-x="565" d="M212 710h195q47 0 81.5-13t56.5-34.5 32.5-50.5 10.5-61q0-43-15.5-82.5t-48-70T443 350t-115-18H151L80 0H61zm119-359q57 0 101.5 15.5T507 409t45.5 63.5T568 550q0 30-9.5 55.5t-29 44.5-50 30-72.5 11H227l-72-340h176z"/><glyph glyph-name="Q" unicode="Q" horiz-adv-x="858" d="M818 385q0-88-37.5-167.5T674 81l84-106-14-11-84 106q-50-36-112.5-57T410-8q-80 0-141.5 27.5T165 93t-64 106.5T79 325q0 75 28 146t81 126 128.5 88T487 718q79 0 141-27.5T732 617t64-106.5T818 385zM99 325q0-62 20.5-118.5t60-100T277 37t133-26q72 0 131.5 19.5T649 85l-90 115 14 11 90-115q65 53 100 128.5T798 385q0 62-20.5 118.5t-60 100T620 673t-133 26q-89 0-160.5-30.5t-122-82-78-119.5T99 325z"/><glyph glyph-name="R" unicode="R" horiz-adv-x="592" d="M298 352H155L80 0H61l151 710h179q46 0 81-12t57.5-32 34-47.5T575 560q0-43-15.5-80.5T512 414t-80-44.5T320 352L537 0h-22zm19 19q60 0 105 14.5t74.5 40 44 60T555 560q0 57-40.5 94T392 691H227l-68-320h158z"/><glyph glyph-name="S" unicode="S" horiz-adv-x="517" d="M456 163q0-32-12.5-63T405 45 339 6.5 244-8q-41 0-77 11t-65 29-49.5 42T21 124l18 9q10-24 29-46.5t45.5-39 60-26.5T246 11q47 0 82.5 12T388 55.5t36 48 12 58.5q0 32-8 57.5t-23 47-37 40-51 37.5l-90 59q-48 32-72 68.5T131 556q0 75 49.5 118.5T320 718q50 0 100-22.5t88-78.5l-17-11q-34 52-79 72.5T317 699q-36 0-66.5-9.5T198 662t-34.5-44.5T151 557q0-48 23-80t68-61l90-59q61-40 92.5-84.5T456 163z"/><glyph glyph-name="T" unicode="T" horiz-adv-x="484" d="M325 691H103l4 19h463l-4-19H344L197 0h-19z"/><glyph glyph-name="U" unicode="U" horiz-adv-x="727" d="M626 260Q598 129 523 60.5T324-8Q218-8 158 42T98 188q0 17 1.5 34.5T106 260l96 450h19l-96-450q-5-20-6.5-37t-1.5-34q0-90 56-134t150-44q112 0 184.5 61T607 260l96 450h19l-96-450z"/><glyph glyph-name="V" unicode="V" horiz-adv-x="647" d="M109 710h19L277 39l434 671h22L269-8z"/><glyph glyph-name="W" unicode="W" horiz-adv-x="887" d="M128 710h19l54-652 341 660 61-661 330 653h21L590-8l-61 660L188-8z"/><glyph glyph-name="X" unicode="X" horiz-adv-x="610" d="M320 372L134 710h21l179-324 317 324h26L343 368 547 0h-21L330 354-17 0h-26z"/><glyph glyph-name="Y" unicode="Y" horiz-adv-x="572" d="M288 302L116 710h20l164-388 329 388h24L307 302 243 0h-19z"/><glyph glyph-name="Z" unicode="Z" horiz-adv-x="556" d="M586 691H154l4 19h471L-5 19h488l-4-19H-48z"/><glyph glyph-name="bracketleft" unicode="[" horiz-adv-x="266" d="M205 715h139l-4-19H220L52-96h120l-4-19H29z"/><glyph glyph-name="bracketright" unicode="]" horiz-adv-x="265" d="M82-115H-57l4 19H67l168 792H115l4 19h139z"/><glyph glyph-name="underscore" unicode="_" horiz-adv-x="530" d="M11 0h419l-4-19H7z"/><glyph glyph-name="grave" unicode="`" horiz-adv-x="169" d="M159 710h19l75-165h-19z"/><glyph glyph-name="a" unicode="a" d="M465 71q-39-38-88.5-58.5T273-8q-56 0-98 18.5t-69.5 50-41.5 73T50 220q0 57 21.5 109t60.5 92 92 63.5T340 508q68 0 117.5-27t78.5-71l20 90h19L469 0h-19zM274 11q56 0 108.5 24t89.5 69l59 279q-28 51-80 78.5T338 489q-57 0-106-21.5T147 409t-56.5-86T70 219q0-42 13-80t38.5-66.5 64-45T274 11z"/><glyph glyph-name="b" unicode="b" d="M188 710h19l-60-281q38 38 88 58.5T339 508q56 0 98-19t69.5-50.5T548 366t14-86q0-57-21.5-109T480 79t-92-63.5T272-8q-68 0-118 26.5T75 90L56 0H37zm150-221q-56 0-108.5-24T140 396L81 117q27-52 79-79t114-27q57 0 106 21.5T465 91t56.5 86T542 281q0 42-13 79.5t-38.5 66-64 45.5-88.5 17z"/><glyph glyph-name="c" unicode="c" horiz-adv-x="537" d="M473 58q-37-31-84-48.5T287-8q-57 0-101 19.5t-73.5 52-45 75T52 227q0 58 21 109.5t58.5 89.5 89 60T333 508q27 0 54-5t52.5-15.5 47.5-27 38-38.5l-15-13q-29 40-76.5 60T332 489q-55 0-102.5-20T147 414t-55-83-20-104q0-52 17.5-92.5t47.5-68T206 25t82-14q51 0 94.5 16.5T461 74l12-16z"/><glyph glyph-name="d" unicode="d" d="M465 71q-39-38-88.5-58.5T273-8q-56 0-98 18.5t-69.5 50-41.5 73T50 220q0 57 21.5 109t60.5 92 92 63.5T340 508q68 0 118-27t79-72l64 301h19L469 0h-19zM274 11q56 0 108.5 24t89.5 69l59 278q-27 52-79.5 79.5T338 489q-57 0-106-21.5T147 409t-56.5-86T70 219q0-42 13-80t38.5-66.5 64-45T274 11z"/><glyph glyph-name="e" unicode="e" horiz-adv-x="573" d="M473 58q-37-31-84-48.5T287-8q-57 0-101 19.5t-73.5 52-45 75T52 227q0 58 21 109.5t58.5 89.5 89 60T333 508q39 0 76-11.5t66.5-34.5 47-59 17.5-85q0-28-6-59H74q-1-8-1.5-16t-.5-16q0-52 17.5-92.5t47-68T205 25t82-14q51 0 95 16.5T461 74zM332 489q-49 0-92-15.5t-76.5-44T107 362t-31-85h441q3 21 3 39 0 43-14.5 75t-40 54-60 33-73.5 11z"/><glyph glyph-name="f" unicode="f" horiz-adv-x="293" d="M60 500h128q-21 12-35 36.5T139 589q0 27 11.5 49.5t32 38T231 701t61 9h91l-4-18h-83q-63 0-100-28t-37-76q0-35 24.5-61.5T255 500h84l-4-19H197L95 0H76l102 481H56z"/><glyph glyph-name="g" unicode="g" horiz-adv-x="610" d="M492 63q0-65-20.5-113T414-130t-87.5-48T216-194q-30 0-59 5.5t-54.5 16-46.5 25T22-116l17 14q24-32 72-52.5T217-175q63 0 110.5 17t80 48T456-34.5 472 64q0 13-1 23t-3 15q-39-42-90.5-66T270 12t-97 17-67.5 47T66 145.5 53 230q0 57 20.5 107.5t58 88.5 90 60T337 508q67 0 115-27t77-71l19 90h19l-80-379q2-14 3.5-28t1.5-30zM271 31q56 0 109 27t90 72l53 254q-27 51-77.5 78T335 489q-57 0-105.5-20t-83-55-54-82.5T73 229q0-42 12-78t36.5-63 62-42T271 31z"/><glyph glyph-name="h" unicode="h" horiz-adv-x="581" d="M188 710h19l-65-304q33 44 81 73t113 29q82 0 129-45.5T512 339q0-28-6-58L446 0h-19l61 285q6 28 6 53 0 72-43.5 111.5T336 489q-65 0-116-34t-87-91L56 0H37z"/><glyph glyph-name="i" unicode="i" horiz-adv-x="199" d="M188 710q4 4 11 4t8-4l-19-90h-19zm-45-210h19L56 0H37z"/><glyph glyph-name="j" unicode="j" horiz-adv-x="207" d="M-107-165h8q37 0 60.5 8t38 24 23 41T38-32l113 532h19L54-48q-8-36-19-62T6-152.5t-44.5-24-65.5-7.5h-7zm303 875q4 4 11 4t8-4l-19-90h-19z"/><glyph glyph-name="k" unicode="k" horiz-adv-x="465" d="M188 710h19l-95-447 348 237h32L141 261 415 0h-27L112 263 56 0H37z"/><glyph glyph-name="l" unicode="l" horiz-adv-x="199" d="M188 710h19L56 0H37z"/><glyph glyph-name="m" unicode="m" horiz-adv-x="889" d="M798 299q7 31 7 60 0 62-33.5 96T673 489q-60 0-111-34t-87-92v-1q0-29-8-67L404 0h-19l64 299q7 31 7 60 0 62-33.5 96T324 489q-58 0-106.5-32.5T134 368L56 0H37l106 500h19l-20-91q33 43 79 71t103 28q66 0 103.5-30.5T473 393q33 49 85.5 82T673 508q75 0 113-38.5T824 362q0-29-8-67L753 0h-19z"/><glyph glyph-name="n" unicode="n" horiz-adv-x="580" d="M143 500h19l-20-93q33 44 81 72.5T335 508q82 0 129-45.5T511 339q0-28-6-58L445 0h-19l61 285q6 28 6 53 0 72-43.5 111.5T335 489q-64 0-115-33t-87-90L56 0H37z"/><glyph glyph-name="o" unicode="o" horiz-adv-x="624" d="M71 227q0-51 18.5-91t49-68 70-42.5T291 11q55 0 102.5 19.5t83 54.5 56 83T553 273q0 51-18.5 91t-49 68-70 42.5T333 489q-55 0-102.5-19.5t-83-54.5-56-83T71 227zm502 46q0-59-21.5-110t-59-89-89-60T292-8q-57 0-102 19.5t-75.5 52-47 75T51 227q0 58 21.5 109.5t59 89.5 89 60T332 508q57 0 102-19.5t75.5-52 47-75T573 273z"/><glyph glyph-name="p" unicode="p" d="M143 500h19l-15-71q38 38 88 58.5T339 508q56 0 98-19t69.5-50.5T548 366t14-86q0-57-21.5-109T480 79t-92-63.5T272-8q-68 0-118 26.5T75 90L17-184H-2zm195-11q-56 0-108.5-24.5T140 395L81 118q27-52 79-79.5T274 11q57 0 106 21.5T465 91t56.5 86T542 281q0 42-13 79.5t-38.5 66-64 45.5-88.5 17z"/><glyph glyph-name="q" unicode="q" horiz-adv-x="611" d="M464 70q-38-38-87.5-58T273-8q-56 0-98 18.5t-69.5 50-41.5 73T50 220q0 57 21.5 109t60.5 92 92 63.5T340 508q67 0 117-26.5t79-70.5l19 89h19L429-184h-19zM274 11q55 0 107.5 23.5T471 103l59 281q-27 51-79.5 78T338 489q-57 0-106-21.5T147 409t-56.5-86T70 219q0-42 13-80t38.5-66.5 64-45T274 11z"/><glyph glyph-name="r" unicode="r" horiz-adv-x="321" d="M143 500h19l-19-91q30 42 78.5 70.5T333 508q8 0 16-.5t16-1.5l-5-20q-7 1-15 1.5t-16 .5q-67 0-118-35.5T133 363L56 0H37z"/><glyph glyph-name="s" unicode="s" horiz-adv-x="402" d="M334 116q0-26-10.5-48.5t-30.5-39T244.5 2 180-8q-37 0-65.5 9.5T65 27 31 62.5 11 102l17 9q14-43 53-71.5T182 11q59 0 95.5 29t36.5 73q0 22-7 40t-19 32.5-28 27-35 23.5l-54 32q-37 22-59.5 52.5T89 393q0 48 37 81.5T228 508q26 0 48.5-7.5t39.5-19 29.5-26T364 427l-17-9q-5 11-15 23.5t-25 23-34.5 17.5-44.5 7q-55 0-87-27t-32-69q0-39 21.5-65.5T187 280l54-32q41-24 67-56t26-76z"/><glyph glyph-name="t" unicode="t" horiz-adv-x="289" d="M56 500h116l30 140 21 10-32-150h139l-4-19H187l-73-346q-6-29-6-49 0-34 19.5-50.5T196 19h31l-4-19h-28q-55 0-80.5 19.5T89 84q0 22 6 52l73 345H56v19z"/><glyph glyph-name="u" unicode="u" horiz-adv-x="577" d="M434 92q-32-44-80.5-72T242-8q-85 0-130 41T67 147q0 14 2 28t5 30l62 295h19L92 201q-6-27-6-51 0-66 41-102.5T242 11q66 0 116 33t85 90l78 366h19L434 0h-19z"/><glyph glyph-name="v" unicode="v" horiz-adv-x="511" d="M61 500h20L208 34l326 466h23L201-8z"/><glyph glyph-name="w" unicode="w" horiz-adv-x="737" d="M67 500h20l66-453 269 461 73-462 258 454h23L485-8l-74 461L143-8z"/><glyph glyph-name="x" unicode="x" horiz-adv-x="496" d="M238 259L83 500h22l147-228 244 228h26L262 256 427 0h-22L248 243-12 0h-26z"/><glyph glyph-name="y" unicode="y" horiz-adv-x="515" d="M194 9L63 500h21L208 30l329 470h24L81-184H58z"/><glyph glyph-name="z" unicode="z" horiz-adv-x="472" d="M453 481H101l4 19h395L9 19h380l-4-19H-38z"/><glyph glyph-name="braceleft" unicode="{" horiz-adv-x="260" d="M153-115q-54 0-79 22T49-23q0 14 2 29t6 33l34 157 4 22 2 22q0 23-11 38t-42 15h-2l4 19h2q23 0 38 7.5t25 21 15.5 31T137 409l38 185q8 36 20.5 59.5t31 37 44 19T330 715h7l-4-19h-5q-34 0-57-5.5t-38.5-19-25-36T191 578l-34-160q-10-48-24.5-76.5T83 301q18-9 25-24t7-35q0-12-2-25.5t-5-29.5L77 46q-9-42-9-70 0-38 20.5-55T160-96h6l-4-19h-9z"/><glyph glyph-name="bar" unicode="|" horiz-adv-x="277" d="M132 710h19v-894h-19v894z"/><glyph glyph-name="braceright" unicode="}" horiz-adv-x="261" d="M128 715q54 0 79-22t25-70q0-14-2-29t-6-33l-34-157-4-22-2-22q0-23 11-38t42-15h2l-4-19h-2q-23 0-38-7.5t-25-21-16-31-10-37.5L106 6q-8-36-20.5-59.5t-31-37-44-19T-49-115h-7l4 19h5q34 0 57 5.5t38.5 19 25 36T90 22l34 160q10 48 24.5 76.5T198 299q-18 9-25 24t-7 35q0 12 2 25.5t5 29.5l31 141q9 42 9 70 0 38-20.5 55T121 696h-6l4 19h9z"/><glyph glyph-name="uni00A0" horiz-adv-x="260"/><glyph glyph-name="exclamdown" unicode="¡" horiz-adv-x="218" d="M66-4L28-183H6L44-4l78 345h15zm86 504q4 4 9 4 3 0 6-1t4-3l-22-103h-19z"/><glyph glyph-name="sterling" unicode="£" horiz-adv-x="544" d="M15 19h146l70 331H85l4 19h164q-45 20-67.5 60T163 517q0 42 15 78.5t42 63.5 64 43 81 16q41 0 73-14t53.5-37 33-53 11.5-63v-2h-20v2q0 35-13 62.5t-34 46-48 28.5-56 10q-38 0-71-14t-57.5-38.5-39-57.5-14.5-71q0-36 13-63.5t34-46 48-28.5 56-10h79l-4-19H250L180 19h279l-4-19H11z"/><glyph glyph-name="yen" unicode="¥" horiz-adv-x="606" d="M136 303h163L128 710h20l164-388 329 388h24L320 303h177l-4-19H315l-24-111h178l-4-19H287L255 0h-19l32 154H104l4 19h164l24 111H132z"/><glyph glyph-name="dieresis" unicode="¨" horiz-adv-x="279" d="M132 584l22 103h19l-22-103h-19zm220 0l22 103h19l-22-103h-19z"/><glyph glyph-name="copyright" unicode="©" horiz-adv-x="847" d="M446-6q-75 0-140.5 28.5t-115 78-78 115T84 356t28.5 140.5 78 115 115 78T446 718t140.5-28.5 115-78 78-115T808 356t-28.5-140.5-78-115-115-78T446-6zm0 22q70 0 132 27t108 73 73 108 27 132-27 132-73 108-108 73-132 27-132-27-108-73-73-108-27-132 27-132 73-108 108-73 132-27zm12 117q-46 0-86.5 17.5t-71 48-48 71T235 356t17.5 86.5 48 71 71 48T458 579q47 0 87.5-18t71.5-49l-16-15q-28 28-64.5 44T458 557t-78.5-16-63.5-43-43-63.5-16-78.5 16-78.5 43-63.5 63.5-43 78.5-16 78 15.5 63 42.5l16-15q-30-30-70.5-47.5T458 133z"/><glyph glyph-name="guillemotleft" unicode="«" horiz-adv-x="474" d="M247 251l193 212 13-13-183-202 96-203-17-8zm-190 0l193 212 13-13L80 248l96-203-17-8z"/><glyph glyph-name="uni00AD" unicode="­" horiz-adv-x="380" d="M83 280h227l-4-19H79z"/><glyph glyph-name="macron" unicode="¯" horiz-adv-x="318" d="M153 680h278l-5-19H148z"/><glyph glyph-name="degree" unicode="°" horiz-adv-x="357" d="M246 470q-25 0-47.5 9.5t-39 26-26 39T124 592t9.5 47.5 26 39 39 26T246 714t47.5-9.5 39-26 26-39T368 592t-9.5-47.5-26-39-39-26T246 470zm0 18q21 0 40 8t33.5 22.5T342 552t8 40-8 40-22.5 33.5T286 688t-40 8-40-8-33.5-22.5T150 632t-8-40 8-40 22.5-33.5T206 496t40-8z"/><glyph glyph-name="acute" unicode="´" horiz-adv-x="173" d="M281 710h23L159 545h-23z"/><glyph glyph-name="periodcentered" unicode="·" horiz-adv-x="172" d="M69 215l22 103h19L88 215H69z"/><glyph glyph-name="cedilla" unicode="¸" horiz-adv-x="136" d="M83 0h21L-6-165h-21z"/><glyph glyph-name="guillemotright" unicode="»" horiz-adv-x="472" d="M416 249L223 37l-13 13 183 202-96 203 17 8zm-190 0L33 37 20 50l183 202-96 203 17 8z"/><glyph glyph-name="questiondown" unicode="¿" horiz-adv-x="534" d="M320 500q4 4 11 4t8-4l-22-102h-19zM209-194q-43 0-80.5 14.5t-65 40.5-43 63.5T5 9q0 49 18.5 92.5t53 76 83 52.5T267 253l11 46h19l-15-66h-10q-52 0-97-17.5T96.5 168 44 97 25 10q0-42 13.5-76.5T77-125t58.5-37 74.5-13q45 0 83 16.5t67.5 44.5 48 65.5T432 30h20q-5-46-25.5-87T374-128.5t-74.5-48T209-194z"/><glyph glyph-name="Agrave" unicode="À" horiz-adv-x="671" d="M435 718L614 0h-19l-63 249H140L-28 0h-22zM153 268h375L427 673zm205 645h19l79-145h-19z"/><glyph glyph-name="Aacute" unicode="Á" horiz-adv-x="671" d="M435 718L614 0h-19l-63 249H140L-28 0h-22zM153 268h375L427 673zm422 645h23L458 768h-23z"/><glyph glyph-name="Acircumflex" unicode="Â" horiz-adv-x="671" d="M435 718L614 0h-19l-63 249H140L-28 0h-22zM153 268h375L427 673zm113 521l211 139 153-139-11-13-144 129-200-130z"/><glyph glyph-name="Atilde" unicode="Ã" horiz-adv-x="671" d="M435 718L614 0h-19l-63 249H140L-28 0h-22zM153 268h375L427 673zm140 535q11 45 38 67t57 22q26 0 45-11t35.5-24.5T501 832t36-11q28 0 47.5 18.5T614 892h19q-14-48-39.5-68.5T537 803q-24 0-42 11t-34 24.5-33.5 24.5-39.5 11q-29 0-47.5-19T312 803h-19z"/><glyph glyph-name="Adieresis" unicode="Ä" horiz-adv-x="671" d="M435 718L614 0h-19l-63 249H140L-28 0h-22zM153 268h375L427 673zm178 520l22 103h19l-22-103h-19zm220 0l22 103h19l-22-103h-19z"/><glyph glyph-name="Aring" unicode="Å" horiz-adv-x="671" d="M435 718L614 0h-19l-63 249H140L-28 0h-22zM153 268h375L427 673zm246 568q0-26 18-44.5t44-18.5 44 18.5 18 44.5-18 44.5-44 18.5-44-18.5-18-44.5zm142 0q0-33-23.5-56.5T461 756t-56.5 23.5T381 836t23.5 56.5T461 916t56.5-23.5T541 836z"/><glyph glyph-name="AE" unicode="Æ" horiz-adv-x="1043" d="M531 357l84-338h365l5-19H601l-63 249H146L-22 0h-22l471 697-3 13h384l5-19H447l79-315h316l5-19H531zm-372-89h375L433 673z"/><glyph glyph-name="Ccedilla" unicode="Ç" horiz-adv-x="686" d="M399-7q-77 2-136.5 30T162 96.5t-62 105T79 325q0 75 28 146t81 126 128.5 88T487 718q75 0 134-24.5T722 627l-14-14q-39 40-94 63t-127 23q-89 0-160.5-30.5t-122-82-78-119.5T99 325q0-62 20.5-118.5t60-100T277 37t133-26q60 0 112 14.5T618 66l10-17q-44-26-96.5-40.5T419-8L315-165h-21z"/><glyph glyph-name="Egrave" unicode="È" horiz-adv-x="546" d="M212 710h389l-4-19H227l-67-315h310l-4-19H156L84 19h370l-4-19H61zm143 203h19l79-145h-19z"/><glyph glyph-name="Eacute" unicode="É" horiz-adv-x="546" d="M212 710h389l-4-19H227l-67-315h310l-4-19H156L84 19h370l-4-19H61zm294 203h23L389 768h-23z"/><glyph glyph-name="Ecircumflex" unicode="Ê" horiz-adv-x="546" d="M212 710h389l-4-19H227l-67-315h310l-4-19H156L84 19h370l-4-19H61zm29 79l211 139 153-139-11-13-144 129-200-130z"/><glyph glyph-name="Edieresis" unicode="Ë" horiz-adv-x="546" d="M212 710h389l-4-19H227l-67-315h310l-4-19H156L84 19h370l-4-19H61zm93 78l22 103h19l-22-103h-19zm220 0l22 103h19l-22-103h-19z"/><glyph glyph-name="Igrave" unicode="Ì" horiz-adv-x="247" d="M212 710h19L80 0H61zm-43 203h19l79-145h-19z"/><glyph glyph-name="Iacute" unicode="Í" horiz-adv-x="247" d="M212 710h19L80 0H61zm109 203h23L204 768h-23z"/><glyph glyph-name="Icircumflex" unicode="Î" horiz-adv-x="247" d="M212 710h19L80 0H61zM60 789l211 139 153-139-11-13-144 129L69 775z"/><glyph glyph-name="Idieresis" unicode="Ï" horiz-adv-x="247" d="M212 710h19L80 0H61zm-93 78l22 103h19l-22-103h-19zm220 0l22 103h19l-22-103h-19z"/><glyph glyph-name="Eth" unicode="Ð" horiz-adv-x="765" d="M31 376h120l71 334h192q76 0 136-22.5T651.5 626t63.5-92.5T737 418q0-84-34-159.5t-95.5-133-148-91.5T268 0H71l76 357H27zM271 19q102 0 184.5 33T596 140.5 685.5 268 717 418q0 58-20.5 108T637 613t-95.5 57.5T414 691H237l-67-315h193l-4-19H166L94 19h177z"/><glyph glyph-name="Ntilde" unicode="Ñ" horiz-adv-x="794" d="M222 668L80 0H61l153 718L617 42l142 668h19L625-8zm133 135q11 45 38 67t57 22q26 0 45-11t35.5-24.5T563 832t36-11q28 0 47.5 18.5T676 892h19q-14-48-39.5-68.5T599 803q-24 0-42 11t-34 24.5-33.5 24.5-39.5 11q-29 0-47.5-19T374 803h-19z"/><glyph glyph-name="Ograve" unicode="Ò" horiz-adv-x="852" d="M99 325q0-62 20.5-118.5t60-100T277 37t133-26q89 0 160.5 30.5t122 82 78 119.5T798 385q0 62-20.5 118.5t-60 100T620 673t-133 26q-89 0-160.5-30.5t-122-82-78-119.5T99 325zm719 60q0-75-28-146t-81-126-128.5-88T410-8q-80 0-141.5 27.5T165 93t-64 106.5T79 325q0 75 28 146t81 126 128.5 88T487 718q79 0 141-27.5T732 617t64-106.5T818 385zM471 913h19l79-145h-19z"/><glyph glyph-name="Oacute" unicode="Ó" horiz-adv-x="852" d="M99 325q0-62 20.5-118.5t60-100T277 37t133-26q89 0 160.5 30.5t122 82 78 119.5T798 385q0 62-20.5 118.5t-60 100T620 673t-133 26q-89 0-160.5-30.5t-122-82-78-119.5T99 325zm719 60q0-75-28-146t-81-126-128.5-88T410-8q-80 0-141.5 27.5T165 93t-64 106.5T79 325q0 75 28 146t81 126 128.5 88T487 718q79 0 141-27.5T732 617t64-106.5T818 385zM622 913h23L505 768h-23z"/><glyph glyph-name="Ocircumflex" unicode="Ô" horiz-adv-x="852" d="M99 325q0-62 20.5-118.5t60-100T277 37t133-26q89 0 160.5 30.5t122 82 78 119.5T798 385q0 62-20.5 118.5t-60 100T620 673t-133 26q-89 0-160.5-30.5t-122-82-78-119.5T99 325zm719 60q0-75-28-146t-81-126-128.5-88T410-8q-80 0-141.5 27.5T165 93t-64 106.5T79 325q0 75 28 146t81 126 128.5 88T487 718q79 0 141-27.5T732 617t64-106.5T818 385zM356 789l211 139 153-139-11-13-144 129-200-130z"/><glyph glyph-name="Otilde" unicode="Õ" horiz-adv-x="852" d="M99 325q0-62 20.5-118.5t60-100T277 37t133-26q89 0 160.5 30.5t122 82 78 119.5T798 385q0 62-20.5 118.5t-60 100T620 673t-133 26q-89 0-160.5-30.5t-122-82-78-119.5T99 325zm719 60q0-75-28-146t-81-126-128.5-88T410-8q-80 0-141.5 27.5T165 93t-64 106.5T79 325q0 75 28 146t81 126 128.5 88T487 718q79 0 141-27.5T732 617t64-106.5T818 385zM383 803q11 45 38 67t57 22q26 0 45-11t35.5-24.5T591 832t36-11q28 0 47.5 18.5T704 892h19q-14-48-39.5-68.5T627 803q-24 0-42 11t-34 24.5-33.5 24.5-39.5 11q-29 0-47.5-19T402 803h-19z"/><glyph glyph-name="Odieresis" unicode="Ö" horiz-adv-x="852" d="M99 325q0-62 20.5-118.5t60-100T277 37t133-26q89 0 160.5 30.5t122 82 78 119.5T798 385q0 62-20.5 118.5t-60 100T620 673t-133 26q-89 0-160.5-30.5t-122-82-78-119.5T99 325zm719 60q0-75-28-146t-81-126-128.5-88T410-8q-80 0-141.5 27.5T165 93t-64 106.5T79 325q0 75 28 146t81 126 128.5 88T487 718q79 0 141-27.5T732 617t64-106.5T818 385zM421 788l22 103h19l-22-103h-19zm220 0l22 103h19l-22-103h-19z"/><glyph glyph-name="multiply" unicode="×" horiz-adv-x="590" d="M136 125l146 146-149 149 14 14 149-149 142 142 13-14-142-142 149-148-14-14-149 148-146-146z"/><glyph glyph-name="Oslash" unicode="Ø" horiz-adv-x="852" d="M154-2l48 61q-60 47-91.5 117T79 325q0 75 28 146t81 126 128.5 88T487 718q57 0 105-15t86-41l54 68 14-12-52-66q61-48 92.5-118T818 385q0-75-28-146t-81-126-128.5-88T410-8Q352-8 303.5 7T217 48l-49-62zm644 387q0 75-29.5 141T682 637L229 63q36-25 81.5-38.5T410 11q89 0 160.5 30.5t122 82 78 119.5T798 385zM99 325q0-75 29-140.5T214 74l453 574q-36 24-81 37.5T487 699q-89 0-160.5-30.5t-122-82-78-119.5T99 325z"/><glyph glyph-name="Ugrave" unicode="Ù" horiz-adv-x="727" d="M626 260Q598 129 523 60.5T324-8Q218-8 158 42T98 188q0 17 1.5 34.5T106 260l96 450h19l-96-450q-5-20-6.5-37t-1.5-34q0-90 56-134t150-44q112 0 184.5 61T607 260l96 450h19l-96-450zM409 913h19l79-145h-19z"/><glyph glyph-name="Uacute" unicode="Ú" horiz-adv-x="727" d="M626 260Q598 129 523 60.5T324-8Q218-8 158 42T98 188q0 17 1.5 34.5T106 260l96 450h19l-96-450q-5-20-6.5-37t-1.5-34q0-90 56-134t150-44q112 0 184.5 61T607 260l96 450h19l-96-450zm-66 653h23L443 768h-23z"/><glyph glyph-name="Ucircumflex" unicode="Û" horiz-adv-x="727" d="M626 260Q598 129 523 60.5T324-8Q218-8 158 42T98 188q0 17 1.5 34.5T106 260l96 450h19l-96-450q-5-20-6.5-37t-1.5-34q0-90 56-134t150-44q112 0 184.5 61T607 260l96 450h19l-96-450zM295 789l211 139 153-139-11-13-144 129-200-130z"/><glyph glyph-name="Udieresis" unicode="Ü" horiz-adv-x="727" d="M626 260Q598 129 523 60.5T324-8Q218-8 158 42T98 188q0 17 1.5 34.5T106 260l96 450h19l-96-450q-5-20-6.5-37t-1.5-34q0-90 56-134t150-44q112 0 184.5 61T607 260l96 450h19l-96-450zM360 788l22 103h19l-22-103h-19zm220 0l22 103h19l-22-103h-19z"/><glyph glyph-name="Yacute" unicode="Ý" horiz-adv-x="572" d="M288 302L116 710h20l164-388 329 388h24L307 302 243 0h-19zm193 611h23L364 768h-23z"/><glyph glyph-name="Thorn" unicode="Þ" horiz-adv-x="576" d="M212 710h19l-34-158h176q47 0 81.5-13t56.5-34.5 32.5-50.5 10.5-61q0-43-15.5-82.5t-48-70T409 192t-115-18H117L80 0H61zm85-517q57 0 101.5 15.5T473 251t45.5 63.5T534 392q0 30-9.5 55.5t-29 44.5-50 30-72.5 11H193l-72-340h176z"/><glyph glyph-name="germandbls" unicode="ß" horiz-adv-x="542" d="M147 519q21 99 77.5 149T366 718q33 0 60-10t46.5-28 30.5-42.5 11-54.5q0-34-14.5-65T461 462t-54.5-42.5T343 395q68-11 105.5-54T486 235q0-41-17.5-82.5T416 77t-86.5-55.5T210 0h-57l4 19h57q61 0 108 20t79 51 48.5 69 16.5 74q0 72-48.5 111.5T281 384h-46l4 19h41q40 0 79 14.5t69 38.5 48.5 56.5T495 581q0 56-37 87t-96 31q-72 0-124-44.5T166 517L56 0H37z"/><glyph glyph-name="agrave" unicode="à" d="M465 71q-39-38-88.5-58.5T273-8q-56 0-98 18.5t-69.5 50-41.5 73T50 220q0 57 21.5 109t60.5 92 92 63.5T340 508q68 0 117.5-27t78.5-71l20 90h19L469 0h-19zM274 11q56 0 108.5 24t89.5 69l59 279q-28 51-80 78.5T338 489q-57 0-106-21.5T147 409t-56.5-86T70 219q0-42 13-80t38.5-66.5 64-45T274 11zm11 699h19l75-165h-19z"/><glyph glyph-name="aacute" unicode="á" d="M465 71q-39-38-88.5-58.5T273-8q-56 0-98 18.5t-69.5 50-41.5 73T50 220q0 57 21.5 109t60.5 92 92 63.5T340 508q68 0 117.5-27t78.5-71l20 90h19L469 0h-19zM274 11q56 0 108.5 24t89.5 69l59 279q-28 51-80 78.5T338 489q-57 0-106-21.5T147 409t-56.5-86T70 219q0-42 13-80t38.5-66.5 64-45T274 11zm207 699h23L359 545h-23z"/><glyph glyph-name="acircumflex" unicode="â" d="M465 71q-39-38-88.5-58.5T273-8q-56 0-98 18.5t-69.5 50-41.5 73T50 220q0 57 21.5 109t60.5 92 92 63.5T340 508q68 0 117.5-27t78.5-71l20 90h19L469 0h-19zM274 11q56 0 108.5 24t89.5 69l59 279q-28 51-80 78.5T338 489q-57 0-106-21.5T147 409t-56.5-86T70 219q0-42 13-80t38.5-66.5 64-45T274 11zm-62 568l191 139 133-139-13-13-123 128-177-129z"/><glyph glyph-name="atilde" unicode="ã" d="M465 71q-39-38-88.5-58.5T273-8q-56 0-98 18.5t-69.5 50-41.5 73T50 220q0 57 21.5 109t60.5 92 92 63.5T340 508q68 0 117.5-27t78.5-71l20 90h19L469 0h-19zM274 11q56 0 108.5 24t89.5 69l59 279q-28 51-80 78.5T338 489q-57 0-106-21.5T147 409t-56.5-86T70 219q0-42 13-80t38.5-66.5 64-45T274 11zm-58 571q11 45 38 67t57 22q26 0 45-11t35.5-24.5T424 611t36-11q28 0 47.5 18.5T537 671h19q-14-48-39.5-68.5T460 582q-24 0-42 11t-34 24.5-33.5 24.5-39.5 11q-29 0-47.5-19T235 582h-19z"/><glyph glyph-name="adieresis" unicode="ä" d="M465 71q-39-38-88.5-58.5T273-8q-56 0-98 18.5t-69.5 50-41.5 73T50 220q0 57 21.5 109t60.5 92 92 63.5T340 508q68 0 117.5-27t78.5-71l20 90h19L469 0h-19zM274 11q56 0 108.5 24t89.5 69l59 279q-28 51-80 78.5T338 489q-57 0-106-21.5T147 409t-56.5-86T70 219q0-42 13-80t38.5-66.5 64-45T274 11zm-17 573l22 103h19l-22-103h-19zm220 0l22 103h19l-22-103h-19z"/><glyph glyph-name="aring" unicode="å" d="M465 71q-39-38-88.5-58.5T273-8q-56 0-98 18.5t-69.5 50-41.5 73T50 220q0 57 21.5 109t60.5 92 92 63.5T340 508q68 0 117.5-27t78.5-71l20 90h19L469 0h-19zM274 11q56 0 108.5 24t89.5 69l59 279q-28 51-80 78.5T338 489q-57 0-106-21.5T147 409t-56.5-86T70 219q0-42 13-80t38.5-66.5 64-45T274 11zm60 660q0-26 18-44.5t44-18.5 44 18.5 18 44.5-18 44.5-44 18.5-44-18.5-18-44.5zm142 0q0-33-23.5-56.5T396 591t-56.5 23.5T316 671t23.5 56.5T396 751t56.5-23.5T476 671z"/><glyph glyph-name="ae" unicode="æ" horiz-adv-x="968" d="M868 58q-37-31-84-48.5T682-8q-84 0-138.5 39.5T465 131Q410 63 342 27.5T198-8q-39 0-71.5 10.5T70.5 32t-37 44T20 130q0 38 16.5 71.5t47 58.5 73 39.5T251 314q60 0 109-18t84-50l15 70q6 27 6 50 0 64-41.5 93.5T311 489q-57 0-107-20.5T119 417l-10 17q38 30 89.5 52T315 508q34 0 65-8t54-24.5 36.5-42.5 13.5-63q36 63 99.5 100.5T728 508q39 0 76-11.5t66.5-34.5 47-59 17.5-85q0-28-6-59H469q-1-8-1.5-16t-.5-16q0-52 17.5-92.5t47-68T600 25t82-14q51 0 95 16.5T856 74zM197 11q73 0 140.5 37.5T458 151q-10 32-11 63-35 41-87 61t-112 20q-45 0-83-13.5T99.5 246t-43-51.5T41 134q0-26 11-48t31.5-39 49-26.5T197 11zm530 478q-49 0-92-15.5t-76.5-44T502 362t-31-85h441q3 21 3 39 0 43-14.5 75t-40 54-60 33-73.5 11z"/><glyph glyph-name="ccedilla" unicode="ç" horiz-adv-x="537" d="M274-8q-54 2-95.5 22T109 66.5t-42.5 74T52 227q0 58 21 109.5t58.5 89.5 89 60T333 508q27 0 54-5t52.5-15.5 47.5-27 38-38.5l-15-13q-29 40-76.5 60T332 489q-55 0-102.5-20T147 414t-55-83-20-104q0-52 17.5-92.5t47.5-68T206 25t82-14q51 0 94.5 16.5T461 74l12-16q-35-30-80-47T295-8L191-165h-21z"/><glyph glyph-name="egrave" unicode="è" horiz-adv-x="573" d="M473 58q-37-31-84-48.5T287-8q-57 0-101 19.5t-73.5 52-45 75T52 227q0 58 21 109.5t58.5 89.5 89 60T333 508q39 0 76-11.5t66.5-34.5 47-59 17.5-85q0-28-6-59H74q-1-8-1.5-16t-.5-16q0-52 17.5-92.5t47-68T205 25t82-14q51 0 95 16.5T461 74zM332 489q-49 0-92-15.5t-76.5-44T107 362t-31-85h441q3 21 3 39 0 43-14.5 75t-40 54-60 33-73.5 11zm-54 221h19l75-165h-19z"/><glyph glyph-name="eacute" unicode="é" horiz-adv-x="573" d="M473 58q-37-31-84-48.5T287-8q-57 0-101 19.5t-73.5 52-45 75T52 227q0 58 21 109.5t58.5 89.5 89 60T333 508q39 0 76-11.5t66.5-34.5 47-59 17.5-85q0-28-6-59H74q-1-8-1.5-16t-.5-16q0-52 17.5-92.5t47-68T205 25t82-14q51 0 95 16.5T461 74zM332 489q-49 0-92-15.5t-76.5-44T107 362t-31-85h441q3 21 3 39 0 43-14.5 75t-40 54-60 33-73.5 11zm108 221h23L318 545h-23z"/><glyph glyph-name="ecircumflex" unicode="ê" horiz-adv-x="573" d="M473 58q-37-31-84-48.5T287-8q-57 0-101 19.5t-73.5 52-45 75T52 227q0 58 21 109.5t58.5 89.5 89 60T333 508q39 0 76-11.5t66.5-34.5 47-59 17.5-85q0-28-6-59H74q-1-8-1.5-16t-.5-16q0-52 17.5-92.5t47-68T205 25t82-14q51 0 95 16.5T461 74zM332 489q-49 0-92-15.5t-76.5-44T107 362t-31-85h441q3 21 3 39 0 43-14.5 75t-40 54-60 33-73.5 11zm-148 90l191 139 133-139-13-13-123 128-177-129z"/><glyph glyph-name="edieresis" unicode="ë" horiz-adv-x="573" d="M473 58q-37-31-84-48.5T287-8q-57 0-101 19.5t-73.5 52-45 75T52 227q0 58 21 109.5t58.5 89.5 89 60T333 508q39 0 76-11.5t66.5-34.5 47-59 17.5-85q0-28-6-59H74q-1-8-1.5-16t-.5-16q0-52 17.5-92.5t47-68T205 25t82-14q51 0 95 16.5T461 74zM332 489q-49 0-92-15.5t-76.5-44T107 362t-31-85h441q3 21 3 39 0 43-14.5 75t-40 54-60 33-73.5 11zm-103 95l22 103h19l-22-103h-19zm220 0l22 103h19l-22-103h-19z"/><glyph glyph-name="igrave" unicode="ì" horiz-adv-x="199" d="M143 500h19L56 0H37zm-42 210h19l75-165h-19z"/><glyph glyph-name="iacute" unicode="í" horiz-adv-x="199" d="M143 500h19L56 0H37zm110 210h23L131 545h-23z"/><glyph glyph-name="icircumflex" unicode="î" horiz-adv-x="199" d="M143 500h19L56 0H37zM14 579l191 139 133-139-13-13-123 128L25 565z"/><glyph glyph-name="idieresis" unicode="ï" horiz-adv-x="199" d="M143 500h19L56 0H37zm-92 84l22 103h19L70 584H51zm220 0l22 103h19l-22-103h-19z"/><glyph glyph-name="eth" unicode="ð" horiz-adv-x="625" d="M291 610h122l-50 100h21l50-100h145l-4-19H443l78-154q15-30 25-51.5t16-40 8.5-35.5 2.5-37q0-59-21.5-110t-59-89-89-60T292-8q-57 0-102 19.5t-75.5 52-47 75T51 227q0 58 21.5 109.5t59 89.5 89 60T332 508q50 0 90.5-14.5T493 453l-70 138H287zM71 227q0-51 18.5-91t49-68 70-42.5T291 11q55 0 102.5 19.5t83 54.5 56 83T553 273q0 51-18.5 91t-49 68-70 42.5T333 489q-55 0-102.5-19.5t-83-54.5-56-83T71 227z"/><glyph glyph-name="ntilde" unicode="ñ" horiz-adv-x="580" d="M143 500h19l-20-93q33 44 81 72.5T335 508q82 0 129-45.5T511 339q0-28-6-58L445 0h-19l61 285q6 28 6 53 0 72-43.5 111.5T335 489q-64 0-115-33t-87-90L56 0H37zm62 82q11 45 38 67t57 22q26 0 45-11t35.5-24.5T413 611t36-11q28 0 47.5 18.5T526 671h19q-14-48-39.5-68.5T449 582q-24 0-42 11t-34 24.5-33.5 24.5-39.5 11q-29 0-47.5-19T224 582h-19z"/><glyph glyph-name="ograve" unicode="ò" horiz-adv-x="624" d="M71 227q0-51 18.5-91t49-68 70-42.5T291 11q55 0 102.5 19.5t83 54.5 56 83T553 273q0 51-18.5 91t-49 68-70 42.5T333 489q-55 0-102.5-19.5t-83-54.5-56-83T71 227zm502 46q0-59-21.5-110t-59-89-89-60T292-8q-57 0-102 19.5t-75.5 52-47 75T51 227q0 58 21.5 109.5t59 89.5 89 60T332 508q57 0 102-19.5t75.5-52 47-75T573 273zM312 710h19l75-165h-19z"/><glyph glyph-name="oacute" unicode="ó" horiz-adv-x="624" d="M71 227q0-51 18.5-91t49-68 70-42.5T291 11q55 0 102.5 19.5t83 54.5 56 83T553 273q0 51-18.5 91t-49 68-70 42.5T333 489q-55 0-102.5-19.5t-83-54.5-56-83T71 227zm502 46q0-59-21.5-110t-59-89-89-60T292-8q-57 0-102 19.5t-75.5 52-47 75T51 227q0 58 21.5 109.5t59 89.5 89 60T332 508q57 0 102-19.5t75.5-52 47-75T573 273zM464 710h23L342 545h-23z"/><glyph glyph-name="ocircumflex" unicode="ô" horiz-adv-x="624" d="M71 227q0-51 18.5-91t49-68 70-42.5T291 11q55 0 102.5 19.5t83 54.5 56 83T553 273q0 51-18.5 91t-49 68-70 42.5T333 489q-55 0-102.5-19.5t-83-54.5-56-83T71 227zm502 46q0-59-21.5-110t-59-89-89-60T292-8q-57 0-102 19.5t-75.5 52-47 75T51 227q0 58 21.5 109.5t59 89.5 89 60T332 508q57 0 102-19.5t75.5-52 47-75T573 273zM218 579l191 139 133-139-13-13-123 128-177-129z"/><glyph glyph-name="otilde" unicode="õ" horiz-adv-x="624" d="M71 227q0-51 18.5-91t49-68 70-42.5T291 11q55 0 102.5 19.5t83 54.5 56 83T553 273q0 51-18.5 91t-49 68-70 42.5T333 489q-55 0-102.5-19.5t-83-54.5-56-83T71 227zm502 46q0-59-21.5-110t-59-89-89-60T292-8q-57 0-102 19.5t-75.5 52-47 75T51 227q0 58 21.5 109.5t59 89.5 89 60T332 508q57 0 102-19.5t75.5-52 47-75T573 273zM222 582q11 45 38 67t57 22q26 0 45-11t35.5-24.5T430 611t36-11q28 0 47.5 18.5T543 671h19q-14-48-39.5-68.5T466 582q-24 0-42 11t-34 24.5-33.5 24.5-39.5 11q-29 0-47.5-19T241 582h-19z"/><glyph glyph-name="odieresis" unicode="ö" horiz-adv-x="624" d="M71 227q0-51 18.5-91t49-68 70-42.5T291 11q55 0 102.5 19.5t83 54.5 56 83T553 273q0 51-18.5 91t-49 68-70 42.5T333 489q-55 0-102.5-19.5t-83-54.5-56-83T71 227zm502 46q0-59-21.5-110t-59-89-89-60T292-8q-57 0-102 19.5t-75.5 52-47 75T51 227q0 58 21.5 109.5t59 89.5 89 60T332 508q57 0 102-19.5t75.5-52 47-75T573 273zM263 584l22 103h19l-22-103h-19zm220 0l22 103h19l-22-103h-19z"/><glyph glyph-name="divide" unicode="÷" horiz-adv-x="590" d="M289 460h19V357h-19v103zm0-276h19V81h-19v103zM79 280h440v-19H79v19z"/><glyph glyph-name="oslash" unicode="ø" horiz-adv-x="624" d="M79 2l46 51q-36 33-55 78t-19 96q0 58 21.5 109.5t59 89.5 89 60T332 508q47 0 85-13.5t68-36.5l47 54 13-13-46-53q36-33 55-78t19-95q0-59-21.5-110t-59-89-89-60T292-8q-47 0-85.5 13T139 41L92-11zm474 271q0 51-18.5 91T486 432L152 56q29-22 65-33.5T291 11q55 0 102.5 19.5t83 54.5 56 83T553 273zM71 227q0-51 18-91t49-68l333 375q-29 23-64.5 34.5T333 489q-55 0-102.5-19.5t-83-54.5-56-83T71 227z"/><glyph glyph-name="ugrave" unicode="ù" horiz-adv-x="577" d="M434 92q-32-44-80.5-72T242-8q-85 0-130 41T67 147q0 14 2 28t5 30l62 295h19L92 201q-6-27-6-51 0-66 41-102.5T242 11q66 0 116 33t85 90l78 366h19L434 0h-19zM285 710h19l75-165h-19z"/><glyph glyph-name="uacute" unicode="ú" horiz-adv-x="577" d="M434 92q-32-44-80.5-72T242-8q-85 0-130 41T67 147q0 14 2 28t5 30l62 295h19L92 201q-6-27-6-51 0-66 41-102.5T242 11q66 0 116 33t85 90l78 366h19L434 0h-19zm2 618h23L314 545h-23z"/><glyph glyph-name="ucircumflex" unicode="û" horiz-adv-x="577" d="M434 92q-32-44-80.5-72T242-8q-85 0-130 41T67 147q0 14 2 28t5 30l62 295h19L92 201q-6-27-6-51 0-66 41-102.5T242 11q66 0 116 33t85 90l78 366h19L434 0h-19zM191 579l191 139 133-139-13-13-123 128-177-129z"/><glyph glyph-name="udieresis" unicode="ü" horiz-adv-x="577" d="M434 92q-32-44-80.5-72T242-8q-85 0-130 41T67 147q0 14 2 28t5 30l62 295h19L92 201q-6-27-6-51 0-66 41-102.5T242 11q66 0 116 33t85 90l78 366h19L434 0h-19zM236 584l22 103h19l-22-103h-19zm220 0l22 103h19l-22-103h-19z"/><glyph glyph-name="yacute" unicode="ý" horiz-adv-x="515" d="M194 9L63 500h21L208 30l329 470h24L81-184H58zm212 701h23L284 545h-23z"/><glyph glyph-name="thorn" unicode="þ" d="M188 710h19l-60-281q39 38 88.5 58.5T339 508q56 0 98-19t69.5-50.5T548 366t14-86q0-57-21.5-109T480 79t-92-63.5T272-8q-68 0-118 26.5T75 90L17-184H-2zm150-221q-56 0-108.5-24T140 396L81 118q27-52 79-79.5T274 11q57 0 106 21.5t85 58 56.5 85.5T542 281q0 42-13 79.5t-38.5 66-64 45.5-88.5 17z"/><glyph glyph-name="ydieresis" unicode="ÿ" horiz-adv-x="515" d="M194 9L63 500h21L208 30l329 470h24L81-184H58zm12 575l22 103h19l-22-103h-19zm220 0l22 103h19l-22-103h-19z"/><glyph glyph-name="Amacron" unicode="Ā" horiz-adv-x="671" d="M435 718L614 0h-19l-63 249H140L-28 0h-22zM153 268h375L427 673zm172 582h278l-4-19H321z"/><glyph glyph-name="amacron" unicode="ā" d="M258 680h278l-5-19H253zM465 71q-39-38-88.5-58.5T273-8q-56 0-98 18.5t-69.5 50-41.5 73T50 220q0 57 21.5 109t60.5 92 92 63.5T340 508q68 0 117.5-27t78.5-71l20 90h19L469 0h-19zM274 11q56 0 108.5 24t89.5 69l59 279q-28 51-80 78.5T338 489q-57 0-106-21.5T147 409t-56.5-86T70 219q0-42 13-80t38.5-66.5 64-45T274 11z"/><glyph glyph-name="Abreve" unicode="Ă" horiz-adv-x="671" d="M435 718L614 0h-19l-63 249H140L-28 0h-22zM153 268h375L427 673zm447 634q-16-56-51.5-88.5T449 781q-58 0-91 27t-33 74q0 5 .5 10t1.5 10h18q-1-5-1-9.5V884q0-46 30.5-65t75.5-19q51 0 82 23t50 79h18z"/><glyph glyph-name="abreve" unicode="ă" d="M465 71q-39-38-88.5-58.5T273-8q-56 0-98 18.5t-69.5 50-41.5 73T50 220q0 57 21.5 109t60.5 92 92 63.5T340 508q68 0 117.5-27t78.5-71l20 90h19L469 0h-19zM274 11q56 0 108.5 24t89.5 69l59 279q-28 51-80 78.5T338 489q-57 0-106-21.5T147 409t-56.5-86T70 219q0-42 13-80t38.5-66.5 64-45T274 11zm257 699q-16-56-51.5-88.5T380 589q-58 0-91 27t-33 74q0 5 .5 10t1.5 10h18q-1-5-1-9.5V692q0-46 30.5-65t75.5-19q51 0 82 23t50 79h18z"/><glyph glyph-name="Aogonek" unicode="Ą" horiz-adv-x="671" d="M552-192q-30 0-49 19t-19 50q0 19 10 37t25.5 34T555-22.5 595 0l-63 249H140L-28 0h-22l485 718L614 0q-45-21-78-52t-33-72q0-18 12.5-33.5T556-173q5 0 11 .5t11 1.5l-4-18q-12-3-22-3zM153 268h375L427 673z"/><glyph glyph-name="aogonek" unicode="ą" d="M403-192q-27 0-46.5 16T337-129q0 19 9.5 38.5t25.5 37T408.5-22 450 0l15 71q-39-38-88.5-58.5T273-8q-56 0-98 18.5t-69.5 50-41.5 73T50 220q0 57 21.5 109t60.5 92 92 63.5T340 508q68 0 117.5-27t78.5-71l20 90h19L469 0q-20-8-40-22t-36-31-26-36.5-10-38.5q0-26 17-35.5t36-9.5q12 0 23 3l-4-19q-14-3-26-3zM274 11q56 0 108.5 24t89.5 69l59 279q-28 51-80 78.5T338 489q-57 0-106-21.5T147 409t-56.5-86T70 219q0-42 13-80t38.5-66.5 64-45T274 11z"/><glyph glyph-name="Cacute" unicode="Ć" horiz-adv-x="686" d="M628 49Q583 22 528 7T410-8q-80 0-141.5 27.5T165 93t-64 106.5T79 325q0 75 28 146t81 126 128.5 88T487 718q75 0 134-24.5T722 627l-14-14q-39 40-94 63t-127 23q-89 0-160.5-30.5t-122-82-78-119.5T99 325q0-62 20.5-118.5t60-100T277 37t133-26q60 0 112 14.5T618 66l10-17zm-44 865h23L467 769h-23z"/><glyph glyph-name="cacute" unicode="ć" horiz-adv-x="537" d="M473 58q-37-31-84-48.5T287-8q-57 0-101 19.5t-73.5 52-45 75T52 227q0 58 21 109.5t58.5 89.5 89 60T333 508q27 0 54-5t52.5-15.5 47.5-27 38-38.5l-15-13q-29 40-76.5 60T332 489q-55 0-102.5-20T147 414t-55-83-20-104q0-52 17.5-92.5t47.5-68T206 25t82-14q51 0 94.5 16.5T461 74l12-16zm-32 652h23L319 545h-23z"/><glyph glyph-name="Ccircumflex" unicode="Ĉ" horiz-adv-x="686" d="M628 49Q583 22 528 7T410-8q-80 0-141.5 27.5T165 93t-64 106.5T79 325q0 75 28 146t81 126 128.5 88T487 718q75 0 134-24.5T722 627l-14-14q-39 40-94 63t-127 23q-89 0-160.5-30.5t-122-82-78-119.5T99 325q0-62 20.5-118.5t60-100T277 37t133-26q60 0 112 14.5T618 66l10-17zM318 789l211 139 153-139-11-13-144 129-200-130z"/><glyph glyph-name="ccircumflex" unicode="ĉ" horiz-adv-x="537" d="M473 58q-37-31-84-48.5T287-8q-57 0-101 19.5t-73.5 52-45 75T52 227q0 58 21 109.5t58.5 89.5 89 60T333 508q27 0 54-5t52.5-15.5 47.5-27 38-38.5l-15-13q-29 40-76.5 60T332 489q-55 0-102.5-20T147 414t-55-83-20-104q0-52 17.5-92.5t47.5-68T206 25t82-14q51 0 94.5 16.5T461 74l12-16zM186 579l191 139 133-139-13-13-123 128-177-129z"/><glyph glyph-name="Cdotaccent" unicode="Ċ" horiz-adv-x="686" d="M628 49Q583 22 528 7T410-8q-80 0-141.5 27.5T165 93t-64 106.5T79 325q0 75 28 146t81 126 128.5 88T487 718q75 0 134-24.5T722 627l-14-14q-39 40-94 63t-127 23q-89 0-160.5-30.5t-122-82-78-119.5T99 325q0-62 20.5-118.5t60-100T277 37t133-26q60 0 112 14.5T618 66l10-17zM493 788l22 103h19l-22-103h-19z"/><glyph glyph-name="cdotaccent" unicode="ċ" horiz-adv-x="537" d="M473 58q-37-31-84-48.5T287-8q-57 0-101 19.5t-73.5 52-45 75T52 227q0 58 21 109.5t58.5 89.5 89 60T333 508q27 0 54-5t52.5-15.5 47.5-27 38-38.5l-15-13q-29 40-76.5 60T332 489q-55 0-102.5-20T147 414t-55-83-20-104q0-52 17.5-92.5t47.5-68T206 25t82-14q51 0 94.5 16.5T461 74l12-16zM341 584l22 103h19l-22-103h-19z"/><glyph glyph-name="Ccaron" unicode="Č" horiz-adv-x="686" d="M628 49Q583 22 528 7T410-8q-80 0-141.5 27.5T165 93t-64 106.5T79 325q0 75 28 146t81 126 128.5 88T487 718q75 0 134-24.5T722 627l-14-14q-39 40-94 63t-127 23q-89 0-160.5-30.5t-122-82-78-119.5T99 325q0-62 20.5-118.5t60-100T277 37t133-26q60 0 112 14.5T618 66l10-17zm82 861L499 771 346 910l11 13 144-129 200 130z"/><glyph glyph-name="ccaron" unicode="č" horiz-adv-x="537" d="M473 58q-37-31-84-48.5T287-8q-57 0-101 19.5t-73.5 52-45 75T52 227q0 58 21 109.5t58.5 89.5 89 60T333 508q27 0 54-5t52.5-15.5 47.5-27 38-38.5l-15-13q-29 40-76.5 60T332 489q-55 0-102.5-20T147 414t-55-83-20-104q0-52 17.5-92.5t47.5-68T206 25t82-14q51 0 94.5 16.5T461 74l12-16zm65 647L347 566 214 705l13 13 123-128 177 129z"/><glyph glyph-name="Dcaron" unicode="Ď" horiz-adv-x="755" d="M261 19q102 0 184.5 33T586 140.5 675.5 268 707 418q0 58-20.5 108T627 613t-95.5 57.5T404 691H227L84 19h177zm-49 691h192q76 0 136-22.5T641.5 626t63.5-92.5T727 418q0-84-34-159.5t-95.5-133-148-91.5T258 0H61zm440 200L441 771 288 910l11 13 144-129 200 130z"/><glyph glyph-name="dcaron" unicode="ď" horiz-adv-x="636" d="M465 71q-39-38-88.5-58.5T273-8q-56 0-98 18.5t-69.5 50-41.5 73T50 220q0 57 21.5 109t60.5 92 92 63.5T340 508q68 0 118-27t79-72l64 301h19L469 0h-19zM274 11q56 0 108.5 24t89.5 69l59 278q-27 52-79.5 79.5T338 489q-57 0-106-21.5T147 409t-56.5-86T70 219q0-42 13-80t38.5-66.5 64-45T274 11zm455 699h20l-68-170h-17z"/><glyph glyph-name="Dcroat" unicode="Đ" horiz-adv-x="765" d="M31 376h120l71 334h192q76 0 136-22.5T651.5 626t63.5-92.5T737 418q0-84-34-159.5t-95.5-133-148-91.5T268 0H71l76 357H27zM271 19q102 0 184.5 33T596 140.5 685.5 268 717 418q0 58-20.5 108T637 613t-95.5 57.5T414 691H237l-67-315h193l-4-19H166L94 19h177z"/><glyph glyph-name="dcroat" unicode="đ" d="M395 628h188l18 82h19l-18-82h87l-4-19h-87L469 0h-19l15 71q-39-38-88.5-58.5T273-8q-56 0-98 18.5t-69.5 50-41.5 73T50 220q0 57 21.5 109t60.5 92 92 63.5T340 508q68 0 118-27t79-72l42 200H391zM274 11q56 0 108.5 24t89.5 69l59 278q-27 52-79.5 79.5T338 489q-57 0-106-21.5T147 409t-56.5-86T70 219q0-42 13-80t38.5-66.5 64-45T274 11z"/><glyph glyph-name="Emacron" unicode="Ē" horiz-adv-x="546" d="M212 710h389l-4-19H227l-67-315h310l-4-19H156L84 19h370l-4-19H61zm87 140h278l-4-19H295z"/><glyph glyph-name="emacron" unicode="ē" horiz-adv-x="573" d="M473 58q-37-31-84-48.5T287-8q-57 0-101 19.5t-73.5 52-45 75T52 227q0 58 21 109.5t58.5 89.5 89 60T333 508q39 0 76-11.5t66.5-34.5 47-59 17.5-85q0-28-6-59H74q-1-8-1.5-16t-.5-16q0-52 17.5-92.5t47-68T205 25t82-14q51 0 95 16.5T461 74zM332 489q-49 0-92-15.5t-76.5-44T107 362t-31-85h441q3 21 3 39 0 43-14.5 75t-40 54-60 33-73.5 11zm-91 191h278l-5-19H236z"/><glyph glyph-name="Ebreve" unicode="Ĕ" horiz-adv-x="546" d="M212 710h389l-4-19H227l-67-315h310l-4-19H156L84 19h370l-4-19H61zm362 192q-16-56-51.5-88.5T423 781q-58 0-91 27t-33 74q0 5 .5 10t1.5 10h18q-1-5-1-9.5V884q0-46 30.5-65t75.5-19q51 0 82 23t50 79h18z"/><glyph glyph-name="ebreve" unicode="ĕ" horiz-adv-x="573" d="M473 58q-37-31-84-48.5T287-8q-57 0-101 19.5t-73.5 52-45 75T52 227q0 58 21 109.5t58.5 89.5 89 60T333 508q39 0 76-11.5t66.5-34.5 47-59 17.5-85q0-28-6-59H74q-1-8-1.5-16t-.5-16q0-52 17.5-92.5t47-68T205 25t82-14q51 0 95 16.5T461 74zM332 489q-49 0-92-15.5t-76.5-44T107 362t-31-85h441q3 21 3 39 0 43-14.5 75t-40 54-60 33-73.5 11zm183 221q-16-56-51.5-88.5T364 589q-58 0-91 27t-33 74q0 5 .5 10t1.5 10h18q-1-5-1-9.5V692q0-46 30.5-65t75.5-19q51 0 82 23t50 79h18z"/><glyph glyph-name="Edotaccent" unicode="Ė" horiz-adv-x="546" d="M212 710h389l-4-19H227l-67-315h310l-4-19H156L84 19h370l-4-19H61zm202 78l22 103h19l-22-103h-19z"/><glyph glyph-name="edotaccent" unicode="ė" horiz-adv-x="573" d="M473 58q-37-31-84-48.5T287-8q-57 0-101 19.5t-73.5 52-45 75T52 227q0 58 21 109.5t58.5 89.5 89 60T333 508q39 0 76-11.5t66.5-34.5 47-59 17.5-85q0-28-6-59H74q-1-8-1.5-16t-.5-16q0-52 17.5-92.5t47-68T205 25t82-14q51 0 95 16.5T461 74zM332 489q-49 0-92-15.5t-76.5-44T107 362t-31-85h441q3 21 3 39 0 43-14.5 75t-40 54-60 33-73.5 11zm8 95l22 103h19l-22-103h-19z"/><glyph glyph-name="Eogonek" unicode="Ę" horiz-adv-x="546" d="M212 710h389l-4-19H227l-67-315h310l-4-19H156L84 19h370l-4-19q-45-21-78-52t-33-72q0-18 12.5-33.5T392-173q5 0 11 .5t11 1.5l-4-18q-12-3-22-3-30 0-49 19t-19 50q0 19 10 37t25.5 34T391-22.5 431 0H61z"/><glyph glyph-name="eogonek" unicode="ę" horiz-adv-x="573" d="M290-192q-27 0-46.5 16T224-129q0 17 8 35t21.5 34.5T285-29t37 23q-8-1-17-1.5T287-8q-57 0-101 19.5t-73.5 52-45 75T52 227q0 58 21 109.5t58.5 89.5 89 60T333 508q39 0 76-11.5t66.5-34.5 47-59 17.5-85q0-28-6-59H74q-1-8-1.5-16t-.5-16q0-52 17.5-92.5t47-68T205 25t82-14q51 0 95 16.5T461 74l12-16Q423 15 354 0q-20-8-39.5-22T279-53.5 253.5-90t-9.5-38q0-26 17-35.5t36-9.5q12 0 23 3l-4-19q-14-3-26-3zm42 681q-49 0-92-15.5t-76.5-44T107 362t-31-85h441q3 21 3 39 0 43-14.5 75t-40 54-60 33-73.5 11z"/><glyph glyph-name="Ecaron" unicode="Ě" horiz-adv-x="546" d="M212 710h389l-4-19H227l-67-315h310l-4-19H156L84 19h370l-4-19H61zm420 200L421 771 268 910l11 13 144-129 200 130z"/><glyph glyph-name="ecaron" unicode="ě" horiz-adv-x="573" d="M473 58q-37-31-84-48.5T287-8q-57 0-101 19.5t-73.5 52-45 75T52 227q0 58 21 109.5t58.5 89.5 89 60T333 508q39 0 76-11.5t66.5-34.5 47-59 17.5-85q0-28-6-59H74q-1-8-1.5-16t-.5-16q0-52 17.5-92.5t47-68T205 25t82-14q51 0 95 16.5T461 74zM332 489q-49 0-92-15.5t-76.5-44T107 362t-31-85h441q3 21 3 39 0 43-14.5 75t-40 54-60 33-73.5 11zm214 216L355 566 222 705l13 13 123-128 177 129z"/><glyph glyph-name="Gcircumflex" unicode="Ĝ" horiz-adv-x="763" d="M663 61Q605 25 544 8.5T410-8q-80 0-141.5 27.5T165 93t-64 106.5T79 325q0 75 28 146t81 126 128.5 88T487 718q75 0 136.5-24.5T727 627l-14-14q-39 40-96.5 63T487 699q-89 0-160.5-30.5t-122-82-78-119.5T99 325q0-62 20.5-118.5t60-100T277 37t133-26q68 0 124.5 15T646 73l60 284H475l13 19h242L663 61zM317 789l211 139 153-139-11-13-144 129-200-130z"/><glyph glyph-name="gcircumflex" unicode="ĝ" horiz-adv-x="610" d="M492 63q0-65-20.5-113T414-130t-87.5-48T216-194q-30 0-59 5.5t-54.5 16-46.5 25T22-116l17 14q24-32 72-52.5T217-175q63 0 110.5 17t80 48T456-34.5 472 64q0 13-1 23t-3 15q-39-42-90.5-66T270 12t-97 17-67.5 47T66 145.5 53 230q0 57 20.5 107.5t58 88.5 90 60T337 508q67 0 115-27t77-71l19 90h19l-80-379q2-14 3.5-28t1.5-30zM271 31q56 0 109 27t90 72l53 254q-27 51-77.5 78T335 489q-57 0-105.5-20t-83-55-54-82.5T73 229q0-42 12-78t36.5-63 62-42T271 31zm-72 548l191 139 133-139-13-13-123 128-177-129z"/><glyph glyph-name="Gbreve" unicode="Ğ" horiz-adv-x="763" d="M663 61Q605 25 544 8.5T410-8q-80 0-141.5 27.5T165 93t-64 106.5T79 325q0 75 28 146t81 126 128.5 88T487 718q75 0 136.5-24.5T727 627l-14-14q-39 40-96.5 63T487 699q-89 0-160.5-30.5t-122-82-78-119.5T99 325q0-62 20.5-118.5t60-100T277 37t133-26q68 0 124.5 15T646 73l60 284H475l13 19h242L663 61zm-11 841q-16-56-51.5-88.5T501 781q-58 0-91 27t-33 74q0 5 .5 10t1.5 10h18q-1-5-1-9.5V884q0-46 30.5-65t75.5-19q51 0 82 23t50 79h18z"/><glyph glyph-name="gbreve" unicode="ğ" horiz-adv-x="610" d="M492 63q0-65-20.5-113T414-130t-87.5-48T216-194q-30 0-59 5.5t-54.5 16-46.5 25T22-116l17 14q24-32 72-52.5T217-175q63 0 110.5 17t80 48T456-34.5 472 64q0 13-1 23t-3 15q-39-42-90.5-66T270 12t-97 17-67.5 47T66 145.5 53 230q0 57 20.5 107.5t58 88.5 90 60T337 508q67 0 115-27t77-71l19 90h19l-80-379q2-14 3.5-28t1.5-30zM271 31q56 0 109 27t90 72l53 254q-27 51-77.5 78T335 489q-57 0-105.5-20t-83-55-54-82.5T73 229q0-42 12-78t36.5-63 62-42T271 31zm256 679q-16-56-51.5-88.5T376 589q-58 0-91 27t-33 74q0 5 .5 10t1.5 10h18q-1-5-1-9.5V692q0-46 30.5-65t75.5-19q51 0 82 23t50 79h18z"/><glyph glyph-name="Gdotaccent" unicode="Ġ" horiz-adv-x="763" d="M663 61Q605 25 544 8.5T410-8q-80 0-141.5 27.5T165 93t-64 106.5T79 325q0 75 28 146t81 126 128.5 88T487 718q75 0 136.5-24.5T727 627l-14-14q-39 40-96.5 63T487 699q-89 0-160.5-30.5t-122-82-78-119.5T99 325q0-62 20.5-118.5t60-100T277 37t133-26q68 0 124.5 15T646 73l60 284H475l13 19h242L663 61zM492 788l22 103h19l-22-103h-19z"/><glyph glyph-name="gdotaccent" unicode="ġ" horiz-adv-x="610" d="M492 63q0-65-20.5-113T414-130t-87.5-48T216-194q-30 0-59 5.5t-54.5 16-46.5 25T22-116l17 14q24-32 72-52.5T217-175q63 0 110.5 17t80 48T456-34.5 472 64q0 13-1 23t-3 15q-39-42-90.5-66T270 12t-97 17-67.5 47T66 145.5 53 230q0 57 20.5 107.5t58 88.5 90 60T337 508q67 0 115-27t77-71l19 90h19l-80-379q2-14 3.5-28t1.5-30zM271 31q56 0 109 27t90 72l53 254q-27 51-77.5 78T335 489q-57 0-105.5-20t-83-55-54-82.5T73 229q0-42 12-78t36.5-63 62-42T271 31zm83 553l22 103h19l-22-103h-19z"/><glyph glyph-name="uni0122" unicode="Ģ" horiz-adv-x="763" d="M663 61Q605 25 544 8.5T410-8q-80 0-141.5 27.5T165 93t-64 106.5T79 325q0 75 28 146t81 126 128.5 88T487 718q75 0 136.5-24.5T727 627l-14-14q-39 40-96.5 63T487 699q-89 0-160.5-30.5t-122-82-78-119.5T99 325q0-62 20.5-118.5t60-100T277 37t133-26q68 0 124.5 15T646 73l60 284H475l13 19h242L663 61zM429-50h21L340-215h-21z"/><glyph glyph-name="uni0123" unicode="ģ" horiz-adv-x="610" d="M492 63q0-65-20.5-113T414-130t-87.5-48T216-194q-30 0-59 5.5t-54.5 16-46.5 25T22-116l17 14q24-32 72-52.5T217-175q63 0 110.5 17t80 48T456-34.5 472 64q0 13-1 23t-3 15q-39-42-90.5-66T270 12t-97 17-67.5 47T66 145.5 53 230q0 57 20.5 107.5t58 88.5 90 60T337 508q67 0 115-27t77-71l19 90h19l-80-379q2-14 3.5-28t1.5-30zM271 31q56 0 109 27t90 72l53 254q-27 51-77.5 78T335 489q-57 0-105.5-20t-83-55-54-82.5T73 229q0-42 12-78t36.5-63 62-42T271 31zm80.007 553.997h-20.998l109.993 164.99h20.999z"/><glyph glyph-name="Hcircumflex" unicode="Ĥ" horiz-adv-x="768" d="M212 710h19l-71-334h502l71 334h19L601 0h-19l76 357H156L80 0H61zm103 79l211 139 153-139-11-13-144 129-200-130z"/><glyph glyph-name="hcircumflex" unicode="ĥ" horiz-adv-x="581" d="M188 710h19l-65-304q33 44 81 73t113 29q82 0 129-45.5T512 339q0-28-6-58L446 0h-19l61 285q6 28 6 53 0 72-43.5 111.5T336 489q-65 0-116-34t-87-91L56 0H37zm37 79l211 139 153-139-11-13-144 129-200-130z"/><glyph glyph-name="Hbar" unicode="Ħ" horiz-adv-x="768" d="M114 553h64l34 157h19l-34-157h502l34 157h19l-34-157h66l-4-19h-66L601 0h-19l76 357H156L80 0H61l113 534h-64zm548-177l33 158H193l-33-158h502z"/><glyph glyph-name="hbar" unicode="ħ" horiz-adv-x="581" d="M82 628h88l18 82h19l-18-82h187l-4-19H185l-43-203q33 44 81 73t113 29q82 0 129-45.5T512 339q0-28-6-58L446 0h-19l61 285q6 28 6 53 0 72-43.5 111.5T336 489q-65 0-116-34t-87-91L56 0H37l129 609H78z"/><glyph glyph-name="Itilde" unicode="Ĩ" horiz-adv-x="247" d="M212 710h19L80 0H61zM82 803q11 45 38 67t57 22q26 0 45-11t35.5-24.5T290 832t36-11q28 0 47.5 18.5T403 892h19q-14-48-39.5-68.5T326 803q-24 0-42 11t-34 24.5-33.5 24.5-39.5 11q-29 0-47.5-19T101 803H82z"/><glyph glyph-name="itilde" unicode="ĩ" horiz-adv-x="199" d="M143 500h19L56 0H37zM14 582q11 45 38 67t57 22q26 0 45-11t35.5-24.5T222 611t36-11q28 0 47.5 18.5T335 671h19q-14-48-39.5-68.5T258 582q-24 0-42 11t-34 24.5-33.5 24.5-39.5 11q-29 0-47.5-19T33 582H14z"/><glyph glyph-name="Imacron" unicode="Ī" horiz-adv-x="247" d="M212 710h19L80 0H61zm-99 140h278l-4-19H109z"/><glyph glyph-name="imacron" unicode="ī" horiz-adv-x="199" d="M143 500h19L56 0H37zM53 680h278l-5-19H48z"/><glyph glyph-name="Ibreve" unicode="Ĭ" horiz-adv-x="247" d="M212 710h19L80 0H61zm187 192q-16-56-51.5-88.5T248 781q-58 0-91 27t-33 74q0 5 .5 10t1.5 10h18q-1-5-1-9.5V884q0-46 30.5-65t75.5-19q51 0 82 23t50 79h18z"/><glyph glyph-name="ibreve" unicode="ĭ" horiz-adv-x="199" d="M143 500h19L56 0H37zm193 210q-16-56-51.5-88.5T185 589q-58 0-91 27t-33 74q0 5 .5 10t1.5 10h18q-1-5-1-9.5V692q0-46 30.5-65t75.5-19q51 0 82 23t50 79h18z"/><glyph glyph-name="Iogonek" unicode="Į" horiz-adv-x="247" d="M212 710h19L80 0H61zM17-192q-30 0-49 19t-19 50q0 19 10 37t25.5 34T20-22.5 60 0h19Q34-21 1-52t-33-72q0-18 12.5-33.5T21-173q5 0 11 .5t11 1.5l-4-18q-12-3-22-3z"/><glyph glyph-name="iogonek" unicode="į" horiz-adv-x="199" d="M143 500h19L56 0h1Q37-8 17-22t-36-31-26-36.5-10-38.5q0-26 17-35.5t36-9.5q12 0 23 3l-4-19q-14-3-26-3-27 0-46.5 16T-75-129q0 19 9.5 38.5t25.5 37T-3.5-22 38 0h-1zm45 210q4 4 11 4t8-4l-19-90h-19z"/><glyph glyph-name="Idotaccent" unicode="İ" horiz-adv-x="247" d="M212 710h19L80 0H61zm17 78l22 103h19l-22-103h-19z"/><glyph glyph-name="dotlessi" unicode="ı" horiz-adv-x="199" d="M143 500h19L56 0H37z"/><glyph glyph-name="Jcircumflex" unicode="Ĵ" horiz-adv-x="517" d="M399 187Q378 87 320.5 39.5T178-8q-36 0-67.5 9T55 28.5t-37.5 46T4 140q0 11 1.5 22.5T9 187h19q-2-12-3.5-23T23 142q0-63 41.5-97T178 11q85 0 134.5 46T380 187l111 523h19L399 187zm-67 602l211 139 153-139-11-13-144 129-200-130z"/><glyph glyph-name="jcircumflex" unicode="ĵ" horiz-adv-x="207" d="M-107-165h8q37 0 60.5 8t38 24 23 41T38-32l113 532h19L54-48q-8-36-19-62T6-152.5t-44.5-24-65.5-7.5h-7zM15 579l191 139 133-139-13-13-123 128L26 565z"/><glyph glyph-name="uni0136" unicode="Ķ" horiz-adv-x="575" d="M502 0L156 353l462 357h28L183 352 528 0h-26zM212 710h19L80 0H61zm30-760h21L153-215h-21z"/><glyph glyph-name="uni0137" unicode="ķ" horiz-adv-x="465" d="M188 710h19l-95-447 348 237h32L141 261 415 0h-27L112 263 56 0H37zm20-760h21L119-215H98z"/><glyph glyph-name="Lacute" unicode="Ĺ" horiz-adv-x="514" d="M362 913h23L245 768h-23zM212 710h19L84 19h370l-4-19H61z"/><glyph glyph-name="lacute" unicode="ĺ" horiz-adv-x="199" d="M188 710h19L56 0H37zm105 203h23L176 768h-23z"/><glyph glyph-name="uni013B" unicode="Ļ" horiz-adv-x="514" d="M212 710h19L84 19h370l-4-19H61zm57-760h21L180-215h-21z"/><glyph glyph-name="uni013C" unicode="ļ" horiz-adv-x="199" d="M188 710h19L56 0H37zM25-50h21L-64-215h-21z"/><glyph glyph-name="Lcaron" unicode="Ľ" horiz-adv-x="514" d="M212 710h19L84 19h370l-4-19H61zm148 0h20l-68-170h-17z"/><glyph glyph-name="lcaron" unicode="ľ" horiz-adv-x="223" d="M188 710h19L56 0H37zm129 0h20l-68-170h-17z"/><glyph glyph-name="Ldot" unicode="Ŀ" horiz-adv-x="516" d="M378 312l22 103h19l-22-103h-19zM212 710h19L84 19h370l-4-19H61z"/><glyph glyph-name="ldot" unicode="ŀ" horiz-adv-x="198" d="M199 298l22 103h19l-22-103h-19zm-11 412h19L56 0H37z"/><glyph glyph-name="Lslash" unicode="Ł" horiz-adv-x="523" d="M17 256l122 73 81 381h19l-79-368 206 123 9-15-220-132L92 19h370l-4-19H69l65 305-108-64z"/><glyph glyph-name="lslash" unicode="ł" horiz-adv-x="291" d="M21 275l138 85 75 350h19l-72-337 125 77 9-15-139-85L102 0H83l71 336-124-76z"/><glyph glyph-name="Nacute" unicode="Ń" horiz-adv-x="794" d="M222 668L80 0H61l153 718L617 42l142 668h19L625-8zm371 245h23L476 768h-23z"/><glyph glyph-name="nacute" unicode="ń" horiz-adv-x="580" d="M143 500h19l-20-93q33 44 81 72.5T335 508q82 0 129-45.5T511 339q0-28-6-58L445 0h-19l61 285q6 28 6 53 0 72-43.5 111.5T335 489q-64 0-115-33t-87-90L56 0H37zm303 210h23L324 545h-23z"/><glyph glyph-name="uni0145" unicode="Ņ" horiz-adv-x="794" d="M222 668L80 0H61l153 718L617 42l142 668h19L625-8zM357-50h21L268-215h-21z"/><glyph glyph-name="uni0146" unicode="ņ" horiz-adv-x="580" d="M143 500h19l-20-93q33 44 81 72.5T335 508q82 0 129-45.5T511 339q0-28-6-58L445 0h-19l61 285q6 28 6 53 0 72-43.5 111.5T335 489q-64 0-115-33t-87-90L56 0H37zM254-50h21L165-215h-21z"/><glyph glyph-name="Ncaron" unicode="Ň" horiz-adv-x="794" d="M222 668L80 0H61l153 718L617 42l142 668h19L625-8zm497 242L508 771 355 910l11 13 144-129 200 130z"/><glyph glyph-name="ncaron" unicode="ň" horiz-adv-x="580" d="M143 500h19l-20-93q33 44 81 72.5T335 508q82 0 129-45.5T511 339q0-28-6-58L445 0h-19l61 285q6 28 6 53 0 72-43.5 111.5T335 489q-64 0-115-33t-87-90L56 0H37zm410 205L362 566 229 705l13 13 123-128 177 129z"/><glyph glyph-name="Omacron" unicode="Ō" horiz-adv-x="852" d="M99 325q0-62 20.5-118.5t60-100T277 37t133-26q89 0 160.5 30.5t122 82 78 119.5T798 385q0 62-20.5 118.5t-60 100T620 673t-133 26q-89 0-160.5-30.5t-122-82-78-119.5T99 325zm719 60q0-75-28-146t-81-126-128.5-88T410-8q-80 0-141.5 27.5T165 93t-64 106.5T79 325q0 75 28 146t81 126 128.5 88T487 718q79 0 141-27.5T732 617t64-106.5T818 385zM414 850h278l-4-19H410z"/><glyph glyph-name="omacron" unicode="ō" horiz-adv-x="624" d="M71 227q0-51 18.5-91t49-68 70-42.5T291 11q55 0 102.5 19.5t83 54.5 56 83T553 273q0 51-18.5 91t-49 68-70 42.5T333 489q-55 0-102.5-19.5t-83-54.5-56-83T71 227zm502 46q0-59-21.5-110t-59-89-89-60T292-8q-57 0-102 19.5t-75.5 52-47 75T51 227q0 58 21.5 109.5t59 89.5 89 60T332 508q57 0 102-19.5t75.5-52 47-75T573 273zM265 680h278l-5-19H260z"/><glyph glyph-name="Obreve" unicode="Ŏ" horiz-adv-x="852" d="M99 325q0-62 20.5-118.5t60-100T277 37t133-26q89 0 160.5 30.5t122 82 78 119.5T798 385q0 62-20.5 118.5t-60 100T620 673t-133 26q-89 0-160.5-30.5t-122-82-78-119.5T99 325zm719 60q0-75-28-146t-81-126-128.5-88T410-8q-80 0-141.5 27.5T165 93t-64 106.5T79 325q0 75 28 146t81 126 128.5 88T487 718q79 0 141-27.5T732 617t64-106.5T818 385zM690 902q-16-56-51.5-88.5T539 781q-58 0-91 27t-33 74q0 5 .5 10t1.5 10h18q-1-5-1-9.5V884q0-46 30.5-65t75.5-19q51 0 82 23t50 79h18z"/><glyph glyph-name="obreve" unicode="ŏ" horiz-adv-x="624" d="M71 227q0-51 18.5-91t49-68 70-42.5T291 11q55 0 102.5 19.5t83 54.5 56 83T553 273q0 51-18.5 91t-49 68-70 42.5T333 489q-55 0-102.5-19.5t-83-54.5-56-83T71 227zm502 46q0-59-21.5-110t-59-89-89-60T292-8q-57 0-102 19.5t-75.5 52-47 75T51 227q0 58 21.5 109.5t59 89.5 89 60T332 508q57 0 102-19.5t75.5-52 47-75T573 273zm-37 437q-16-56-51.5-88.5T385 589q-58 0-91 27t-33 74q0 5 .5 10t1.5 10h18q-1-5-1-9.5V692q0-46 30.5-65t75.5-19q51 0 82 23t50 79h18z"/><glyph glyph-name="Ohungarumlaut" unicode="Ő" horiz-adv-x="852" d="M99 325q0-62 20.5-118.5t60-100T277 37t133-26q89 0 160.5 30.5t122 82 78 119.5T798 385q0 62-20.5 118.5t-60 100T620 673t-133 26q-89 0-160.5-30.5t-122-82-78-119.5T99 325zm719 60q0-75-28-146t-81-126-128.5-88T410-8q-80 0-141.5 27.5T165 93t-64 106.5T79 325q0 75 28 146t81 126 128.5 88T487 718q79 0 141-27.5T732 617t64-106.5T818 385zM534 913h23L417 768h-23zm202 0h23L619 768h-23z"/><glyph glyph-name="ohungarumlaut" unicode="ő" horiz-adv-x="624" d="M71 227q0-51 18.5-91t49-68 70-42.5T291 11q55 0 102.5 19.5t83 54.5 56 83T553 273q0 51-18.5 91t-49 68-70 42.5T333 489q-55 0-102.5-19.5t-83-54.5-56-83T71 227zm502 46q0-59-21.5-110t-59-89-89-60T292-8q-57 0-102 19.5t-75.5 52-47 75T51 227q0 58 21.5 109.5t59 89.5 89 60T332 508q57 0 102-19.5t75.5-52 47-75T573 273zM389 710h23L267 545h-23zm162 0h23L429 545h-23z"/><glyph glyph-name="OE" unicode="Œ" horiz-adv-x="1125" d="M656 67q-49-35-111-55T410-8q-80 0-141.5 27.5T165 93t-64 106.5T79 325q0 75 28 146t81 126 128.5 88T487 718q96 0 165-39t111-102l28 133h389l-4-19H806l-29-138q41-77 41-168 0-2-.5-4.5t-.5-4.5h232l-4-19H817q-6-78-41-149.5T679 85l-16-66h370l-4-19H640zM99 325q0-62 20.5-118.5t60-100T277 37t133-26q89 0 160.5 30.5t122 82 78 119.5T798 385q0 62-20.5 118.5t-60 100T620 673t-133 26q-89 0-160.5-30.5t-122-82-78-119.5T99 325z"/><glyph glyph-name="oe" unicode="œ" horiz-adv-x="1073" d="M973 58q-37-31-84-48.5T787-8q-49 0-88.5 14.5T630 46t-48 59-26 72q-14-41-39.5-74.5t-60-58.5-76-38.5T292-8q-57 0-102 19.5t-75.5 52-47 75T51 227q0 58 21.5 109.5t59 89.5 89 60T332 508q49 0 89-14.5t70-39.5 49.5-59 27.5-72q14 40 39 74t59.5 59 76.5 38.5 90 13.5q39 0 76-11.5t66.5-34.5 47-59 17.5-85q0-28-6-59H574q-1-8-1.5-16t-.5-16q0-52 17.5-92.5t47-68T705 25t82-14q51 0 95 16.5T961 74zM71 227q0-51 18.5-91t49-68 70-42.5T291 11q55 0 102.5 19.5t83 54.5 56 83T553 273q0 51-18.5 91t-49 68-70 42.5T333 489q-55 0-102.5-19.5t-83-54.5-56-83T71 227zm761 262q-49 0-92-15.5t-76.5-44T607 362t-31-85h441q3 21 3 39 0 43-14.5 75t-40 54-60 33-73.5 11z"/><glyph glyph-name="Racute" unicode="Ŕ" horiz-adv-x="592" d="M298 352H155L80 0H61l151 710h179q46 0 81-12t57.5-32 34-47.5T575 560q0-43-15.5-80.5T512 414t-80-44.5T320 352L537 0h-22zm19 19q60 0 105 14.5t74.5 40 44 60T555 560q0 57-40.5 94T392 691H227l-68-320h158zm174 542h23L374 768h-23z"/><glyph glyph-name="racute" unicode="ŕ" horiz-adv-x="321" d="M352 710h23L230 545h-23zM143 500h19l-19-91q30 42 78.5 70.5T333 508q8 0 16-.5t16-1.5l-5-20q-7 1-15 1.5t-16 .5q-67 0-118-35.5T133 363L56 0H37z"/><glyph glyph-name="uni0156" unicode="Ŗ" horiz-adv-x="592" d="M298 352H155L80 0H61l151 710h179q46 0 81-12t57.5-32 34-47.5T575 560q0-43-15.5-80.5T512 414t-80-44.5T320 352L537 0h-22zm19 19q60 0 105 14.5t74.5 40 44 60T555 560q0 57-40.5 94T392 691H227l-68-320h158zM255-50h21L166-215h-21z"/><glyph glyph-name="uni0157" unicode="ŗ" horiz-adv-x="321" d="M29-50h21L-60-215h-21zm114 550h19l-19-91q30 42 78.5 70.5T333 508q8 0 16-.5t16-1.5l-5-20q-7 1-15 1.5t-16 .5q-67 0-118-35.5T133 363L56 0H37z"/><glyph glyph-name="Rcaron" unicode="Ř" horiz-adv-x="592" d="M619 910L408 771 255 910l11 13 144-129 200 130zM298 352H155L80 0H61l151 710h179q46 0 81-12t57.5-32 34-47.5T575 560q0-43-15.5-80.5T512 414t-80-44.5T320 352L537 0h-22zm19 19q60 0 105 14.5t74.5 40 44 60T555 560q0 57-40.5 94T392 691H227l-68-320h158z"/><glyph glyph-name="rcaron" unicode="ř" horiz-adv-x="321" d="M143 500h19l-19-91q30 42 78.5 70.5T333 508q8 0 16-.5t16-1.5l-5-20q-7 1-15 1.5t-16 .5q-67 0-118-35.5T133 363L56 0H37zm297 205L249 566 116 705l13 13 123-128 177 129z"/><glyph glyph-name="Sacute" unicode="Ś" horiz-adv-x="517" d="M456 163q0-32-12.5-63T405 45 339 6.5 244-8q-41 0-77 11t-65 29-49.5 42T21 124l18 9q10-24 29-46.5t45.5-39 60-26.5T246 11q47 0 82.5 12T388 55.5t36 48 12 58.5q0 32-8 57.5t-23 47-37 40-51 37.5l-90 59q-48 32-72 68.5T131 556q0 75 49.5 118.5T320 718q50 0 100-22.5t88-78.5l-17-11q-34 52-79 72.5T317 699q-36 0-66.5-9.5T198 662t-34.5-44.5T151 557q0-48 23-80t68-61l90-59q61-40 92.5-84.5T456 163zm3 750h23L342 768h-23z"/><glyph glyph-name="sacute" unicode="ś" horiz-adv-x="402" d="M334 116q0-26-10.5-48.5t-30.5-39T244.5 2 180-8q-37 0-65.5 9.5T65 27 31 62.5 11 102l17 9q14-43 53-71.5T182 11q59 0 95.5 29t36.5 73q0 22-7 40t-19 32.5-28 27-35 23.5l-54 32q-37 22-59.5 52.5T89 393q0 48 37 81.5T228 508q26 0 48.5-7.5t39.5-19 29.5-26T364 427l-17-9q-5 11-15 23.5t-25 23-34.5 17.5-44.5 7q-55 0-87-27t-32-69q0-39 21.5-65.5T187 280l54-32q41-24 67-56t26-76zm32 593h23L244 544h-23z"/><glyph glyph-name="Scircumflex" unicode="Ŝ" horiz-adv-x="517" d="M456 163q0-32-12.5-63T405 45 339 6.5 244-8q-41 0-77 11t-65 29-49.5 42T21 124l18 9q10-24 29-46.5t45.5-39 60-26.5T246 11q47 0 82.5 12T388 55.5t36 48 12 58.5q0 32-8 57.5t-23 47-37 40-51 37.5l-90 59q-48 32-72 68.5T131 556q0 75 49.5 118.5T320 718q50 0 100-22.5t88-78.5l-17-11q-34 52-79 72.5T317 699q-36 0-66.5-9.5T198 662t-34.5-44.5T151 557q0-48 23-80t68-61l90-59q61-40 92.5-84.5T456 163zM162 789l211 139 153-139-11-13-144 129-200-130z"/><glyph glyph-name="scircumflex" unicode="ŝ" horiz-adv-x="402" d="M110 579l191 139 133-139-13-13-123 128-177-129zm224-463q0-26-10.5-48.5t-30.5-39T244.5 2 180-8q-37 0-65.5 9.5T65 27 31 62.5 11 102l17 9q14-43 53-71.5T182 11q59 0 95.5 29t36.5 73q0 22-7 40t-19 32.5-28 27-35 23.5l-54 32q-37 22-59.5 52.5T89 393q0 48 37 81.5T228 508q26 0 48.5-7.5t39.5-19 29.5-26T364 427l-17-9q-5 11-15 23.5t-25 23-34.5 17.5-44.5 7q-55 0-87-27t-32-69q0-39 21.5-65.5T187 280l54-32q41-24 67-56t26-76z"/><glyph glyph-name="Scedilla" unicode="Ş" horiz-adv-x="517" d="M232-8q-39 2-73 13.5T98 35 51 76t-30 48l18 9q10-24 29-46.5t45.5-39 60-26.5T246 11q47 0 82.5 12T388 55.5t36 48 12 58.5q0 32-8 57.5t-23 47-37 40-51 37.5l-90 59q-48 32-72 68.5T131 556q0 75 49.5 118.5T320 718q50 0 100-22.5t88-78.5l-17-11q-34 52-79 72.5T317 699q-36 0-66.5-9.5T198 662t-34.5-44.5T151 557q0-48 23-80t68-61l90-59q61-40 92.5-84.5T456 163q0-32-12-62t-37-54-63.5-39T252-8L148-165h-21z"/><glyph glyph-name="scedilla" unicode="ş" horiz-adv-x="402" d="M167-7q-34 1-60.5 11.5T61 30 29.5 64 11 102l17 9q14-43 53-71.5T182 11q59 0 95.5 29t36.5 73q0 22-7 40t-19 32.5-28 27-35 23.5l-54 32q-37 22-59.5 52.5T89 393q0 48 37 81.5T228 508q26 0 48.5-7.5t39.5-19 29.5-26T364 427l-17-9q-5 11-15 23.5t-25 23-34.5 17.5-44.5 7q-55 0-87-27t-32-69q0-39 21.5-65.5T187 280l54-32q41-24 67-56t26-76q0-25-10-47t-29-38.5-46.5-27T187-8L83-165H62z"/><glyph glyph-name="Scaron" unicode="Š" horiz-adv-x="517" d="M553 910L342 771 189 910l11 13 144-129 200 130zm-97-747q0-32-12.5-63T405 45 339 6.5 244-8q-41 0-77 11t-65 29-49.5 42T21 124l18 9q10-24 29-46.5t45.5-39 60-26.5T246 11q47 0 82.5 12T388 55.5t36 48 12 58.5q0 32-8 57.5t-23 47-37 40-51 37.5l-90 59q-48 32-72 68.5T131 556q0 75 49.5 118.5T320 718q50 0 100-22.5t88-78.5l-17-11q-34 52-79 72.5T317 699q-36 0-66.5-9.5T198 662t-34.5-44.5T151 557q0-48 23-80t68-61l90-59q61-40 92.5-84.5T456 163z"/><glyph glyph-name="scaron" unicode="š" horiz-adv-x="402" d="M452 705L261 566 128 705l13 13 123-128 177 129zM334 116q0-26-10.5-48.5t-30.5-39T244.5 2 180-8q-37 0-65.5 9.5T65 27 31 62.5 11 102l17 9q14-43 53-71.5T182 11q59 0 95.5 29t36.5 73q0 22-7 40t-19 32.5-28 27-35 23.5l-54 32q-37 22-59.5 52.5T89 393q0 48 37 81.5T228 508q26 0 48.5-7.5t39.5-19 29.5-26T364 427l-17-9q-5 11-15 23.5t-25 23-34.5 17.5-44.5 7q-55 0-87-27t-32-69q0-39 21.5-65.5T187 280l54-32q41-24 67-56t26-76z"/><glyph glyph-name="uni0162" unicode="Ţ" horiz-adv-x="484" d="M325 691H103l4 19h463l-4-19H344L197 0h-19zM168-50h21L79-215H58z"/><glyph glyph-name="uni0163" unicode="ţ" horiz-adv-x="289" d="M56 500h116l30 140 21 10-32-150h139l-4-19H187l-73-346q-6-29-6-49 0-34 19.5-50.5T196 19h31l-4-19h-28q-55 0-80.5 19.5T89 84q0 22 6 52l73 345H56v19zm81-550h21L48-215H27z"/><glyph glyph-name="Tcaron" unicode="Ť" horiz-adv-x="484" d="M325 691H103l4 19h463l-4-19H344L197 0h-19zm239 219L353 771 200 910l11 13 144-129 200 130z"/><glyph glyph-name="tcaron" unicode="ť" horiz-adv-x="289" d="M56 500h116l30 140 21 10-32-150h139l-4-19H187l-73-346q-6-29-6-49 0-34 19.5-50.5T196 19h31l-4-19h-28q-55 0-80.5 19.5T89 84q0 22 6 52l73 345H56v19zm299 210h20l-68-170h-17z"/><glyph glyph-name="Utilde" unicode="Ũ" horiz-adv-x="727" d="M626 260Q598 129 523 60.5T324-8Q218-8 158 42T98 188q0 17 1.5 34.5T106 260l96 450h19l-96-450q-5-20-6.5-37t-1.5-34q0-90 56-134t150-44q112 0 184.5 61T607 260l96 450h19l-96-450zM322 803q11 45 38 67t57 22q26 0 45-11t35.5-24.5T530 832t36-11q28 0 47.5 18.5T643 892h19q-14-48-39.5-68.5T566 803q-24 0-42 11t-34 24.5-33.5 24.5-39.5 11q-29 0-47.5-19T341 803h-19z"/><glyph glyph-name="utilde" unicode="ũ" horiz-adv-x="577" d="M434 92q-32-44-80.5-72T242-8q-85 0-130 41T67 147q0 14 2 28t5 30l62 295h19L92 201q-6-27-6-51 0-66 41-102.5T242 11q66 0 116 33t85 90l78 366h19L434 0h-19zM195 582q11 45 38 67t57 22q26 0 45-11t35.5-24.5T403 611t36-11q28 0 47.5 18.5T516 671h19q-14-48-39.5-68.5T439 582q-24 0-42 11t-34 24.5-33.5 24.5-39.5 11q-29 0-47.5-19T214 582h-19z"/><glyph glyph-name="Umacron" unicode="Ū" horiz-adv-x="727" d="M626 260Q598 129 523 60.5T324-8Q218-8 158 42T98 188q0 17 1.5 34.5T106 260l96 450h19l-96-450q-5-20-6.5-37t-1.5-34q0-90 56-134t150-44q112 0 184.5 61T607 260l96 450h19l-96-450zM353 850h278l-4-19H349z"/><glyph glyph-name="umacron" unicode="ū" horiz-adv-x="577" d="M434 92q-32-44-80.5-72T242-8q-85 0-130 41T67 147q0 14 2 28t5 30l62 295h19L92 201q-6-27-6-51 0-66 41-102.5T242 11q66 0 116 33t85 90l78 366h19L434 0h-19zM238 680h278l-5-19H233z"/><glyph glyph-name="Ubreve" unicode="Ŭ" horiz-adv-x="727" d="M626 260Q598 129 523 60.5T324-8Q218-8 158 42T98 188q0 17 1.5 34.5T106 260l96 450h19l-96-450q-5-20-6.5-37t-1.5-34q0-90 56-134t150-44q112 0 184.5 61T607 260l96 450h19l-96-450zm3 642q-16-56-51.5-88.5T478 781q-58 0-91 27t-33 74q0 5 .5 10t1.5 10h18q-1-5-1-9.5V884q0-46 30.5-65t75.5-19q51 0 82 23t50 79h18z"/><glyph glyph-name="ubreve" unicode="ŭ" horiz-adv-x="577" d="M434 92q-32-44-80.5-72T242-8q-85 0-130 41T67 147q0 14 2 28t5 30l62 295h19L92 201q-6-27-6-51 0-66 41-102.5T242 11q66 0 116 33t85 90l78 366h19L434 0h-19zm75 618q-16-56-51.5-88.5T358 589q-58 0-91 27t-33 74q0 5 .5 10t1.5 10h18q-1-5-1-9.5V692q0-46 30.5-65t75.5-19q51 0 82 23t50 79h18z"/><glyph glyph-name="Uring" unicode="Ů" horiz-adv-x="727" d="M626 260Q598 129 523 60.5T324-8Q218-8 158 42T98 188q0 17 1.5 34.5T106 260l96 450h19l-96-450q-5-20-6.5-37t-1.5-34q0-90 56-134t150-44q112 0 184.5 61T607 260l96 450h19l-96-450zM428 836q0-26 18-44.5t44-18.5 44 18.5 18 44.5-18 44.5-44 18.5-44-18.5-18-44.5zm142 0q0-33-23.5-56.5T490 756t-56.5 23.5T410 836t23.5 56.5T490 916t56.5-23.5T570 836z"/><glyph glyph-name="uring" unicode="ů" horiz-adv-x="577" d="M434 92q-32-44-80.5-72T242-8q-85 0-130 41T67 147q0 14 2 28t5 30l62 295h19L92 201q-6-27-6-51 0-66 41-102.5T242 11q66 0 116 33t85 90l78 366h19L434 0h-19zM312 671q0-26 18-44.5t44-18.5 44 18.5 18 44.5-18 44.5-44 18.5-44-18.5-18-44.5zm142 0q0-33-23.5-56.5T374 591t-56.5 23.5T294 671t23.5 56.5T374 751t56.5-23.5T454 671z"/><glyph glyph-name="Uhungarumlaut" unicode="Ű" horiz-adv-x="727" d="M626 260Q598 129 523 60.5T324-8Q218-8 158 42T98 188q0 17 1.5 34.5T106 260l96 450h19l-96-450q-5-20-6.5-37t-1.5-34q0-90 56-134t150-44q112 0 184.5 61T607 260l96 450h19l-96-450zM493 913h23L376 768h-23zm202 0h23L578 768h-23z"/><glyph glyph-name="uhungarumlaut" unicode="ű" horiz-adv-x="577" d="M434 92q-32-44-80.5-72T242-8q-85 0-130 41T67 147q0 14 2 28t5 30l62 295h19L92 201q-6-27-6-51 0-66 41-102.5T242 11q66 0 116 33t85 90l78 366h19L434 0h-19zm-51 618h23L261 545h-23zm162 0h23L423 545h-23z"/><glyph glyph-name="Uogonek" unicode="Ų" horiz-adv-x="727" d="M339-192q-30 0-49 19t-19 50q0 18 8.5 35t23 32.5T335-27t37 22q-24-3-48-3-106 0-166 50T98 188q0 17 1.5 34.5T106 260l96 450h19l-96-450q-5-20-6.5-37t-1.5-34q0-90 56-134t150-44q112 0 184.5 61T607 260l96 450h19l-96-450q-23-109-79-174.5T400 0h1q-45-21-78-52t-33-72q0-18 12.5-33.5T343-173q5 0 11 .5t11 1.5l-4-18q-12-3-22-3z"/><glyph glyph-name="uogonek" unicode="ų" horiz-adv-x="577" d="M368-192q-27 0-46.5 16T302-129q0 19 9.5 38.5t25.5 37T373.5-22 415 0l19 92q-32-44-80.5-72T242-8q-85 0-130 41T67 147q0 14 2 28t5 30l62 295h19L92 201q-6-27-6-51 0-66 41-102.5T242 11q66 0 116 33t85 90l78 366h19L434 0q-20-8-40-22t-36-31-26-36.5-10-38.5q0-26 17-35.5t36-9.5q12 0 23 3l-4-19q-14-3-26-3z"/><glyph glyph-name="Wcircumflex" unicode="Ŵ" horiz-adv-x="887" d="M128 710h19l54-652 341 660 61-661 330 653h21L590-8l-61 660L188-8zm242 79l211 139 153-139-11-13-144 129-200-130z"/><glyph glyph-name="wcircumflex" unicode="ŵ" horiz-adv-x="737" d="M67 500h20l66-453 269 461 73-462 258 454h23L485-8l-74 461L143-8zm207 79l191 139 133-139-13-13-123 128-177-129z"/><glyph glyph-name="Ycircumflex" unicode="Ŷ" horiz-adv-x="572" d="M288 302L116 710h20l164-388 329 388h24L307 302 243 0h-19zm-73 487l211 139 153-139-11-13-144 129-200-130z"/><glyph glyph-name="ycircumflex" unicode="ŷ" horiz-adv-x="515" d="M194 9L63 500h21L208 30l329 470h24L81-184H58zm-33 570l191 139 133-139-13-13-123 128-177-129z"/><glyph glyph-name="Ydieresis" unicode="Ÿ" horiz-adv-x="572" d="M288 302L116 710h20l164-388 329 388h24L307 302 243 0h-19zm-8 486l22 103h19l-22-103h-19zm220 0l22 103h19l-22-103h-19z"/><glyph glyph-name="Zacute" unicode="Ź" horiz-adv-x="556" d="M586 691H154l4 19h471L-5 19h488l-4-19H-48zm-95 222h23L374 768h-23z"/><glyph glyph-name="zacute" unicode="ź" horiz-adv-x="472" d="M453 481H101l4 19h395L9 19h380l-4-19H-38zm-52 229h23L279 545h-23z"/><glyph glyph-name="Zdotaccent" unicode="Ż" horiz-adv-x="556" d="M586 691H154l4 19h471L-5 19h488l-4-19H-48zm-187 97l22 103h19l-22-103h-19z"/><glyph glyph-name="zdotaccent" unicode="ż" horiz-adv-x="472" d="M453 481H101l4 19h395L9 19h380l-4-19H-38zM310 584l22 103h19l-22-103h-19z"/><glyph glyph-name="Zcaron" unicode="Ž" horiz-adv-x="556" d="M586 691H154l4 19h471L-5 19h488l-4-19H-48zm31 219L406 771 253 910l11 13 144-129 200 130z"/><glyph glyph-name="zcaron" unicode="ž" horiz-adv-x="472" d="M453 481H101l4 19h395L9 19h380l-4-19H-38zm54 224L316 566 183 705l13 13 123-128 177 129z"/><glyph glyph-name="uni0218" unicode="Ș" horiz-adv-x="517" d="M456 163q0-32-12.5-63T405 45 339 6.5 244-8q-41 0-77 11t-65 29-49.5 42T21 124l18 9q10-24 29-46.5t45.5-39 60-26.5T246 11q47 0 82.5 12T388 55.5t36 48 12 58.5q0 32-8 57.5t-23 47-37 40-51 37.5l-90 59q-48 32-72 68.5T131 556q0 75 49.5 118.5T320 718q50 0 100-22.5t88-78.5l-17-11q-34 52-79 72.5T317 699q-36 0-66.5-9.5T198 662t-34.5-44.5T151 557q0-48 23-80t68-61l90-59q61-40 92.5-84.5T456 163zM229-50h21L140-215h-21z"/><glyph glyph-name="uni0219" unicode="ș" horiz-adv-x="402" d="M334 116q0-26-10.5-48.5t-30.5-39T244.5 2 180-8q-37 0-65.5 9.5T65 27 31 62.5 11 102l17 9q14-43 53-71.5T182 11q59 0 95.5 29t36.5 73q0 22-7 40t-19 32.5-28 27-35 23.5l-54 32q-37 22-59.5 52.5T89 393q0 48 37 81.5T228 508q26 0 48.5-7.5t39.5-19 29.5-26T364 427l-17-9q-5 11-15 23.5t-25 23-34.5 17.5-44.5 7q-55 0-87-27t-32-69q0-39 21.5-65.5T187 280l54-32q41-24 67-56t26-76zM159-50h21L70-215H49z"/><glyph glyph-name="uni021A" unicode="Ț" horiz-adv-x="484" d="M325 691H103l4 19h463l-4-19H344L197 0h-19zM168-50h21L79-215H58z"/><glyph glyph-name="uni021B" unicode="ț" horiz-adv-x="289" d="M56 500h116l30 140 21 10-32-150h139l-4-19H187l-73-346q-6-29-6-49 0-34 19.5-50.5T196 19h31l-4-19h-28q-55 0-80.5 19.5T89 84q0 22 6 52l73 345H56v19zm81-550h21L48-215H27z"/><glyph glyph-name="uni0232" unicode="Ȳ" horiz-adv-x="572" d="M288 302L116 710h20l164-388 329 388h24L307 302 243 0h-19zm-15 548h278l-4-19H269z"/><glyph glyph-name="uni0233" unicode="ȳ" horiz-adv-x="515" d="M194 9L63 500h21L208 30l329 470h24L81-184H58zm14 671h278l-5-19H203z"/><glyph glyph-name="uni0237" unicode="ȷ" horiz-adv-x="207" d="M-107-165h8q37 0 60.5 8t38 24 23 41T38-32l113 532h19L54-48q-8-36-19-62T6-152.5t-44.5-24-65.5-7.5h-7z"/><glyph glyph-name="circumflex" unicode="ˆ" horiz-adv-x="364" d="M131 579l191 139 133-139-13-13-123 128-177-129z"/><glyph glyph-name="caron" unicode="ˇ" horiz-adv-x="364" d="M482 705L291 566 158 705l13 13 123-128 177 129z"/><glyph glyph-name="breve" unicode="˘" horiz-adv-x="313" d="M444 710q-16-56-51.5-88.5T293 589q-58 0-91 27t-33 74q0 5 .5 10t1.5 10h18q-1-5-1-9.5V692q0-46 30.5-65t75.5-19q51 0 82 23t50 79h18z"/><glyph glyph-name="dotaccent" unicode="˙" horiz-adv-x="59" d="M132 584l22 103h19l-22-103h-19z"/><glyph glyph-name="ring" unicode="˚" horiz-adv-x="203" d="M170 671q0-26 18-44.5t44-18.5 44 18.5 18 44.5-18 44.5-44 18.5-44-18.5-18-44.5zm142 0q0-33-23.5-56.5T232 591t-56.5 23.5T152 671t23.5 56.5T232 751t56.5-23.5T312 671z"/><glyph glyph-name="ogonek" unicode="˛" horiz-adv-x="146" d="M48-192q-27 0-46.5 16T-18-129q0 19 9.5 38.5t25.5 37T53.5-22 95 0h19Q94-8 74-22T38-53 12-89.5 2-128q0-26 17-35.5t36-9.5q12 0 23 3l-4-19q-14-3-26-3z"/><glyph glyph-name="tilde" unicode="˜" horiz-adv-x="361" d="M132 582q11 45 38 67t57 22q26 0 45-11t35.5-24.5T340 611t36-11q28 0 47.5 18.5T453 671h19q-14-48-39.5-68.5T376 582q-24 0-42 11t-34 24.5-33.5 24.5-39.5 11q-29 0-47.5-19T151 582h-19z"/><glyph glyph-name="hungarumlaut" unicode="˝" horiz-adv-x="335" d="M281 710h23L159 545h-23zm162 0h23L321 545h-23z"/><glyph glyph-name="Wgrave" unicode="Ẁ" horiz-adv-x="887" d="M128 710h19l54-652 341 660 61-661 330 653h21L590-8l-61 660L188-8zm336 203h19l79-145h-19z"/><glyph glyph-name="wgrave" unicode="ẁ" horiz-adv-x="737" d="M67 500h20l66-453 269 461 73-462 258 454h23L485-8l-74 461L143-8zm278 210h19l75-165h-19z"/><glyph glyph-name="Wacute" unicode="Ẃ" horiz-adv-x="887" d="M128 710h19l54-652 341 660 61-661 330 653h21L590-8l-61 660L188-8zm553 203h23L564 768h-23z"/><glyph glyph-name="wacute" unicode="ẃ" horiz-adv-x="737" d="M67 500h20l66-453 269 461 73-462 258 454h23L485-8l-74 461L143-8zm497 210h23L442 545h-23z"/><glyph glyph-name="Wdieresis" unicode="Ẅ" horiz-adv-x="887" d="M128 710h19l54-652 341 660 61-661 330 653h21L590-8l-61 660L188-8zm310 78l22 103h19l-22-103h-19zm220 0l22 103h19l-22-103h-19z"/><glyph glyph-name="wdieresis" unicode="ẅ" horiz-adv-x="737" d="M67 500h20l66-453 269 461 73-462 258 454h23L485-8l-74 461L143-8zm252 84l22 103h19l-22-103h-19zm220 0l22 103h19l-22-103h-19z"/><glyph glyph-name="uni1ECA" unicode="Ị" horiz-adv-x="247" d="M212 710h19L80 0H61zM22-184L44-81h19L41-184H22z"/><glyph glyph-name="uni1ECB" unicode="ị" horiz-adv-x="199" d="M188 710q4 4 11 4t8-4l-19-90h-19zm-45-210h19L56 0H37zM-2-184L20-81h19L17-184H-2z"/><glyph glyph-name="uni1ECC" unicode="Ọ" horiz-adv-x="852" d="M99 325q0-62 20.5-118.5t60-100T277 37t133-26q89 0 160.5 30.5t122 82 78 119.5T798 385q0 62-20.5 118.5t-60 100T620 673t-133 26q-89 0-160.5-30.5t-122-82-78-119.5T99 325zm719 60q0-75-28-146t-81-126-128.5-88T410-8q-80 0-141.5 27.5T165 93t-64 106.5T79 325q0 75 28 146t81 126 128.5 88T487 718q79 0 141-27.5T732 617t64-106.5T818 385zM324-184l22 103h19l-22-103h-19z"/><glyph glyph-name="uni1ECD" unicode="ọ" horiz-adv-x="624" d="M71 227q0-51 18.5-91t49-68 70-42.5T291 11q55 0 102.5 19.5t83 54.5 56 83T553 273q0 51-18.5 91t-49 68-70 42.5T333 489q-55 0-102.5-19.5t-83-54.5-56-83T71 227zm502 46q0-59-21.5-110t-59-89-89-60T292-8q-57 0-102 19.5t-75.5 52-47 75T51 227q0 58 21.5 109.5t59 89.5 89 60T332 508q57 0 102-19.5t75.5-52 47-75T573 273zM210-184l22 103h19l-22-103h-19z"/><glyph glyph-name="uni1EE4" unicode="Ụ" horiz-adv-x="727" d="M626 260Q598 129 523 60.5T324-8Q218-8 158 42T98 188q0 17 1.5 34.5T106 260l96 450h19l-96-450q-5-20-6.5-37t-1.5-34q0-90 56-134t150-44q112 0 184.5 61T607 260l96 450h19l-96-450zM263-184l22 103h19l-22-103h-19z"/><glyph glyph-name="uni1EE5" unicode="ụ" horiz-adv-x="577" d="M434 92q-32-44-80.5-72T242-8q-85 0-130 41T67 147q0 14 2 28t5 30l62 295h19L92 201q-6-27-6-51 0-66 41-102.5T242 11q66 0 116 33t85 90l78 366h19L434 0h-19zM183-184l22 103h19l-22-103h-19z"/><glyph glyph-name="Ygrave" unicode="Ỳ" horiz-adv-x="572" d="M288 302L116 710h20l164-388 329 388h24L307 302 243 0h-19zm42 611h19l79-145h-19z"/><glyph glyph-name="ygrave" unicode="ỳ" horiz-adv-x="515" d="M194 9L63 500h21L208 30l329 470h24L81-184H58zm60 701h19l75-165h-19z"/><glyph glyph-name="endash" unicode="–" horiz-adv-x="561" d="M83 280h408l-4-19H79z"/><glyph glyph-name="emdash" unicode="—" horiz-adv-x="869" d="M83 280h716l-4-19H79z"/><glyph glyph-name="quoteleft" unicode="‘" horiz-adv-x="194" d="M157 566l-21-97h-19l22 104 83 137h21z"/><glyph glyph-name="quoteright" unicode="’" horiz-adv-x="197" d="M190 613l21 97h19l-22-104-83-137h-21z"/><glyph glyph-name="quotesinglbase" unicode="‚" horiz-adv-x="182" d="M39 6l21 97h19L57-1l-83-137h-21z"/><glyph glyph-name="quotedblleft" unicode="“" horiz-adv-x="378" d="M157 566l-21-97h-19l22 104 83 137h21zm184 0l-21-97h-19l22 104 83 137h21z"/><glyph glyph-name="quotedblright" unicode="”" horiz-adv-x="381" d="M190 613l21 97h19l-22-104-83-137h-21zm184 0l21 97h19l-22-104-83-137h-21z"/><glyph glyph-name="quotedblbase" unicode="„" horiz-adv-x="366" d="M39 6l21 97h19L57-1l-83-137h-21zm184 0l21 97h19L241-1l-83-137h-21z"/><glyph glyph-name="bullet" unicode="•" horiz-adv-x="445" d="M232 166q-28 0-53 10.5t-43.5 29-29 43.5T96 302t10.5 53 29 43.5 43.5 29 53 10.5 53-10.5 43.5-29 29-43.5 10.5-53-10.5-53-29-43.5-43.5-29-53-10.5z"/><glyph glyph-name="ellipsis" unicode="…" horiz-adv-x="527" d="M31 0l22 103h19L50 0H31zm176 0l22 103h19L226 0h-19zm177 0l22 103h19L403 0h-19z"/><glyph glyph-name="guilsinglleft" unicode="‹" horiz-adv-x="284" d="M57 251l193 212 13-13L80 248l96-203-17-8z"/><glyph glyph-name="guilsinglright" unicode="›" horiz-adv-x="282" d="M226 249L33 37 20 50l183 202-96 203 17 8z"/><glyph glyph-name="Euro" unicode="€" horiz-adv-x="695" d="M92 455h113q19 55 54.5 103t84.5 83.5 111 56T591 718q40 0 77-8t69-22l-9-17q-29 13-64 20.5t-73 7.5q-69 0-127.5-18.5t-105-51.5-80-77.5T226 455h387l-9-19H219q-16-52-16-111 0-26 3-48h313l-10-19H209q10-51 34.5-96t63-78.5 90.5-53T514 11q48 0 92 9l-4-20q-21-4-43-6t-45-2q-69 0-125 21t-97 57-67 84.5T189 258H45l9 19h132q-3 24-3 48 0 59 16 111H83z"/><glyph glyph-name="minus" unicode="−" horiz-adv-x="590" d="M79 280h440v-19H79v19z"/><glyph glyph-name="uniFB01" unicode="ﬁ" horiz-adv-x="495" d="M60 500h128q-21 12-35 36.5T139 589q0 27 11.5 49.5t32 38T231 701t61 9h91l-4-18h-83q-63 0-100-28t-37-76q0-35 24.5-61.5T255 500h84l-4-19H197L95 0H76l102 481H56zm424 210q4 4 11 4t8-4l-19-90h-19zm-45-210h19L352 0h-19z"/><glyph glyph-name="uniFB02" unicode="ﬂ" horiz-adv-x="495" d="M60 500h128q-21 12-35 36.5T139 589q0 27 11.5 49.5t32 38T231 701t61 9h91l-4-18h-83q-63 0-100-28t-37-76q0-35 24.5-61.5T255 500h84l-4-19H197L95 0H76l102 481H56zm424 210h19L352 0h-19z"/><glyph glyph-name="glyph332" horiz-adv-x="59" d="M-31-184L-9-81h19l-22-103h-19z"/><glyph glyph-name="glyph334" horiz-adv-x="215" d="M119-50h21L30-215H9z"/><glyph glyph-name="glyph338" horiz-adv-x="500" d="M406 710h20l-68-170h-17z"/><glyph glyph-name="glyph339" horiz-adv-x="181" d="M353 913h23L236 768h-23z"/><glyph glyph-name="glyph340" horiz-adv-x="313" d="M485 902q-16-56-51.5-88.5T334 781q-58 0-91 27t-33 74q0 5 .5 10t1.5 10h18q-1-5-1-9.5V884q0-46 30.5-65t75.5-19q51 0 82 23t50 79h18z"/><glyph glyph-name="glyph341" horiz-adv-x="384" d="M569 910L358 771 205 910l11 13 144-129 200 130z"/><glyph glyph-name="glyph342" horiz-adv-x="384" d="M167 789l211 139 153-139-11-13-144 129-200-130z"/><glyph glyph-name="glyph343" horiz-adv-x="279" d="M175 788l22 103h19l-22-103h-19zm220 0l22 103h19l-22-103h-19z"/><glyph glyph-name="glyph344" horiz-adv-x="59" d="M173 788l22 103h19l-22-103h-19z"/><glyph glyph-name="glyph345" horiz-adv-x="181" d="M166 913h19l79-145h-19z"/><glyph glyph-name="glyph346" horiz-adv-x="371" d="M353 913h23L236 768h-23zm202 0h23L438 768h-23z"/><glyph glyph-name="glyph347" horiz-adv-x="321" d="M184 850h278l-4-19H180z"/><glyph glyph-name="glyph348" horiz-adv-x="200" d="M215 836q0-26 18-44.5t44-18.5 44 18.5 18 44.5-18 44.5-44 18.5-44-18.5-18-44.5zm142 0q0-33-23.5-56.5T277 756t-56.5 23.5T197 836t23.5 56.5T277 916t56.5-23.5T357 836z"/><glyph glyph-name="glyph349" horiz-adv-x="381" d="M195 803q11 45 38 67t57 22q26 0 45-11t35.5-24.5T403 832t36-11q28 0 47.5 18.5T516 892h19q-14-48-39.5-68.5T439 803q-24 0-42 11t-34 24.5-33.5 24.5-39.5 11q-29 0-47.5-19T214 803h-19z"/></font>
</defs>
</svg>
